<?xml version="1.0" standalone="no"?>
<!DOCTYPE svg PUBLIC "-//W3C//DTD SVG 1.1//EN" "http://www.w3.org/Graphics/SVG/1.1/DTD/svg11.dtd" >
<svg xmlns="http://www.w3.org/2000/svg" xmlns:xlink="http://www.w3.org/1999/xlink" version="1.1">
<metadata>
Created by FontForge 20170731 at Tue Sep 14 13:51:35 2021
 By Aleksey,,,
(c) 2010 - 2018 Adobe Systems Incorporated (http://www.adobe.com/), with Reserved Font Name `Source'.
</metadata>
<defs>
<font id="SourceSansPro-Italic" horiz-adv-x="0" >
  <font-face 
    font-family="Source Sans Pro"
    font-weight="400"
    font-style="italic"
    font-stretch="normal"
    units-per-em="1000"
    panose-1="2 11 5 3 3 4 3 9 2 4"
    ascent="800"
    descent="-200"
    x-height="486"
    cap-height="656"
    bbox="-323 -263 2077 969"
    underline-thickness="50"
    underline-position="-125"
    slope="-11"
    unicode-range="U+0021-1F16B"
  />
<missing-glyph horiz-adv-x="628" 
d="M36 0l130 660h456l-130 -660h-456zM338 384h4l67 93l90 127h-229l40 -127zM150 56h249l-44 136l-31 101h-4l-71 -101zM120 105l169 235l-75 235zM450 105l96 470l-171 -235z" />
    <glyph glyph-name="f_f" unicode="ff" horiz-adv-x="549" 
d="M311 0l85 424h-191l-86 -424h-76l85 424h-63l11 57l65 5l14 71q16 74 56.5 115.5t103.5 41.5q29 0 51 -6.5t42 -16.5l-27 -56q-12 7 -26 12t-34 5q-35 0 -58 -25t-31 -68l-15 -73h192l16 81q15 74 54 115.5t100 41.5q26 0 46.5 -6.5t39.5 -16.5l-27 -56q-10 7 -23.5 12
t-30.5 5q-33 0 -53.5 -25t-29.5 -68l-17 -83h99l-13 -62h-98l-85 -424h-76z" />
    <glyph glyph-name="f_t" unicode="ft" horiz-adv-x="561" 
d="M43 0l85 424h-63l11 57l65 5l16 81q15 74 54 115.5t100 41.5q26 0 46.5 -6.5t39.5 -16.5l-27 -56q-10 7 -23.5 12t-30.5 5q-33 0 -53.5 -25t-28.5 -68l-17 -83h167l36 134h65l-27 -134h123l-12 -62h-125l-57 -278q-3 -18 -3 -36q0 -30 14 -45t48 -15q14 0 27 5t24 10
l16 -55q-16 -7 -39 -14.5t-52 -7.5q-64 0 -90 31.5t-26 76.5q0 15 1 28t4 26l57 274h-163l-86 -424h-76z" />
    <glyph glyph-name="f_f_t" unicode="fft" horiz-adv-x="829" 
d="M311 0l85 424h-191l-86 -424h-76l85 424h-63l11 57l65 5l14 71q16 74 56.5 115.5t103.5 41.5q29 0 51 -6.5t42 -16.5l-27 -56q-12 7 -26 12t-34 5q-35 0 -58 -25t-31 -68l-15 -73h192l16 81q15 74 54 115.5t100 41.5q26 0 46.5 -6.5t39.5 -16.5l-27 -56q-10 7 -23.5 12
t-30.5 5q-33 0 -53.5 -25t-29.5 -68l-17 -83h167l37 134h64l-26 -134h123l-13 -62h-124l-57 -278q-1 -9 -2.5 -17.5t-1.5 -18.5q0 -30 14 -45t48 -15q15 0 28 5t24 10l16 -55q-16 -7 -39.5 -14.5t-52.5 -7.5q-63 0 -89.5 31.5t-26.5 76.5q0 27 6 54l57 274h-164l-85 -424
h-76z" />
    <glyph glyph-name=".notdef" horiz-adv-x="628" 
d="M36 0l130 660h456l-130 -660h-456zM338 384h4l67 93l90 127h-229l40 -127zM150 56h249l-44 136l-31 101h-4l-71 -101zM120 105l169 235l-75 235zM450 105l96 470l-171 -235z" />
    <glyph glyph-name=".null" 
 />
    <glyph glyph-name="nonmarkingreturn" horiz-adv-x="333" 
 />
    <glyph glyph-name="space" unicode="&#xa0;" horiz-adv-x="200" 
 />
    <glyph glyph-name="space" unicode=" " horiz-adv-x="200" 
 />
    <glyph glyph-name="exclam" unicode="!" horiz-adv-x="282" 
d="M102 196l82 475h77l-19 -92l-86 -383h-54zM91 -12q-22 0 -35 14t-13 36q0 26 19.5 48t47.5 22q23 0 34.5 -14.5t11.5 -36.5q0 -25 -18 -47t-47 -22z" />
    <glyph glyph-name="quotedbl" unicode="&#x22;" horiz-adv-x="407" 
d="M128 426l23 153l15 92h75l-19 -92l-42 -153h-52zM293 426l23 153l15 92h75l-19 -92l-42 -153h-52z" />
    <glyph glyph-name="numbersign" unicode="#" horiz-adv-x="479" 
d="M38 0l65 205h-79l13 55h82l46 150h-80l14 55h84l59 185h51l-58 -185h125l59 185h51l-58 -185h79l-14 -55h-82l-46 -150h81l-14 -55h-85l-64 -205h-52l65 205h-126l-64 -205h-52zM171 260h127l46 150h-127z" />
    <glyph glyph-name="dollar" unicode="$" horiz-adv-x="480" 
d="M142 -110l20 102q-44 9 -81.5 34t-63.5 56l49 48q23 -30 58 -54t80 -24q55 0 90 32t35 84q0 36 -15.5 62.5t-40 48t-51.5 41t-51.5 42t-40 50.5t-15.5 66q0 49 22.5 87.5t62.5 61.5t91 26l20 98h56l-21 -103q35 -9 65.5 -31t52.5 -51l-50 -45q-20 29 -49 49t-64 20
q-48 0 -79 -28.5t-31 -73.5q0 -37 21.5 -63t53.5 -48.5t63.5 -48.5t53 -61t21.5 -87t-23 -94t-64.5 -68t-98.5 -30l-20 -98h-56z" />
    <glyph glyph-name="percent" unicode="%" horiz-adv-x="791" 
d="M184 258q-58 0 -90.5 43.5t-32.5 108.5q0 47 12 93t35.5 84.5t57.5 61.5t77 23q58 0 90.5 -43.5t32.5 -108.5q0 -46 -12 -92.5t-35.5 -85t-57 -61.5t-77.5 -23zM189 308q28 0 50 18.5t37 49.5t23 67.5t8 72.5q0 46 -16 76t-53 30q-28 0 -50 -18.5t-37 -49.5t-23 -67.5
t-8 -72.5q0 -46 16 -76t53 -30zM135 -12l484 684h52l-484 -684h-52zM570 -12q-58 0 -90.5 43.5t-32.5 108.5q0 47 12 93t35.5 84.5t57.5 61.5t77 23q58 0 90.5 -43.5t32.5 -108.5q0 -46 -12 -92.5t-35.5 -85t-57 -61.5t-77.5 -23zM575 38q28 0 50 18.5t37 49.5t23 67.5
t8 72.5q0 46 -16 76t-53 30q-28 0 -50 -18.5t-37 -49.5t-23 -67.5t-8 -72.5q0 -46 16 -76t53 -30z" />
    <glyph glyph-name="ampersand" unicode="&#x26;" horiz-adv-x="582" 
d="M229 480q0 -38 11 -82q38 23 69.5 46t51 51t19.5 63q0 23 -12 39.5t-38 16.5q-43 0 -72 -37.5t-29 -96.5zM180 -12q-74 0 -119.5 41.5t-45.5 111.5q0 54 23.5 94t61.5 71t81 57q-18 59 -18 113q0 56 24 99.5t63 68t85 24.5q54 0 81 -30.5t27 -76.5q0 -51 -27 -89.5
t-69 -69.5t-88 -60q21 -52 53.5 -101.5t69.5 -89.5q41 43 71.5 93t56.5 108h70q-31 -66 -69 -127.5t-86 -113.5q55 -44 102 -61l-32 -62q-61 20 -123 73q-42 -34 -90 -53.5t-102 -19.5zM91 151q0 -46 28.5 -74t74.5 -28q35 0 69.5 14t66.5 39q-39 43 -72 95t-56 107
q-46 -31 -78.5 -67.5t-32.5 -85.5z" />
    <glyph glyph-name="quotesingle" unicode="'" horiz-adv-x="242" 
d="M128 426l23 153l15 92h75l-19 -92l-42 -153h-52z" />
    <glyph glyph-name="parenleft" unicode="(" horiz-adv-x="291" 
d="M122 -176q-24 64 -40.5 145.5t-16.5 163.5q0 117 27.5 217.5t79.5 194t126 186.5l45 -25q-106 -134 -160 -278.5t-54 -302.5q0 -46 4.5 -97t14.5 -99t24 -86z" />
    <glyph glyph-name="parenright" unicode=")" horiz-adv-x="293" 
d="M1 -176l-45 26q106 134 159.5 278.5t53.5 301.5q0 47 -4.5 98t-13.5 98.5t-24 85.5l50 19q24 -64 40.5 -145t16.5 -163q0 -117 -27.5 -218t-79.5 -194t-126 -187z" />
    <glyph glyph-name="asterisk" unicode="*" horiz-adv-x="403" 
d="M176 434l-32 29l69 88l-88 49l18 40l99 -33l25 106l44 -4l-8 -107l103 14l7 -43l-103 -31l38 -97l-40 -23l-52 88z" />
    <glyph glyph-name="plus" unicode="+" horiz-adv-x="480" 
d="M222 103v199h-174v57h175v195h60v-195h175v-57h-176v-199h-60z" />
    <glyph glyph-name="comma" unicode="," horiz-adv-x="242" 
d="M-20 -164l-11 46q47 18 75.5 48t35.5 66h-2q-22 0 -37 13t-15 35q0 25 17.5 44.5t46.5 19.5q26 0 40 -18t14 -48q0 -73 -45 -129t-119 -77z" />
    <glyph glyph-name="hyphen" unicode="&#x2011;" horiz-adv-x="299" 
d="M35 222l12 59h219l-13 -59h-218z" />
    <glyph glyph-name="hyphen" unicode="&#x2010;" horiz-adv-x="299" 
d="M35 222l12 59h219l-13 -59h-218z" />
    <glyph glyph-name="hyphen" unicode="&#xad;" horiz-adv-x="299" 
d="M35 222l12 59h219l-13 -59h-218z" />
    <glyph glyph-name="hyphen" unicode="-" horiz-adv-x="299" 
d="M35 222l12 59h219l-13 -59h-218z" />
    <glyph glyph-name="period" unicode="." horiz-adv-x="242" 
d="M70 -12q-22 0 -34.5 14t-12.5 36q0 26 19.5 48t47.5 22q22 0 34 -14.5t12 -36.5q0 -25 -18.5 -47t-47.5 -22z" />
    <glyph glyph-name="slash" unicode="/" horiz-adv-x="340" 
d="M-72 -160l434 870h56l-435 -870h-55z" />
    <glyph glyph-name="zero" unicode="0" horiz-adv-x="480" 
d="M200 -12q-50 0 -85.5 28t-54 77.5t-18.5 111.5q0 89 21 169.5t57.5 142.5t84.5 97.5t101 35.5q50 0 85 -29t53 -78.5t18 -111.5q0 -90 -20.5 -170t-57 -141.5t-84 -96.5t-100.5 -35zM204 49q39 0 72.5 34t59.5 90.5t40.5 124.5t14.5 136q0 67 -22 110.5t-68 43.5
q-39 0 -72.5 -34.5t-59.5 -91t-40.5 -124.5t-14.5 -136q0 -66 22 -109.5t68 -43.5z" />
    <glyph glyph-name="one" unicode="1" horiz-adv-x="480" 
d="M26 0l13 64h139l96 478h-113l10 50q85 12 140 46h59l-116 -574h130l-12 -64h-346z" />
    <glyph glyph-name="two" unicode="2" horiz-adv-x="480" 
d="M-10 0l8 46q96 81 167 142.5t118 110.5t70.5 93.5t23.5 90.5q0 44 -25.5 74t-78.5 30q-32 0 -64.5 -16.5t-66.5 -47.5l-39 48q44 38 87.5 58.5t91.5 20.5q82 0 126 -44.5t44 -112.5q0 -53 -21 -100t-62 -95t-103 -104t-145 -128h276l-12 -66h-395z" />
    <glyph glyph-name="three" unicode="3" horiz-adv-x="480" 
d="M187 -12q-65 0 -115.5 32.5t-80.5 77.5l51 40q23 -34 60 -60t86 -26q68 0 111.5 37.5t43.5 94.5q0 51 -42 84t-143 33l12 58q79 0 124.5 20.5t65 51t19.5 60.5q0 42 -25 69t-76 27q-29 0 -62.5 -14t-62.5 -37l-39 51q83 63 176 63q80 0 123.5 -40t43.5 -106
q0 -61 -37.5 -107t-111.5 -67v-4q53 -17 82.5 -53t29.5 -86q0 -61 -30.5 -105.5t-83 -69t-119.5 -24.5z" />
    <glyph glyph-name="four" unicode="4" horiz-adv-x="480" 
d="M331 0h-72l35 176h-279l9 52l350 410h84l-80 -400h83l-12 -62h-83zM109 238h197l38 189q6 29 15 61.5t16 65.5h-4q-20 -28 -40 -54t-40 -50z" />
    <glyph glyph-name="five" unicode="5" horiz-adv-x="480" 
d="M188 -12q-65 0 -112 31.5t-76 76.5l50 41q22 -33 54.5 -59t88.5 -26q42 0 78 21t58 59.5t22 89.5q0 62 -31.5 92t-83.5 30q-31 0 -53 -8t-54 -25l-33 26l80 301h299l-13 -66h-233l-52 -188q17 8 38 14t46 6q72 0 119.5 -42.5t47.5 -125.5q0 -76 -33.5 -131.5t-88.5 -86
t-118 -30.5z" />
    <glyph glyph-name="six" unicode="6" horiz-adv-x="480" 
d="M123 202q0 -69 29.5 -111.5t79.5 -42.5q38 0 68 23.5t47.5 60.5t17.5 77q0 55 -25.5 87.5t-75.5 32.5q-25 0 -64.5 -17t-75.5 -64q-1 -11 -1 -22.5v-23.5zM228 -12q-54 0 -94 28t-61.5 76.5t-21.5 111.5q0 98 22.5 179.5t62.5 141t94.5 92.5t118.5 33q53 0 87.5 -24.5
t54.5 -56.5l-52 -41q-34 58 -94 58q-50 0 -93.5 -33.5t-75 -95t-45.5 -145.5q33 38 75 56t75 18q71 0 113.5 -44t42.5 -122q0 -62 -27.5 -115t-75 -85t-106.5 -32z" />
    <glyph glyph-name="seven" unicode="7" horiz-adv-x="480" 
d="M120 0q29 120 66 219.5t92.5 186t136.5 166.5h-310l14 66h398l-10 -50q-99 -93 -158 -187t-92.5 -193t-56.5 -208h-80z" />
    <glyph glyph-name="eight" unicode="8" horiz-adv-x="480" 
d="M222 -12q-46 0 -89.5 18t-71.5 54.5t-28 92.5q0 49 21.5 86t55.5 63.5t73 43.5v4q-28 28 -43 57.5t-15 68.5q0 55 26 93.5t69.5 59.5t93.5 21q41 0 77.5 -16t59.5 -48.5t23 -82.5q0 -64 -35 -107t-90 -74v-4q20 -13 40 -33.5t34 -48.5t14 -62q0 -58 -30 -99.5t-78.5 -64
t-106.5 -22.5zM309 345q37 24 67 61t30 87q0 47 -28 73t-70 26q-44 0 -79 -29.5t-35 -82.5q0 -50 31 -79.5t84 -55.5zM226 45q36 0 68 14.5t52 42.5t20 68q0 37 -20.5 62.5t-54 46t-72.5 41.5q-50 -28 -83 -65.5t-33 -93.5q0 -55 36.5 -85.5t86.5 -30.5z" />
    <glyph glyph-name="nine" unicode="9" horiz-adv-x="480" 
d="M141 429q0 -55 26 -87.5t76 -32.5q24 0 64 17t75 64q1 11 1 22.5v23.5q0 69 -29.5 111.5t-79.5 42.5q-37 0 -67 -23.5t-48 -60.5t-18 -77zM157 -12q-52 0 -86.5 24t-54.5 57l52 41q32 -58 94 -58q50 0 93 33.5t74.5 95t44.5 143.5q-33 -37 -74.5 -54.5t-74.5 -17.5
q-70 0 -112.5 44t-42.5 122q0 63 27.5 115.5t74.5 84.5t106 32q55 0 94.5 -27.5t61 -76.5t21.5 -112q0 -97 -22.5 -179t-62.5 -141.5t-94.5 -92.5t-118.5 -33z" />
    <glyph glyph-name="colon" unicode=":" horiz-adv-x="242" 
d="M134 357q-22 0 -34.5 14t-12.5 36q0 26 19.5 48t47.5 22q22 0 34 -14.5t12 -36.5q0 -25 -18.5 -47t-47.5 -22zM70 -12q-22 0 -34.5 14t-12.5 36q0 26 19.5 48t47.5 22q22 0 34 -14.5t12 -36.5q0 -25 -18.5 -47t-47.5 -22z" />
    <glyph glyph-name="semicolon" unicode=";" horiz-adv-x="242" 
d="M134 357q-22 0 -34.5 14t-12.5 36q0 26 19.5 48t47.5 22q22 0 34 -14.5t12 -36.5q0 -25 -18.5 -47t-47.5 -22zM-20 -164l-11 46q47 18 75.5 48t35.5 66h-2q-22 0 -37 13t-15 35q0 25 17.5 44.5t46.5 19.5q26 0 40 -18t14 -48q0 -73 -45 -129t-119 -77z" />
    <glyph glyph-name="less" unicode="&#x3c;" horiz-adv-x="480" 
d="M458 135l-412 166v58l412 167v-65l-203 -80l-125 -48v-4l125 -49l203 -79v-66z" />
    <glyph glyph-name="equal" unicode="=" horiz-adv-x="480" 
d="M48 408v57h410v-57h-410zM48 195v57h410v-57h-410z" />
    <glyph glyph-name="greater" unicode="&#x3e;" horiz-adv-x="480" 
d="M48 135v66l204 79l124 49v4l-124 48l-204 80v65l412 -167v-58z" />
    <glyph glyph-name="question" unicode="?" horiz-adv-x="409" 
d="M145 201q3 51 24 88t50 66t57.5 55.5t47.5 55t19 65.5q0 41 -23 64t-63 23q-28 0 -55.5 -14t-49.5 -37l-41 46q29 30 69.5 49.5t85.5 19.5q70 0 111 -36.5t41 -101.5q0 -49 -19.5 -84.5t-49 -64.5t-60 -58t-52.5 -62.5t-26 -79.5zM141 -12q-22 0 -34.5 14t-12.5 36
q0 26 19.5 48t47.5 22q22 0 34 -14.5t12 -36.5q0 -25 -18.5 -47t-47.5 -22z" />
    <glyph glyph-name="at" unicode="@" horiz-adv-x="814" 
d="M352 -155q-86 0 -155.5 37.5t-110.5 108.5t-41 172q0 103 36 190.5t97.5 152.5t139.5 101.5t162 36.5q95 0 161 -38.5t101 -105t35 -152.5q0 -97 -30 -164.5t-78 -102t-102 -34.5q-35 0 -59 20.5t-31 55.5h-3q-23 -28 -52.5 -47.5t-62.5 -19.5q-46 0 -80.5 35.5
t-34.5 99.5q0 44 15.5 86.5t42 76.5t62.5 54.5t76 20.5q47 0 73 -51h2l13 43h51l-50 -217q-10 -46 1 -75t51 -29q33 0 65.5 27.5t54 81t21.5 129.5q0 73 -26.5 130.5t-81.5 91t-141 33.5q-68 0 -134 -31.5t-119.5 -88.5t-85.5 -133.5t-32 -165.5t35 -151t93 -94t128 -32
q75 0 135 37l23 -46q-80 -43 -164 -43zM373 109q45 0 90 61l36 161q-13 26 -27.5 35.5t-31.5 9.5q-39 0 -69.5 -28t-48 -69.5t-17.5 -80.5q0 -45 19.5 -67t48.5 -22z" />
    <glyph glyph-name="A" unicode="A" horiz-adv-x="510" 
d="M227 377l-58 -112h195l-10 112q-4 52 -9 105t-9 109h-4q-26 -57 -51.5 -108.5t-53.5 -105.5zM-53 0l356 656h90l76 -656h-81l-18 205h-232l-105 -205h-86z" />
    <glyph glyph-name="B" unicode="B" horiz-adv-x="583" 
d="M35 0l131 656h175q95 0 149 -37t54 -108q0 -44 -21.5 -78t-55 -56t-69.5 -30l-1 -4q51 -12 86 -44.5t35 -88.5q0 -73 -35.5 -119.5t-97.5 -68.5t-140 -22h-210zM187 374h94q94 0 139 35.5t45 90.5q0 45 -34.5 70t-108.5 25h-91zM124 61h114q94 0 149 34.5t55 110.5
q0 50 -38.5 80.5t-111.5 30.5h-116z" />
    <glyph glyph-name="C" unicode="C" horiz-adv-x="550" 
d="M290 -12q-75 0 -127 33.5t-79 93.5t-27 138q0 77 24 151t69 133.5t107.5 95t138.5 35.5q56 0 96.5 -27.5t64.5 -69.5l-54 -41q-19 32 -46 51.5t-65 19.5q-58 0 -105.5 -30.5t-80.5 -80.5t-51 -110t-18 -120q0 -59 17 -105.5t54 -73t96 -26.5q40 0 73.5 16t65.5 43l35 -50
q-36 -31 -82.5 -53.5t-105.5 -22.5z" />
    <glyph glyph-name="D" unicode="D" horiz-adv-x="592" 
d="M35 0l131 656h122q137 0 207.5 -67.5t70.5 -188.5q0 -119 -42.5 -209t-122 -140.5t-190.5 -50.5h-176zM125 64h86q85 0 147 42t95.5 117t33.5 172q0 93 -51.5 145.5t-150.5 52.5h-54z" />
    <glyph glyph-name="E" unicode="E" horiz-adv-x="503" 
d="M35 0l131 656h362l-13 -65h-285l-42 -213h241l-14 -66h-239l-51 -246h294l-14 -66h-370z" />
    <glyph glyph-name="F" unicode="F" horiz-adv-x="473" 
d="M35 0l131 656h362l-13 -65h-285l-45 -228h241l-13 -66h-240l-60 -297h-78z" />
    <glyph glyph-name="G" unicode="G" horiz-adv-x="588" 
d="M300 -12q-118 0 -180.5 72.5t-62.5 192.5q0 78 24 152t69.5 133.5t110 94.5t145.5 35q59 0 99.5 -27.5t65.5 -69.5l-55 -41q-19 32 -46.5 51.5t-67.5 19.5q-62 0 -111 -30.5t-83.5 -80.5t-52.5 -110t-18 -120q0 -58 17.5 -105t55.5 -74t101 -27q36 0 64.5 12t47.5 28
l37 181h-136l13 64h206l-57 -284q-36 -30 -83 -48.5t-103 -18.5z" />
    <glyph glyph-name="H" unicode="H" horiz-adv-x="622" 
d="M35 0l131 656h78l-56 -277h296l56 277h77l-131 -656h-78l63 312h-296l-62 -312h-78z" />
    <glyph glyph-name="I" unicode="I" horiz-adv-x="252" 
d="M35 0l131 656h78l-131 -656h-78z" />
    <glyph glyph-name="J" unicode="J" horiz-adv-x="456" 
d="M159 -12q-58 0 -99 27.5t-62 73.5l51 43q14 -36 42.5 -56.5t69.5 -20.5q50 0 81 37.5t44 102.5l92 461h78l-94 -472q-16 -85 -66.5 -140.5t-136.5 -55.5z" />
    <glyph glyph-name="K" unicode="K" horiz-adv-x="559" 
d="M35 0l131 656h78l-65 -324h3l329 324h88l-246 -252l149 -404h-81l-126 354l-137 -134l-45 -220h-78z" />
    <glyph glyph-name="L" unicode="L" horiz-adv-x="462" 
d="M35 0l131 656h78l-118 -590h276l-13 -66h-354z" />
    <glyph glyph-name="M" unicode="M" horiz-adv-x="705" 
d="M35 0l131 656h93l57 -354l22 -136h4l70 136l195 354h93l-131 -656h-75l76 370q9 44 22 97t25 96h-4l-79 -146l-193 -348h-44l-61 348l-22 146h-4q-6 -44 -13 -96.5t-15 -96.5l-74 -370h-73z" />
    <glyph glyph-name="N" unicode="N" horiz-adv-x="619" 
d="M35 0l131 656h78l150 -420l42 -137h4q6 49 13 103.5t17 105.5l69 348h75l-131 -656h-77l-148 419l-43 141h-4q-6 -51 -13.5 -104t-17.5 -103l-70 -353h-75z" />
    <glyph glyph-name="O" unicode="O" horiz-adv-x="633" 
d="M287 -12q-110 0 -168.5 75.5t-58.5 199.5q0 75 23 147t66 130.5t101.5 93t128.5 34.5q74 0 124.5 -34t76.5 -95.5t26 -144.5q0 -75 -23 -147.5t-66 -131t-101 -93t-129 -34.5zM291 55q53 0 96.5 30t74.5 79t48 107.5t17 115.5q0 97 -37 155.5t-115 58.5
q-53 0 -96.5 -29.5t-74.5 -78.5t-48 -107.5t-17 -116.5q0 -96 36.5 -155t115.5 -59z" />
    <glyph glyph-name="P" unicode="P" horiz-adv-x="550" 
d="M35 0l131 656h185q92 0 149 -37t57 -123q0 -80 -37 -131.5t-101.5 -76t-148.5 -24.5h-105l-52 -264h-78zM178 327h95q101 0 154 40t53 119q0 57 -38 82.5t-110 25.5h-101z" />
    <glyph glyph-name="Q" unicode="Q" horiz-adv-x="633" 
d="M291 53q53 0 96.5 29.5t74.5 79t48 108.5t17 117q0 97 -37 155.5t-115 58.5q-53 0 -96.5 -29.5t-74.5 -78.5t-48 -107.5t-17 -116.5q0 -98 36.5 -157t115.5 -59zM459 -162q-83 0 -143.5 38t-85.5 118q-83 19 -126.5 90.5t-43.5 178.5q0 75 23 147t66 130.5t101.5 93
t128.5 34.5q74 0 124.5 -34t76.5 -95.5t26 -144.5q0 -72 -21.5 -142t-60.5 -127t-93.5 -93.5t-120.5 -42.5q17 -43 59.5 -64.5t94.5 -21.5q15 0 28.5 2t26.5 5l5 -61q-33 -11 -65 -11z" />
    <glyph glyph-name="R" unicode="R" horiz-adv-x="555" 
d="M35 0l131 656h180q92 0 148.5 -35t56.5 -118q0 -91 -55 -146t-138 -72l115 -285h-83l-108 278h-114l-55 -278h-78zM181 341h99q94 0 144 41t50 111q0 54 -37.5 77.5t-109.5 23.5h-96z" />
    <glyph glyph-name="S" unicode="S" horiz-adv-x="506" 
d="M231 -12q-67 0 -123 29t-96 87l57 43q29 -43 71.5 -68t97.5 -25q60 0 100.5 34t40.5 90q0 36 -22.5 61t-59.5 47l-76 46q-42 26 -71.5 62.5t-29.5 91.5q0 50 26.5 91t72.5 66t105 25t107 -26t79 -66l-51 -46q-25 30 -60 50.5t-81 20.5q-37 0 -63.5 -15.5t-41 -39.5
t-14.5 -51q0 -38 24.5 -61.5t60.5 -45.5l76 -45q47 -28 73 -63.5t26 -90.5q0 -58 -29.5 -103.5t-80.5 -71.5t-118 -26z" />
    <glyph glyph-name="T" unicode="T" horiz-adv-x="510" 
d="M166 0l117 589h-190l13 67h459l-13 -67h-191l-117 -589h-78z" />
    <glyph glyph-name="U" unicode="U" horiz-adv-x="616" 
d="M286 -12q-100 0 -153.5 52.5t-53.5 154.5q0 21 3 44.5t7 48.5l74 368h78l-75 -375q-9 -45 -9 -79q0 -70 32 -108.5t101 -38.5q56 0 101 46t66 153l81 402h76l-82 -405q-28 -142 -93 -202.5t-153 -60.5z" />
    <glyph glyph-name="V" unicode="V" horiz-adv-x="496" 
d="M141 0l-59 656h79l27 -364q5 -53 9 -107.5t7 -108.5h4q25 53 51.5 108.5t52.5 107.5l181 364h84l-343 -656h-93z" />
    <glyph glyph-name="W" unicode="W" horiz-adv-x="756" 
d="M95 0l9 656h80l-10 -361q-3 -52 -4.5 -106t-5.5 -107h4q23 53 47 107t46 106l164 361h71l9 -361q1 -52 1 -105.5v-107.5h4q20 54 41.5 107.5t41.5 105.5l142 361h77l-270 -656h-99l-7 401q0 36 1 75.5t2 78.5h-4q-14 -39 -30.5 -77t-33.5 -77l-179 -401h-97z" />
    <glyph glyph-name="X" unicode="X" horiz-adv-x="494" 
d="M-36 0l252 340l-108 316h84l56 -174q7 -22 13 -44t14 -48h3q17 24 34 48.5t32 46.5l120 171h82l-237 -322l117 -334h-84l-60 184q-7 25 -15 50.5t-16 51.5h-3q-19 -26 -37.5 -53.5t-35.5 -52.5l-128 -180h-83z" />
    <glyph glyph-name="Y" unicode="Y" horiz-adv-x="461" 
d="M139 0l51 256l-107 400h80l45 -189q9 -36 16.5 -70.5t16.5 -72.5h3q23 37 45 72.5t46 71.5l124 188h83l-274 -400l-52 -256h-77z" />
    <glyph glyph-name="Z" unicode="Z" horiz-adv-x="512" 
d="M-1 0l10 47l425 544h-300l14 65h393l-10 -46l-422 -544h331l-15 -66h-426z" />
    <glyph glyph-name="bracketleft" unicode="[" horiz-adv-x="292" 
d="M8 -152l172 860h169l-7 -45h-113l-153 -770h112l-11 -45h-169z" />
    <glyph glyph-name="backslash" unicode="\" horiz-adv-x="340" 
d="M203 -160l-115 870h52l117 -870h-54z" />
    <glyph glyph-name="bracketright" unicode="]" horiz-adv-x="292" 
d="M-49 -152l10 45h111l155 770h-112l8 45h171l-172 -860h-171z" />
    <glyph glyph-name="asciicircum" unicode="^" horiz-adv-x="479" 
d="M83 283l146 387h62l146 -387h-64l-65 178l-45 133h-3l-47 -133l-64 -178h-66z" />
    <glyph glyph-name="underscore" unicode="_" horiz-adv-x="483" 
d="M-36 -124l11 50h457l-10 -50h-458z" />
    <glyph glyph-name="grave" unicode="`" horiz-adv-x="517" 
d="M365 570l-132 164l66 49l114 -177z" />
    <glyph glyph-name="a" unicode="a" horiz-adv-x="537" 
d="M179 -12q-64 0 -102 45.5t-38 130.5q0 70 22 130.5t59 106.5t84 71.5t98 25.5q39 0 69.5 -20t47.5 -53h4l19 61h62l-97 -486h-63l8 72h-4q-35 -37 -79 -60.5t-90 -23.5zM207 52q38 0 77.5 23t75.5 70l44 217q-21 38 -46 55t-53 17q-36 0 -69.5 -21t-60 -57.5t-42 -83
t-15.5 -96.5q0 -63 24.5 -93.5t64.5 -30.5z" />
    <glyph glyph-name="b" unicode="b" horiz-adv-x="536" 
d="M234 -12q-39 0 -69.5 20t-47.5 53h-3l-20 -61h-63l142 712h77l-39 -190l-22 -96h2q36 29 78 50.5t87 21.5q64 0 102 -45t38 -131q0 -70 -22 -130.5t-59 -106.5t-84 -71.5t-97 -25.5zM231 52q36 0 69.5 21t60 57.5t41.5 83t15 97.5q0 62 -24 92.5t-65 30.5
q-34 0 -74.5 -21t-75.5 -58l-46 -231q20 -38 45.5 -55t53.5 -17z" />
    <glyph glyph-name="c" unicode="c" horiz-adv-x="435" 
d="M216 -12q-79 0 -129 51t-50 144q0 68 22 125.5t60.5 100t87 66t101.5 23.5q44 0 74 -17t52 -42l-45 -48q-19 23 -38 33.5t-48 10.5q-48 0 -91 -34t-70 -90t-27 -123q0 -66 28.5 -101t86.5 -35q32 0 59 13t49 30l34 -50q-26 -20 -64.5 -38.5t-91.5 -18.5z" />
    <glyph glyph-name="d" unicode="d" horiz-adv-x="535" 
d="M179 -12q-64 0 -102 45.5t-38 130.5q0 70 22 130.5t59 106.5t84 71.5t98 25.5q39 0 68 -19.5t47 -51.5h3l16 95l38 190h77l-144 -712h-63l8 72h-4q-35 -37 -79 -60.5t-90 -23.5zM207 52q38 0 77 23t76 70l44 217q-21 38 -46 55t-53 17q-36 0 -69.5 -21t-60 -57.5t-42 -83
t-15.5 -96.5q0 -63 24.5 -93.5t64.5 -30.5z" />
    <glyph glyph-name="e" unicode="e" horiz-adv-x="481" 
d="M228 -12q-86 0 -138.5 53t-52.5 150q0 69 22.5 125t60 97t83.5 63t94 22q55 0 87.5 -23t47.5 -63t15 -90q0 -28 -6 -53.5t-11 -39.5h-316q-9 -63 7 -103t49.5 -58.5t75.5 -18.5q29 0 57.5 12.5t51.5 29.5l30 -51q-29 -21 -69.5 -36.5t-87.5 -15.5zM122 281h255
q2 11 3.5 23t1.5 25q0 28 -9 52.5t-29.5 40t-55.5 15.5q-53 0 -100 -42.5t-66 -113.5z" />
    <glyph glyph-name="f" unicode="f" horiz-adv-x="282" 
d="M43 0l85 424h-63l11 57l65 5l16 81q15 74 54 115.5t100 41.5q26 0 47 -6.5t39 -17.5l-27 -55q-10 7 -23.5 12t-30.5 5q-33 0 -53.5 -25t-28.5 -68l-17 -83h98l-12 -62h-99l-85 -424h-76z" />
    <glyph glyph-name="g" unicode="g" horiz-adv-x="531" 
d="M171 -220q-49 0 -92 19t-78 48l36 53q28 -23 62.5 -40t74.5 -17q62 0 99 38t51 102l25 104q-38 -38 -80 -60t-89 -22q-61 0 -101 43t-40 128q0 67 21.5 125t58 102.5t82.5 69.5t95 25q38 0 69 -20t48 -53h3l19 61h63l-102 -509q-19 -95 -76.5 -146t-148.5 -51zM205 69
q35 0 75.5 21.5t74.5 63.5l43 208q-22 38 -46.5 55t-52.5 17q-35 0 -67.5 -20.5t-58 -55.5t-40.5 -79t-15 -92q0 -59 23.5 -88.5t63.5 -29.5z" />
    <glyph glyph-name="h" unicode="h" horiz-adv-x="523" 
d="M31 0l142 712h77l-48 -235l-16 -61h4q41 35 82 58.5t85 23.5q62 0 88.5 -32.5t26.5 -88.5q0 -31 -8 -67l-62 -310h-76l60 300q4 20 6 32t2 25q0 75 -72 75q-28 0 -64 -21t-82 -67l-69 -344h-76z" />
    <glyph glyph-name="i" unicode="i" horiz-adv-x="237" 
d="M31 0l97 486h77l-98 -486h-76zM192 587q-19 0 -34 11.5t-15 33.5q0 25 17.5 41.5t40.5 16.5q20 0 34.5 -12t14.5 -34q0 -25 -17.5 -41t-40.5 -16z" />
    <glyph glyph-name="j" unicode="j" horiz-adv-x="238" 
d="M-49 -217q-23 0 -40.5 5t-34.5 14l25 57q10 -6 20 -9.5t26 -3.5q28 0 44.5 24.5t26.5 67.5l111 548h77l-111 -547q-14 -70 -47.5 -113t-96.5 -43zM189 587q-19 0 -34 11.5t-15 33.5q0 25 17.5 41.5t40.5 16.5q20 0 34.5 -12t14.5 -34q0 -25 -17.5 -41t-40.5 -16z" />
    <glyph glyph-name="k" unicode="k" horiz-adv-x="476" 
d="M31 0l142 712h77l-96 -483h2l249 257h88l-194 -203l117 -283h-78l-93 237l-112 -114l-26 -123h-76z" />
    <glyph glyph-name="l" unicode="l" horiz-adv-x="248" 
d="M109 -12q-65 0 -65 63q0 17 6 42l123 619h77l-125 -623q-1 -7 -1.5 -11.5t-0.5 -7.5q0 -18 17 -18q3 0 6 0.5t10 2.5l1 -59q-10 -4 -21 -6t-27 -2z" />
    <glyph glyph-name="m" unicode="m" horiz-adv-x="799" 
d="M31 0l97 486h63l-7 -73h4q38 36 79.5 60.5t79.5 24.5q58 0 82.5 -27.5t29.5 -67.5q47 44 91 69.5t81 25.5q61 0 88 -32.5t27 -88.5q0 -17 -2 -32t-6 -35l-62 -310h-77l61 300q4 20 6 32t2 25q0 75 -71 75q-21 0 -57 -21t-80 -67l-69 -344h-76l60 300q4 20 6 32t2 25
q0 75 -70 75q-22 0 -58 -21t-79 -67l-69 -344h-76z" />
    <glyph glyph-name="n" unicode="n" horiz-adv-x="525" 
d="M31 0l97 486h63l-7 -73h4q41 36 82 60.5t87 24.5q62 0 88.5 -32.5t26.5 -88.5q0 -31 -8 -67l-62 -310h-76l60 300q4 20 6 32t2 25q0 75 -72 75q-28 0 -64 -21t-82 -67l-69 -344h-76z" />
    <glyph glyph-name="o" unicode="o" horiz-adv-x="515" 
d="M212 -12q-79 0 -126 52t-47 143q0 69 22 126.5t59 100t84 65.5t97 23q79 0 126.5 -52t47.5 -143q0 -69 -22 -126.5t-59.5 -100t-84.5 -65.5t-97 -23zM220 52q45 0 85.5 33t66 89t25.5 124q0 66 -27 101.5t-77 35.5q-45 0 -85.5 -33.5t-66 -89.5t-25.5 -124q0 -66 27 -101
t77 -35z" />
    <glyph glyph-name="p" unicode="p" horiz-adv-x="535" 
d="M-10 -205l138 691h63l-6 -64h3q37 31 79.5 53.5t88.5 22.5q64 0 102 -45.5t38 -130.5q0 -70 -22 -130.5t-59 -106.5t-84 -71.5t-97 -25.5q-38 0 -68 19.5t-49 50.5h-2l-18 -104l-31 -159h-76zM231 52q36 0 69.5 21t60 57.5t41.5 83t15 97.5q0 62 -24 92.5t-65 30.5
q-34 0 -74.5 -21t-75.5 -59l-46 -232q20 -37 45.5 -53.5t53.5 -16.5z" />
    <glyph glyph-name="q" unicode="q" horiz-adv-x="537" 
d="M289 -205l33 159l30 119h-2q-37 -38 -81 -61.5t-90 -23.5q-64 0 -102 45.5t-38 130.5q0 70 22 130.5t59 106.5t84 71.5t98 25.5q39 0 69.5 -20t47.5 -53h4l19 61h62l-138 -691h-77zM207 52q38 0 77 23t76 70l44 217q-21 38 -46 55t-53 17q-36 0 -69.5 -21t-60 -57.5
t-42 -83t-15.5 -96.5q0 -63 24.5 -93.5t64.5 -30.5z" />
    <glyph glyph-name="r" unicode="r" horiz-adv-x="342" 
d="M31 0l97 486h63l-11 -93h4q29 44 67 74.5t83 30.5q25 0 46 -9l-27 -68q-16 8 -42 8q-36 0 -74 -31.5t-69 -90.5l-61 -307h-76z" />
    <glyph glyph-name="s" unicode="s" horiz-adv-x="402" 
d="M163 -12q-49 0 -95.5 26t-71.5 66l48 38q23 -31 55 -51t70 -20q42 0 72.5 23t30.5 58q0 26 -20.5 45.5t-76.5 50.5q-46 26 -74.5 57t-28.5 72q0 43 22 75.5t58.5 51t80.5 18.5q46 0 83 -18t65 -48l-46 -40q-19 20 -44.5 33t-58.5 13q-38 0 -62.5 -22.5t-24.5 -53.5
q0 -30 27 -49t59 -37q62 -34 88 -64t26 -74q0 -45 -24 -79t-65 -52.5t-93 -18.5z" />
    <glyph glyph-name="t" unicode="t" horiz-adv-x="325" 
d="M185 -12q-64 0 -90 31.5t-26 76.5q0 15 2 28t3 26l57 274h-71l11 57l76 5l36 134h65l-27 -134h123l-12 -62h-125l-57 -278q-3 -18 -3 -36q0 -30 14 -45t48 -15q14 0 27 5t24 10l17 -55q-16 -7 -39.5 -14.5t-52.5 -7.5z" />
    <glyph glyph-name="u" unicode="u" horiz-adv-x="528" 
d="M171 -12q-61 0 -88 33t-27 88q0 17 2 32.5t6 34.5l62 310h77l-61 -300q-4 -19 -6 -31.5t-2 -25.5q0 -75 72 -75q29 0 64.5 21t79.5 67l69 344h76l-97 -486h-63l8 74h-4q-40 -35 -82 -60.5t-86 -25.5z" />
    <glyph glyph-name="v" unicode="v" horiz-adv-x="448" 
d="M130 0l-71 486h76l36 -281q4 -35 7 -72.5t7 -72.5h4q17 36 35 72.5t37 72.5l143 281h77l-259 -486h-92z" />
    <glyph glyph-name="w" unicode="w" horiz-adv-x="707" 
d="M105 0l-35 486h76l16 -286q1 -34 1.5 -68t1.5 -68h4q15 34 28.5 68t29.5 68l128 286h75l17 -286q2 -34 3 -68l2 -68h4q14 34 27 68t29 68l127 286h72l-221 -486h-95l-14 266q-1 35 -1.5 71t-1.5 72h-4q-15 -36 -29.5 -72t-29.5 -71l-118 -266h-92z" />
    <glyph glyph-name="x" unicode="x" horiz-adv-x="429" 
d="M-44 0l218 258l-91 228h78l42 -108q8 -22 15 -41.5t14 -40.5h4q15 20 31 40.5t31 41.5l85 108h83l-200 -245l99 -241h-79l-44 114q-8 22 -16.5 45t-18.5 45h-4q-16 -22 -33 -44t-36 -45l-94 -115h-84z" />
    <glyph glyph-name="y" unicode="y" horiz-adv-x="448" 
d="M-6 -209q-10 0 -26 3.5t-30 10.5l25 57q18 -9 36 -9q37 0 69.5 30.5t57.5 80.5l18 35l-83 487h76l38 -273q5 -33 9 -71.5t7 -73.5h4q17 35 35.5 73t36.5 72l140 273h76l-286 -527q-25 -47 -54.5 -85.5t-65.5 -60.5t-83 -22z" />
    <glyph glyph-name="z" unicode="z" horiz-adv-x="410" 
d="M-10 0l8 44l323 380h-221l13 62h317l-8 -45l-323 -379h254l-12 -62h-351z" />
    <glyph glyph-name="braceleft" unicode="{" horiz-adv-x="290" 
d="M135 -152q-46 0 -67 19t-21 61q0 28 8.5 65t19 75.5t19 72.5t8.5 56q0 21 -13.5 38.5t-56.5 17.5l11 50q34 0 54 12t30 30.5t14 36.5q9 48 15 94t16 97q15 78 44.5 106.5t89.5 28.5h46l-10 -45h-26q-40 0 -57 -23t-27 -71q-8 -43 -14.5 -88.5t-15.5 -91.5
q-10 -49 -29.5 -76t-54.5 -36v-4q24 -8 34 -23.5t10 -37.5q0 -26 -8 -62.5t-18 -75.5t-18 -73.5t-8 -58.5q0 -25 11.5 -37t43.5 -12h24l-10 -45h-44z" />
    <glyph glyph-name="bar" unicode="|" horiz-adv-x="231" 
d="M95 -250v1000h52v-1000h-52z" />
    <glyph glyph-name="braceright" unicode="}" horiz-adv-x="293" 
d="M-52 -152l9 45h26q40 0 57.5 22t26.5 71q8 43 15 88.5t15 91.5q11 50 30 77t54 36v4q-25 8 -34.5 23.5t-9.5 37.5q0 26 8 62t18 75t18 73.5t8 58.5q0 26 -11 38t-43 12h-25l10 45h44q47 0 68 -19.5t21 -60.5q0 -28 -8.5 -65t-19 -76t-19 -73.5t-8.5 -56.5
q0 -19 13.5 -36.5t56.5 -17.5l-11 -50q-34 0 -54.5 -12t-30 -30t-13.5 -37q-9 -48 -14.5 -94.5t-16.5 -98.5q-16 -77 -45.5 -105t-88.5 -28h-46z" />
    <glyph glyph-name="asciitilde" unicode="~" horiz-adv-x="480" 
d="M332 260q-27 0 -50 13t-42.5 30t-38.5 30t-39 13q-22 0 -39.5 -14.5t-34.5 -46.5l-43 28q25 47 56.5 68t62.5 21q27 0 50 -13t42.5 -30t38.5 -30t39 -13q22 0 40 14.5t34 46.5l43 -28q-25 -46 -56.5 -67.5t-62.5 -21.5z" />
    <glyph glyph-name="exclamdown" unicode="&#xa1;" horiz-adv-x="282" 
d="M21 -185l19 92l86 383h54l-82 -475h-77zM171 378q-22 0 -33.5 14.5t-11.5 36.5q0 26 18.5 47.5t46.5 21.5q22 0 34.5 -14t12.5 -36q0 -25 -19 -47.5t-48 -22.5z" />
    <glyph glyph-name="cent" unicode="&#xa2;" horiz-adv-x="480" 
d="M203 -14l21 106q-67 10 -106.5 60t-39.5 135q0 62 21 112t56 86.5t77.5 57.5t86.5 25l20 102h49l-20 -103q37 -5 63.5 -24t46.5 -42l-47 -45q-17 20 -34.5 32t-41.5 16l-69 -349q32 2 59 14.5t50 28.5l27 -52q-31 -20 -66.5 -36t-81.5 -19l-21 -105h-50zM154 300
q0 -56 21 -93.5t62 -48.5l69 345q-39 -7 -74 -34t-56.5 -70.5t-21.5 -98.5z" />
    <glyph glyph-name="sterling" unicode="&#xa3;" horiz-adv-x="480" 
d="M4 0l9 46q71 35 107.5 94.5t36.5 131.5v5.5v5.5h-96l11 54l80 5q-2 23 -4 45.5t-2 41.5q0 68 26.5 117.5t73 76.5t105.5 27q50 0 84 -25t56 -59l-53 -41q-16 27 -38.5 44t-53.5 17q-55 0 -91.5 -42.5t-36.5 -119.5q0 -19 2 -39.5t4 -42.5h156l-12 -59h-140v-1
q0 -68 -22 -118.5t-67 -93.5v-4h259l-12 -66h-382z" />
    <glyph glyph-name="currency" unicode="&#xa4;" horiz-adv-x="480" 
d="M46 115l-35 42l71 62q-7 16 -11 35t-4 41q0 45 16 85t44 70l-47 61l44 37l48 -63q26 18 55 28t60 10t56 -10t44 -27l73 63l35 -42l-73 -63q16 -34 16 -76q0 -44 -15.5 -83t-41.5 -68l53 -68l-43 -36l-54 68q-26 -19 -56.5 -30.5t-62.5 -11.5q-64 0 -100 39zM226 197
q35 0 67 21.5t52.5 58.5t20.5 83q0 51 -22.5 78.5t-64.5 27.5q-34 0 -66.5 -21.5t-53 -58.5t-20.5 -83q0 -51 22.5 -78.5t64.5 -27.5z" />
    <glyph glyph-name="yen" unicode="&#xa5;" horiz-adv-x="480" 
d="M151 0l33 161h-156l9 42h156l12 69h-155l9 43h136l-91 323h78l41 -176q7 -33 14.5 -66.5t15.5 -69.5h3q23 37 43.5 70.5t42.5 65.5l108 176h77l-216 -323h136l-10 -43h-155l-13 -69h156l-10 -42h-156l-32 -161h-76z" />
    <glyph glyph-name="brokenbar" unicode="&#xa6;" horiz-adv-x="231" 
d="M95 289v461h52v-461h-52zM95 -250v463h52v-463h-52z" />
    <glyph glyph-name="section" unicode="&#xa7;" horiz-adv-x="477" 
d="M182 -60q-45 0 -88.5 20t-78.5 55l41 50q26 -28 60 -46.5t70 -18.5q38 0 63.5 22.5t25.5 56.5q0 26 -16 45t-41 34.5t-52.5 31t-52.5 35t-41 45.5t-16 63q0 54 30.5 91.5t77.5 57.5q-7 13 -11.5 27.5t-4.5 30.5q0 65 43 104.5t108 39.5q44 0 83 -20.5t68 -52.5l-43 -45
q-21 24 -49 41t-60 17q-31 0 -55 -19.5t-24 -54.5q0 -28 22 -49t55 -40t65.5 -41.5t54.5 -53t22 -74.5q0 -58 -28 -91t-78 -56q6 -12 9.5 -25.5t3.5 -29.5q0 -43 -21 -77t-57.5 -53.5t-84.5 -19.5zM124 344q0 -30 17.5 -51t45 -37.5t57.5 -32.5t54 -37q35 13 53.5 34.5
t18.5 61.5q0 29 -17 50.5t-43.5 39.5t-56 35t-54.5 37q-33 -14 -54 -38t-21 -62z" />
    <glyph glyph-name="dieresis" unicode="&#xa8;" horiz-adv-x="517" 
d="M243 589q-17 0 -28.5 10.5t-11.5 29.5q0 23 15 39t36 16q18 0 29.5 -11t11.5 -31q0 -22 -15.5 -37.5t-36.5 -15.5zM429 589q-17 0 -28.5 10.5t-11.5 29.5q0 23 15 39t36 16q18 0 29 -11t11 -31q0 -22 -15 -37.5t-36 -15.5z" />
    <glyph glyph-name="copyright" unicode="&#xa9;" horiz-adv-x="665" 
d="M298 -11q-77 0 -136.5 35.5t-92.5 98t-33 143.5q0 74 26 143t74 124t114.5 87.5t147.5 32.5q78 0 137 -35t92.5 -97.5t33.5 -143.5q0 -74 -26 -143.5t-74 -124.5t-115 -87.5t-148 -32.5zM301 30q70 0 128 29t100.5 78.5t65.5 110.5t23 124q0 71 -26.5 125t-76.5 85
t-120 31t-128 -29t-100 -78.5t-65 -110.5t-23 -124q0 -70 26.5 -124.5t76.5 -85.5t119 -31zM326 125q-64 0 -105 39t-41 112q0 55 18.5 98.5t49.5 74t67.5 47t72.5 16.5q35 0 58.5 -15t39.5 -36l-37 -34q-14 17 -29.5 26t-38.5 9q-32 0 -65 -23t-55 -62.5t-22 -91.5
q0 -54 26.5 -81.5t71.5 -27.5q28 0 50.5 11.5t47.5 27.5l25 -39q-31 -22 -62.5 -36.5t-71.5 -14.5z" />
    <glyph glyph-name="ordfeminine" unicode="&#xaa;" horiz-adv-x="354" 
d="M179 387q-42 0 -68 30t-26 88q0 61 25.5 110.5t66 79t85.5 29.5q23 0 42.5 -11.5t31.5 -35.5h4l14 39h45l-63 -321h-47l6 47h-4q-24 -25 -52.5 -40t-59.5 -15zM198 435q24 0 51.5 16.5t49.5 45.5l26 134q-13 25 -28.5 35t-32.5 10q-30 0 -57.5 -23t-45 -60.5t-17.5 -80.5
q0 -40 15.5 -58.5t38.5 -18.5z" />
    <glyph glyph-name="guillemotleft" unicode="&#xab;" horiz-adv-x="412" 
d="M143 67l-103 158l11 62l156 148l28 -29l-142 -156l85 -161zM303 67l-103 158l11 62l156 148l28 -29l-142 -156l85 -161z" />
    <glyph glyph-name="logicalnot" unicode="&#xac;" horiz-adv-x="480" 
d="M398 103v199h-350v57h410v-256h-60z" />
    <glyph glyph-name="registered" unicode="&#xae;" horiz-adv-x="406" 
d="M235 323q-44 0 -81 21.5t-59 59.5t-22 88q0 56 26 105.5t71 81t102 31.5q44 0 81 -21.5t59.5 -59.5t22.5 -88q0 -56 -26.5 -106t-71.5 -81t-102 -31zM238 357q45 0 81 25t57.5 66t21.5 89q0 59 -35 98.5t-94 39.5q-45 0 -81 -25t-57 -65.5t-21 -88.5q0 -59 34 -99t94 -40
zM169 417l41 202h66q29 0 46 -15t17 -43q0 -22 -13 -39.5t-36 -25.5l28 -79h-40l-22 70h-34l-15 -70h-38zM228 517h22q23 0 36 11t13 29q0 30 -33 30h-25z" />
    <glyph glyph-name="macron" unicode="&#xaf;" horiz-adv-x="517" 
d="M207 601l10 54h254l-9 -54h-255z" />
    <glyph glyph-name="degree" unicode="&#xb0;" horiz-adv-x="313" 
d="M208 432q-46 0 -76.5 31t-30.5 80q0 39 18 71t47.5 51.5t65.5 19.5q46 0 76 -30.5t30 -80.5q0 -38 -17.5 -70.5t-47 -52t-65.5 -19.5zM211 476q36 0 58 29.5t22 66.5q0 29 -16.5 49.5t-46.5 20.5q-36 0 -58 -30t-22 -67q0 -28 16.5 -48.5t46.5 -20.5z" />
    <glyph glyph-name="plusminus" unicode="&#xb1;" horiz-adv-x="480" 
d="M222 130v185h-174v58h175v181h60v-181h175v-58h-176v-185h-60zM48 0v58h410v-58h-410z" />
    <glyph glyph-name="two.sups" unicode="&#xb2;" horiz-adv-x="353" 
d="M78 395l7 38q82 58 132.5 100.5t74.5 78t24 71.5q0 29 -16 45.5t-48 16.5q-21 0 -41.5 -13.5t-39.5 -33.5l-35 36q28 27 58 45t67 18q53 0 84.5 -28t31.5 -77q0 -62 -49 -117.5t-146 -128.5h163l-10 -51h-257z" />
    <glyph glyph-name="three.sups" unicode="&#xb3;" horiz-adv-x="351" 
d="M211 383q-49 0 -83 24t-51 56l41 29q14 -26 35.5 -43t54.5 -17q35 0 60 19.5t25 52.5q0 29 -25 50t-82 21l9 41q45 0 71.5 12t37.5 30t11 36q0 25 -16 40t-45 15q-41 0 -83 -33l-27 41q56 40 121 40q49 0 79.5 -25.5t30.5 -69.5q0 -37 -23.5 -66t-67.5 -43q34 -12 51 -37
t17 -51q0 -38 -19.5 -65.5t-51.5 -42t-70 -14.5z" />
    <glyph glyph-name="acute" unicode="&#xb4;" horiz-adv-x="517" 
d="M304 579l-35 45l168 153l47 -60z" />
    <glyph glyph-name="mu" unicode="&#x3bc;" horiz-adv-x="526" 
d="M-10 -191l135 677h77l-61 -300q-4 -19 -6 -31.5t-2 -25.5q0 -75 72 -75q29 0 64 21t80 67l69 344h75l-96 -486h-63l8 74h-4q-35 -35 -71 -59t-74 -24q-28 0 -51 11.5t-34 39.5l-13 -83l-29 -150h-76z" />
    <glyph glyph-name="mu" unicode="&#xb5;" horiz-adv-x="526" 
d="M-10 -191l135 677h77l-61 -300q-4 -19 -6 -31.5t-2 -25.5q0 -75 72 -75q29 0 64 21t80 67l69 344h75l-96 -486h-63l8 74h-4q-35 -35 -71 -59t-74 -24q-28 0 -51 11.5t-34 39.5l-13 -83l-29 -150h-76z" />
    <glyph glyph-name="paragraph" unicode="&#xb6;" horiz-adv-x="535" 
d="M300 -80l146 736h77l-147 -736h-76zM293 227q-59 0 -109.5 20t-80.5 59.5t-30 96.5q0 86 39 142t102 83.5t133 27.5h48l-87 -429h-15z" />
    <glyph glyph-name="periodcentered" unicode="&#xb7;" horiz-adv-x="242" 
d="M126 268q-22 0 -34.5 14t-12.5 36q0 26 19.5 48t47.5 22q22 0 34 -14.5t12 -36.5q0 -25 -18.5 -47t-47.5 -22z" />
    <glyph glyph-name="cedilla" unicode="&#xb8;" horiz-adv-x="517" 
d="M84 -226l-2 39q60 2 88.5 16t30.5 38q0 19 -15.5 29t-53.5 14l60 93h54l-41 -68q35 -9 48 -23.5t11 -39.5q-4 -47 -52 -71.5t-128 -26.5z" />
    <glyph glyph-name="one.sups" unicode="&#xb9;" horiz-adv-x="356" 
d="M197 395l62 312h-90l8 39q39 6 62.5 14.5t47.5 24.5h47l-77 -390h-60z" />
    <glyph glyph-name="ordmasculine" unicode="&#xba;" horiz-adv-x="348" 
d="M204 387q-53 0 -85.5 34t-32.5 95q0 63 26 110t67.5 72.5t85.5 25.5q53 0 85.5 -33.5t32.5 -95.5q0 -63 -26 -110t-67 -72.5t-86 -25.5zM209 434q32 0 58 21.5t42 57.5t16 79q0 41 -16.5 63t-48.5 22q-31 0 -57.5 -21.5t-42.5 -57.5t-16 -79q0 -40 16.5 -62.5t48.5 -22.5
z" />
    <glyph glyph-name="guillemotright" unicode="&#xbb;" horiz-adv-x="412" 
d="M51 67l-28 29l141 156l-85 161l36 22l103 -158l-11 -62zM211 67l-28 29l141 156l-85 161l36 22l103 -158l-11 -62z" />
    <glyph glyph-name="onequarter" unicode="&#xbc;" horiz-adv-x="748" 
d="M147 270l62 312h-90l8 39q39 6 62.5 14.5t47.5 24.5h47l-77 -390h-60zM121 -12l484 684h52l-484 -684h-52zM470 149h116l15 76l26 108h-4l-67 -84zM556 0l21 106h-176l7 33l214 251h65l-48 -241h57l-9 -43h-56l-21 -106h-54z" />
    <glyph glyph-name="onehalf" unicode="&#xbd;" horiz-adv-x="772" 
d="M143 270l62 312h-90l8 39q39 6 62.5 14.5t47.5 24.5h47l-77 -390h-60zM99 -12l484 684h52l-484 -684h-52zM421 0l7 38q82 58 132.5 100.5t74.5 78t24 71.5q0 29 -16 45.5t-48 16.5q-21 0 -41.5 -13.5t-39.5 -33.5l-35 36q28 27 58 45t67 18q53 0 84.5 -28t31.5 -77
q0 -62 -49 -117.5t-146 -128.5h163l-10 -51h-257z" />
    <glyph glyph-name="threequarters" unicode="&#xbe;" horiz-adv-x="764" 
d="M180 258q-49 0 -83 24t-51 56l41 29q14 -26 35.5 -43t54.5 -17q35 0 60 19.5t25 52.5q0 29 -25 50t-82 21l9 41q45 0 71.5 12t37.5 30t11 36q0 25 -16 40t-45 15q-41 0 -83 -33l-27 41q56 40 121 40q49 0 79.5 -25.5t30.5 -69.5q0 -37 -23.5 -66t-67.5 -43q34 -12 51 -37
t17 -51q0 -38 -19.5 -65.5t-51.5 -42t-70 -14.5zM155 -12l484 684h52l-484 -684h-52zM488 149h116l15 76l26 108h-4l-67 -84zM574 0l21 106h-176l7 33l214 251h65l-48 -241h57l-9 -43h-56l-21 -106h-54z" />
    <glyph glyph-name="questiondown" unicode="&#xbf;" horiz-adv-x="409" 
d="M148 -195q-70 0 -111 37t-41 102q0 48 19.5 83.5t49 65t60 58t52.5 62.5t26 79l66 -6q-3 -50 -24 -87t-50 -66.5t-57.5 -55.5t-47.5 -55t-19 -66q0 -40 22.5 -63.5t62.5 -23.5q29 0 56.5 14t49.5 38l40 -46q-28 -31 -68.5 -50.5t-85.5 -19.5zM253 379q-22 0 -34 14.5
t-12 36.5q0 26 18.5 47.5t46.5 21.5q22 0 35 -14t13 -36q0 -25 -19 -47.5t-48 -22.5z" />
    <glyph glyph-name="Agrave" unicode="&#xc0;" horiz-adv-x="510" 
d="M227 377l-58 -112h195l-10 112q-4 52 -9 105t-9 109h-4q-26 -57 -51.5 -108.5t-53.5 -105.5zM-53 0l356 656h90l76 -656h-81l-18 205h-232l-105 -205h-86zM377 693l-134 127l55 50l122 -140z" />
    <glyph glyph-name="Aacute" unicode="&#xc1;" horiz-adv-x="510" 
d="M227 377l-58 -112h195l-10 112q-4 52 -9 105t-9 109h-4q-26 -57 -51.5 -108.5t-53.5 -105.5zM-53 0l356 656h90l76 -656h-81l-18 205h-232l-105 -205h-86zM327 703l-30 44l165 116l37 -60z" />
    <glyph glyph-name="Acircumflex" unicode="&#xc2;" horiz-adv-x="510" 
d="M227 377l-58 -112h195l-10 112q-4 52 -9 105t-9 109h-4q-26 -57 -51.5 -108.5t-53.5 -105.5zM-53 0l356 656h90l76 -656h-81l-18 205h-232l-105 -205h-86zM244 698l-33 28l124 111h87l84 -113l-39 -25l-90 93h-4z" />
    <glyph glyph-name="Atilde" unicode="&#xc3;" horiz-adv-x="510" 
d="M227 377l-58 -112h195l-10 112q-4 52 -9 105t-9 109h-4q-26 -57 -51.5 -108.5t-53.5 -105.5zM-53 0l356 656h90l76 -656h-81l-18 205h-232l-105 -205h-86zM432 709q-25 0 -43 11t-31.5 25t-26.5 25t-30 11q-40 0 -60 -67l-54 4q12 59 45 91t78 32q26 0 43.5 -11t31 -25
t26.5 -25t30 -11q40 0 60 67l54 -4q-12 -59 -45 -91t-78 -32z" />
    <glyph glyph-name="Adieresis" unicode="&#xc4;" horiz-adv-x="510" 
d="M227 377l-58 -112h195l-10 112q-4 52 -9 105t-9 109h-4q-26 -57 -51.5 -108.5t-53.5 -105.5zM-53 0l356 656h90l76 -656h-81l-18 205h-232l-105 -205h-86zM270 715q-17 0 -28.5 10.5t-11.5 29.5q0 22 15 38.5t36 16.5q17 0 28.5 -10.5t11.5 -30.5q0 -21 -15 -37.5
t-36 -16.5zM456 715q-17 0 -28.5 10.5t-11.5 29.5q0 22 15 38.5t36 16.5q17 0 28 -10.5t11 -30.5q0 -21 -14.5 -37.5t-35.5 -16.5z" />
    <glyph glyph-name="Aring" unicode="&#xc5;" horiz-adv-x="510" 
d="M227 377l-58 -112h195l-10 112q-4 52 -9 105t-9 109h-4q-26 -57 -51.5 -108.5t-53.5 -105.5zM-53 0l356 656h90l76 -656h-81l-18 205h-232l-105 -205h-86zM363 700q-34 0 -60.5 19.5t-26.5 59.5q0 41 31 70t75 29q35 0 61 -19.5t26 -59.5q0 -42 -30.5 -70.5t-75.5 -28.5z
M365 736q23 0 40.5 17t17.5 42q0 21 -11 34t-32 13q-23 0 -40.5 -17.5t-17.5 -42.5q0 -21 11.5 -33.5t31.5 -12.5z" />
    <glyph glyph-name="AE" unicode="&#xc6;" horiz-adv-x="803" 
d="M313 380l-84 -124h168l68 341h-3q-37 -55 -74 -108.5t-75 -108.5zM-33 0l459 656h402l-14 -65h-273l-42 -213h229l-13 -66h-228l-51 -246h282l-13 -66h-359l39 194h-198l-131 -194h-89z" />
    <glyph glyph-name="Ccedilla" unicode="&#xc7;" horiz-adv-x="550" 
d="M290 -12q-75 0 -127 33.5t-79 93.5t-27 138q0 77 24 151t69 133.5t107.5 95t138.5 35.5q56 0 96.5 -27.5t64.5 -69.5l-54 -41q-19 32 -46 51.5t-65 19.5q-58 0 -105.5 -30.5t-80.5 -80.5t-51 -110t-18 -120q0 -59 17 -105.5t54 -73t96 -26.5q40 0 73.5 16t65.5 43l35 -50
q-36 -31 -82.5 -53.5t-105.5 -22.5zM144 -226l-2 39q60 2 88.5 16t30.5 38q0 19 -15.5 29t-53.5 14l60 93h54l-41 -68q35 -9 48 -23.5t11 -39.5q-4 -47 -52 -71.5t-128 -26.5z" />
    <glyph glyph-name="Egrave" unicode="&#xc8;" horiz-adv-x="503" 
d="M35 0l131 656h362l-13 -65h-285l-42 -213h241l-14 -66h-239l-51 -246h294l-14 -66h-370zM384 693l-134 127l55 50l122 -140z" />
    <glyph glyph-name="Eacute" unicode="&#xc9;" horiz-adv-x="503" 
d="M35 0l131 656h362l-13 -65h-285l-42 -213h241l-14 -66h-239l-51 -246h294l-14 -66h-370zM334 703l-30 44l165 116l37 -60z" />
    <glyph glyph-name="Ecircumflex" unicode="&#xca;" horiz-adv-x="503" 
d="M35 0l131 656h362l-13 -65h-285l-42 -213h241l-14 -66h-239l-51 -246h294l-14 -66h-370zM251 698l-33 28l124 111h87l84 -113l-39 -25l-90 93h-4z" />
    <glyph glyph-name="Edieresis" unicode="&#xcb;" horiz-adv-x="503" 
d="M35 0l131 656h362l-13 -65h-285l-42 -213h241l-14 -66h-239l-51 -246h294l-14 -66h-370zM277 715q-17 0 -28.5 10.5t-11.5 29.5q0 22 15 38.5t36 16.5q17 0 28.5 -10.5t11.5 -30.5q0 -21 -15 -37.5t-36 -16.5zM463 715q-17 0 -28.5 10.5t-11.5 29.5q0 22 15 38.5t36 16.5
q17 0 28 -10.5t11 -30.5q0 -21 -14.5 -37.5t-35.5 -16.5z" />
    <glyph glyph-name="Igrave" unicode="&#xcc;" horiz-adv-x="252" 
d="M35 0l131 656h78l-131 -656h-78zM239 693l-134 127l55 50l122 -140z" />
    <glyph glyph-name="Iacute" unicode="&#xcd;" horiz-adv-x="252" 
d="M35 0l131 656h78l-131 -656h-78zM189 703l-30 44l165 116l37 -60z" />
    <glyph glyph-name="Icircumflex" unicode="&#xce;" horiz-adv-x="252" 
d="M35 0l131 656h78l-131 -656h-78zM106 698l-33 28l124 111h87l84 -113l-39 -25l-90 93h-4z" />
    <glyph glyph-name="Idieresis" unicode="&#xcf;" horiz-adv-x="252" 
d="M35 0l131 656h78l-131 -656h-78zM132 715q-17 0 -28.5 10.5t-11.5 29.5q0 22 15 38.5t36 16.5q17 0 28.5 -10.5t11.5 -30.5q0 -21 -15 -37.5t-36 -16.5zM318 715q-17 0 -28.5 10.5t-11.5 29.5q0 22 15 38.5t36 16.5q17 0 28 -10.5t11 -30.5q0 -21 -14.5 -37.5
t-35.5 -16.5z" />
    <glyph glyph-name="Eth" unicode="&#xd0;" horiz-adv-x="610" 
d="M53 0l65 324h-71l9 41l70 3l58 288h122q137 0 207.5 -67.5t70.5 -188.5q0 -119 -42.5 -209t-122 -140.5t-190.5 -50.5h-176zM143 64h86q85 0 147 42t95.5 117t33.5 172q0 93 -51.5 145.5t-150.5 52.5h-54l-45 -225h150l-10 -44h-149z" />
    <glyph glyph-name="Ntilde" unicode="&#xd1;" horiz-adv-x="619" 
d="M35 0l131 656h78l150 -420l42 -137h4q6 49 13 103.5t17 105.5l69 348h75l-131 -656h-77l-148 419l-43 141h-4q-6 -51 -13.5 -104t-17.5 -103l-70 -353h-75zM479 709q-25 0 -43 11t-31.5 25t-26.5 25t-30 11q-40 0 -60 -67l-54 4q12 59 45 91t78 32q26 0 43.5 -11t31 -25
t26.5 -25t30 -11q40 0 60 67l54 -4q-12 -59 -45 -91t-78 -32z" />
    <glyph glyph-name="Ograve" unicode="&#xd2;" horiz-adv-x="633" 
d="M287 -12q-110 0 -168.5 75.5t-58.5 199.5q0 75 23 147t66 130.5t101.5 93t128.5 34.5q74 0 124.5 -34t76.5 -95.5t26 -144.5q0 -75 -23 -147.5t-66 -131t-101 -93t-129 -34.5zM291 55q53 0 96.5 30t74.5 79t48 107.5t17 115.5q0 97 -37 155.5t-115 58.5
q-53 0 -96.5 -29.5t-74.5 -78.5t-48 -107.5t-17 -116.5q0 -96 36.5 -155t115.5 -59zM431 693l-134 127l55 50l122 -140z" />
    <glyph glyph-name="Oacute" unicode="&#xd3;" horiz-adv-x="633" 
d="M287 -12q-110 0 -168.5 75.5t-58.5 199.5q0 75 23 147t66 130.5t101.5 93t128.5 34.5q74 0 124.5 -34t76.5 -95.5t26 -144.5q0 -75 -23 -147.5t-66 -131t-101 -93t-129 -34.5zM291 55q53 0 96.5 30t74.5 79t48 107.5t17 115.5q0 97 -37 155.5t-115 58.5
q-53 0 -96.5 -29.5t-74.5 -78.5t-48 -107.5t-17 -116.5q0 -96 36.5 -155t115.5 -59zM381 703l-30 44l165 116l37 -60z" />
    <glyph glyph-name="Ocircumflex" unicode="&#xd4;" horiz-adv-x="633" 
d="M287 -12q-110 0 -168.5 75.5t-58.5 199.5q0 75 23 147t66 130.5t101.5 93t128.5 34.5q74 0 124.5 -34t76.5 -95.5t26 -144.5q0 -75 -23 -147.5t-66 -131t-101 -93t-129 -34.5zM291 55q53 0 96.5 30t74.5 79t48 107.5t17 115.5q0 97 -37 155.5t-115 58.5
q-53 0 -96.5 -29.5t-74.5 -78.5t-48 -107.5t-17 -116.5q0 -96 36.5 -155t115.5 -59zM298 698l-33 28l124 111h87l84 -113l-39 -25l-90 93h-4z" />
    <glyph glyph-name="Otilde" unicode="&#xd5;" horiz-adv-x="633" 
d="M287 -12q-110 0 -168.5 75.5t-58.5 199.5q0 75 23 147t66 130.5t101.5 93t128.5 34.5q74 0 124.5 -34t76.5 -95.5t26 -144.5q0 -75 -23 -147.5t-66 -131t-101 -93t-129 -34.5zM291 55q53 0 96.5 30t74.5 79t48 107.5t17 115.5q0 97 -37 155.5t-115 58.5
q-53 0 -96.5 -29.5t-74.5 -78.5t-48 -107.5t-17 -116.5q0 -96 36.5 -155t115.5 -59zM486 709q-25 0 -43 11t-31.5 25t-26.5 25t-30 11q-40 0 -60 -67l-54 4q12 59 45 91t78 32q26 0 43.5 -11t31 -25t26.5 -25t30 -11q40 0 60 67l54 -4q-12 -59 -45 -91t-78 -32z" />
    <glyph glyph-name="Odieresis" unicode="&#xd6;" horiz-adv-x="633" 
d="M287 -12q-110 0 -168.5 75.5t-58.5 199.5q0 75 23 147t66 130.5t101.5 93t128.5 34.5q74 0 124.5 -34t76.5 -95.5t26 -144.5q0 -75 -23 -147.5t-66 -131t-101 -93t-129 -34.5zM291 55q53 0 96.5 30t74.5 79t48 107.5t17 115.5q0 97 -37 155.5t-115 58.5
q-53 0 -96.5 -29.5t-74.5 -78.5t-48 -107.5t-17 -116.5q0 -96 36.5 -155t115.5 -59zM324 715q-17 0 -28.5 10.5t-11.5 29.5q0 22 15 38.5t36 16.5q17 0 28.5 -10.5t11.5 -30.5q0 -21 -15 -37.5t-36 -16.5zM510 715q-17 0 -28.5 10.5t-11.5 29.5q0 22 15 38.5t36 16.5
q17 0 28 -10.5t11 -30.5q0 -21 -14.5 -37.5t-35.5 -16.5z" />
    <glyph glyph-name="multiply" unicode="&#xd7;" horiz-adv-x="480" 
d="M105 135l-40 41l148 155l-148 155l40 40l148 -155l148 155l41 -40l-149 -155l149 -155l-41 -41l-148 156z" />
    <glyph glyph-name="Oslash" unicode="&#xd8;" horiz-adv-x="633" 
d="M37 -30l-40 35l95 101q-32 66 -32 157q0 75 23 147t66 130.5t101.5 93t128.5 34.5q56 0 98.5 -19.5t70.5 -56.5l89 95l36 -35l-97 -104q30 -64 30 -154q0 -75 -23 -147.5t-66 -131t-101 -93t-129 -34.5q-54 0 -95.5 19t-70.5 53zM139 269q0 -56 12 -100l344 366
q-19 32 -49 49t-71 17q-53 0 -96.5 -29.5t-74.5 -78.5t-48 -107.5t-17 -116.5zM291 55q53 0 96.5 30t74.5 79t48 107.5t17 115.5q0 27 -3 51t-8 45l-342 -366q19 -29 48 -45.5t69 -16.5z" />
    <glyph glyph-name="Ugrave" unicode="&#xd9;" horiz-adv-x="616" 
d="M286 -12q-100 0 -153.5 52.5t-53.5 154.5q0 21 3 44.5t7 48.5l74 368h78l-75 -375q-9 -45 -9 -79q0 -70 32 -108.5t101 -38.5q56 0 101 46t66 153l81 402h76l-82 -405q-28 -142 -93 -202.5t-153 -60.5zM427 693l-134 127l55 50l122 -140z" />
    <glyph glyph-name="Uacute" unicode="&#xda;" horiz-adv-x="616" 
d="M286 -12q-100 0 -153.5 52.5t-53.5 154.5q0 21 3 44.5t7 48.5l74 368h78l-75 -375q-9 -45 -9 -79q0 -70 32 -108.5t101 -38.5q56 0 101 46t66 153l81 402h76l-82 -405q-28 -142 -93 -202.5t-153 -60.5zM377 703l-30 44l165 116l37 -60z" />
    <glyph glyph-name="Ucircumflex" unicode="&#xdb;" horiz-adv-x="616" 
d="M286 -12q-100 0 -153.5 52.5t-53.5 154.5q0 21 3 44.5t7 48.5l74 368h78l-75 -375q-9 -45 -9 -79q0 -70 32 -108.5t101 -38.5q56 0 101 46t66 153l81 402h76l-82 -405q-28 -142 -93 -202.5t-153 -60.5zM294 698l-33 28l124 111h87l84 -113l-39 -25l-90 93h-4z" />
    <glyph glyph-name="Udieresis" unicode="&#xdc;" horiz-adv-x="616" 
d="M286 -12q-100 0 -153.5 52.5t-53.5 154.5q0 21 3 44.5t7 48.5l74 368h78l-75 -375q-9 -45 -9 -79q0 -70 32 -108.5t101 -38.5q56 0 101 46t66 153l81 402h76l-82 -405q-28 -142 -93 -202.5t-153 -60.5zM320 715q-17 0 -28.5 10.5t-11.5 29.5q0 22 15 38.5t36 16.5
q17 0 28.5 -10.5t11.5 -30.5q0 -21 -15 -37.5t-36 -16.5zM506 715q-17 0 -28.5 10.5t-11.5 29.5q0 22 15 38.5t36 16.5q17 0 28 -10.5t11 -30.5q0 -21 -14.5 -37.5t-35.5 -16.5z" />
    <glyph glyph-name="Yacute" unicode="&#xdd;" horiz-adv-x="461" 
d="M139 0l51 256l-107 400h80l45 -189q9 -36 16.5 -70.5t16.5 -72.5h3q23 37 45 72.5t46 71.5l124 188h83l-274 -400l-52 -256h-77zM292 703l-30 44l165 116l37 -60z" />
    <glyph glyph-name="Thorn" unicode="&#xde;" horiz-adv-x="562" 
d="M35 0l131 660h78l-23 -115h115q89 0 144 -37.5t55 -122.5q0 -80 -37 -132t-101.5 -76.5t-148.5 -24.5h-106l-30 -152h-77zM156 215h94q102 0 155 40.5t53 118.5q0 57 -37 82.5t-108 25.5h-105z" />
    <glyph glyph-name="germandbls" unicode="&#xdf;" horiz-adv-x="555" 
d="M339 -12q-37 0 -73 12.5t-67 37.5l35 51q23 -19 48.5 -30t56.5 -11q39 0 66.5 24.5t27.5 62.5q0 29 -15 49.5t-37.5 37.5t-45 35t-37.5 39.5t-15 52.5q0 32 13.5 55t33 42.5t39.5 39t33.5 43t13.5 55.5q0 34 -17 56t-56 22q-34 0 -61 -21t-45.5 -56t-27.5 -78l-102 -507
h-76l105 525q12 55 40 100t71 72t99 27q60 0 102 -32.5t42 -99.5q0 -38 -13.5 -65t-33 -48t-39 -39t-33 -37t-13.5 -42t15 -40.5t36.5 -33.5t43.5 -35t37 -44.5t15 -62.5q0 -43 -21.5 -79t-59 -57t-85.5 -21z" />
    <glyph glyph-name="agrave" unicode="&#xe0;" horiz-adv-x="537" 
d="M179 -12q-64 0 -102 45.5t-38 130.5q0 70 22 130.5t59 106.5t84 71.5t98 25.5q39 0 69.5 -20t47.5 -53h4l19 61h62l-97 -486h-63l8 72h-4q-35 -37 -79 -60.5t-90 -23.5zM207 52q38 0 77.5 23t75.5 70l44 217q-21 38 -46 55t-53 17q-36 0 -69.5 -21t-60 -57.5t-42 -83
t-15.5 -96.5q0 -63 24.5 -93.5t64.5 -30.5zM363 570l-132 164l66 49l114 -177z" />
    <glyph glyph-name="aacute" unicode="&#xe1;" horiz-adv-x="537" 
d="M179 -12q-64 0 -102 45.5t-38 130.5q0 70 22 130.5t59 106.5t84 71.5t98 25.5q39 0 69.5 -20t47.5 -53h4l19 61h62l-97 -486h-63l8 72h-4q-35 -37 -79 -60.5t-90 -23.5zM207 52q38 0 77.5 23t75.5 70l44 217q-21 38 -46 55t-53 17q-36 0 -69.5 -21t-60 -57.5t-42 -83
t-15.5 -96.5q0 -63 24.5 -93.5t64.5 -30.5zM302 579l-35 45l168 153l47 -60z" />
    <glyph glyph-name="acircumflex" unicode="&#xe2;" horiz-adv-x="537" 
d="M179 -12q-64 0 -102 45.5t-38 130.5q0 70 22 130.5t59 106.5t84 71.5t98 25.5q39 0 69.5 -20t47.5 -53h4l19 61h62l-97 -486h-63l8 72h-4q-35 -37 -79 -60.5t-90 -23.5zM207 52q38 0 77.5 23t75.5 70l44 217q-21 38 -46 55t-53 17q-36 0 -69.5 -21t-60 -57.5t-42 -83
t-15.5 -96.5q0 -63 24.5 -93.5t64.5 -30.5zM206 568l-31 34l138 138h83l89 -141l-39 -31l-94 116h-4z" />
    <glyph glyph-name="atilde" unicode="&#xe3;" horiz-adv-x="537" 
d="M179 -12q-64 0 -102 45.5t-38 130.5q0 70 22 130.5t59 106.5t84 71.5t98 25.5q39 0 69.5 -20t47.5 -53h4l19 61h62l-97 -486h-63l8 72h-4q-35 -37 -79 -60.5t-90 -23.5zM207 52q38 0 77.5 23t75.5 70l44 217q-21 38 -46 55t-53 17q-36 0 -69.5 -21t-60 -57.5t-42 -83
t-15.5 -96.5q0 -63 24.5 -93.5t64.5 -30.5zM408 577q-26 0 -42.5 13t-29 29.5t-25.5 29.5t-32 13q-22 0 -37 -22t-23 -58l-55 3q12 59 41.5 97.5t78.5 38.5q26 0 42.5 -13t29 -29.5t25.5 -29.5t32 -13q23 0 38 22.5t22 57.5l54 -4q-11 -58 -40 -96.5t-79 -38.5z" />
    <glyph glyph-name="adieresis" unicode="&#xe4;" horiz-adv-x="537" 
d="M179 -12q-64 0 -102 45.5t-38 130.5q0 70 22 130.5t59 106.5t84 71.5t98 25.5q39 0 69.5 -20t47.5 -53h4l19 61h62l-97 -486h-63l8 72h-4q-35 -37 -79 -60.5t-90 -23.5zM207 52q38 0 77.5 23t75.5 70l44 217q-21 38 -46 55t-53 17q-36 0 -69.5 -21t-60 -57.5t-42 -83
t-15.5 -96.5q0 -63 24.5 -93.5t64.5 -30.5zM241 589q-17 0 -28.5 10.5t-11.5 29.5q0 23 15 39t36 16q18 0 29.5 -11t11.5 -31q0 -22 -15.5 -37.5t-36.5 -15.5zM427 589q-17 0 -28.5 10.5t-11.5 29.5q0 23 15 39t36 16q18 0 29 -11t11 -31q0 -22 -15 -37.5t-36 -15.5z" />
    <glyph glyph-name="aring" unicode="&#xe5;" horiz-adv-x="537" 
d="M179 -12q-64 0 -102 45.5t-38 130.5q0 70 22 130.5t59 106.5t84 71.5t98 25.5q39 0 69.5 -20t47.5 -53h4l19 61h62l-97 -486h-63l8 72h-4q-35 -37 -79 -60.5t-90 -23.5zM207 52q38 0 77.5 23t75.5 70l44 217q-21 38 -46 55t-53 17q-36 0 -69.5 -21t-60 -57.5t-42 -83
t-15.5 -96.5q0 -63 24.5 -93.5t64.5 -30.5zM331 556q-40 0 -67.5 21t-27.5 61q0 45 33 78t85 33q41 0 68.5 -21t27.5 -61q0 -45 -33 -78t-86 -33zM336 592q26 0 44 21.5t18 50.5q0 21 -13 35t-36 14q-25 0 -43 -21.5t-18 -50.5q0 -22 12.5 -35.5t35.5 -13.5z" />
    <glyph glyph-name="ae" unicode="&#xe6;" horiz-adv-x="761" 
d="M157 -12q-51 0 -88 30.5t-37 87.5q0 69 41 111t112.5 61.5t164.5 22.5q3 14 4 24t1 20q0 44 -19.5 67.5t-64.5 23.5q-31 0 -66 -12t-70 -32l-21 56q38 21 83.5 35.5t89.5 14.5q50 0 82.5 -23.5t40.5 -71.5q34 44 77.5 69.5t89.5 25.5q55 0 88 -23t48 -63t15 -90
q0 -28 -6 -53.5t-11 -39.5h-304q-13 -83 21.5 -131.5t97.5 -48.5q29 0 58 12.5t51 29.5l30 -51q-28 -21 -67.5 -36.5t-86.5 -15.5q-52 0 -94 28t-59 68q-48 -45 -97.5 -70.5t-103.5 -25.5zM185 49q31 0 71.5 21.5t81.5 64.5q-4 32 -3.5 57.5t5.5 57.5q-109 -3 -171 -35
t-62 -93q0 -35 22 -54t56 -19zM415 281h242q2 12 3.5 23.5t1.5 24.5q0 28 -9 52.5t-29.5 40t-55.5 15.5q-30 0 -61 -19.5t-55.5 -54.5t-36.5 -82z" />
    <glyph glyph-name="ccedilla" unicode="&#xe7;" horiz-adv-x="435" 
d="M216 -12q-79 0 -129 51t-50 144q0 68 22 125.5t60.5 100t87 66t101.5 23.5q44 0 74 -17t52 -42l-45 -48q-19 23 -38 33.5t-48 10.5q-48 0 -91 -34t-70 -90t-27 -123q0 -66 28.5 -101t86.5 -35q32 0 59 13t49 30l34 -50q-26 -20 -64.5 -38.5t-91.5 -18.5zM74 -226l-2 39
q60 2 88.5 16t30.5 38q0 19 -15.5 29t-53.5 14l60 93h54l-41 -68q35 -9 48 -23.5t11 -39.5q-4 -47 -52 -71.5t-128 -26.5z" />
    <glyph glyph-name="egrave" unicode="&#xe8;" horiz-adv-x="481" 
d="M228 -12q-86 0 -138.5 53t-52.5 150q0 69 22.5 125t60 97t83.5 63t94 22q55 0 87.5 -23t47.5 -63t15 -90q0 -28 -6 -53.5t-11 -39.5h-316q-9 -63 7 -103t49.5 -58.5t75.5 -18.5q29 0 57.5 12.5t51.5 29.5l30 -51q-29 -21 -69.5 -36.5t-87.5 -15.5zM122 281h255
q2 11 3.5 23t1.5 25q0 28 -9 52.5t-29.5 40t-55.5 15.5q-53 0 -100 -42.5t-66 -113.5zM350 570l-132 164l66 49l114 -177z" />
    <glyph glyph-name="eacute" unicode="&#xe9;" horiz-adv-x="481" 
d="M228 -12q-86 0 -138.5 53t-52.5 150q0 69 22.5 125t60 97t83.5 63t94 22q55 0 87.5 -23t47.5 -63t15 -90q0 -28 -6 -53.5t-11 -39.5h-316q-9 -63 7 -103t49.5 -58.5t75.5 -18.5q29 0 57.5 12.5t51.5 29.5l30 -51q-29 -21 -69.5 -36.5t-87.5 -15.5zM122 281h255
q2 11 3.5 23t1.5 25q0 28 -9 52.5t-29.5 40t-55.5 15.5q-53 0 -100 -42.5t-66 -113.5zM289 579l-35 45l168 153l47 -60z" />
    <glyph glyph-name="ecircumflex" unicode="&#xea;" horiz-adv-x="481" 
d="M228 -12q-86 0 -138.5 53t-52.5 150q0 69 22.5 125t60 97t83.5 63t94 22q55 0 87.5 -23t47.5 -63t15 -90q0 -28 -6 -53.5t-11 -39.5h-316q-9 -63 7 -103t49.5 -58.5t75.5 -18.5q29 0 57.5 12.5t51.5 29.5l30 -51q-29 -21 -69.5 -36.5t-87.5 -15.5zM122 281h255
q2 11 3.5 23t1.5 25q0 28 -9 52.5t-29.5 40t-55.5 15.5q-53 0 -100 -42.5t-66 -113.5zM193 568l-31 34l138 138h83l89 -141l-39 -31l-94 116h-4z" />
    <glyph glyph-name="edieresis" unicode="&#xeb;" horiz-adv-x="481" 
d="M228 -12q-86 0 -138.5 53t-52.5 150q0 69 22.5 125t60 97t83.5 63t94 22q55 0 87.5 -23t47.5 -63t15 -90q0 -28 -6 -53.5t-11 -39.5h-316q-9 -63 7 -103t49.5 -58.5t75.5 -18.5q29 0 57.5 12.5t51.5 29.5l30 -51q-29 -21 -69.5 -36.5t-87.5 -15.5zM122 281h255
q2 11 3.5 23t1.5 25q0 28 -9 52.5t-29.5 40t-55.5 15.5q-53 0 -100 -42.5t-66 -113.5zM228 589q-17 0 -28.5 10.5t-11.5 29.5q0 23 15 39t36 16q18 0 29.5 -11t11.5 -31q0 -22 -15.5 -37.5t-36.5 -15.5zM414 589q-17 0 -28.5 10.5t-11.5 29.5q0 23 15 39t36 16q18 0 29 -11
t11 -31q0 -22 -15 -37.5t-36 -15.5z" />
    <glyph glyph-name="igrave" unicode="&#xec;" horiz-adv-x="237" 
d="M31 0l97 486h77l-98 -486h-76zM221 570l-132 164l66 49l114 -177z" />
    <glyph glyph-name="iacute" unicode="&#xed;" horiz-adv-x="237" 
d="M31 0l97 486h77l-98 -486h-76zM160 579l-35 45l168 153l47 -60z" />
    <glyph glyph-name="icircumflex" unicode="&#xee;" horiz-adv-x="237" 
d="M31 0l97 486h77l-98 -486h-76zM64 568l-31 34l138 138h83l89 -141l-39 -31l-94 116h-4z" />
    <glyph glyph-name="idieresis" unicode="&#xef;" horiz-adv-x="237" 
d="M31 0l97 486h77l-98 -486h-76zM99 589q-17 0 -28.5 10.5t-11.5 29.5q0 23 15 39t36 16q18 0 29.5 -11t11.5 -31q0 -22 -15.5 -37.5t-36.5 -15.5zM285 589q-17 0 -28.5 10.5t-11.5 29.5q0 23 15 39t36 16q18 0 29 -11t11 -31q0 -22 -15 -37.5t-36 -15.5z" />
    <glyph glyph-name="eth" unicode="&#xf0;" horiz-adv-x="524" 
d="M113 179q0 -52 29 -89.5t83 -37.5q48 0 84.5 35t59 93.5t26.5 128.5q-19 30 -47 53.5t-67 23.5q-51 0 -89 -30.5t-58.5 -77.5t-20.5 -99zM216 -12q-49 0 -88.5 24t-62 65.5t-22.5 94.5q0 52 16 101t46 88.5t72.5 62.5t96.5 23q36 0 67.5 -19t53.5 -52q-7 115 -61 193
l-147 -61l-16 41l135 56q-19 22 -43 41.5t-52 37.5l36 46q35 -20 66 -45t56 -54l145 60l16 -41l-133 -55q34 -49 53 -110.5t19 -137.5q0 -71 -17 -135.5t-49.5 -115t-79.5 -79.5t-107 -29z" />
    <glyph glyph-name="ntilde" unicode="&#xf1;" horiz-adv-x="525" 
d="M31 0l97 486h63l-7 -73h4q41 36 82 60.5t87 24.5q62 0 88.5 -32.5t26.5 -88.5q0 -31 -8 -67l-62 -310h-76l60 300q4 20 6 32t2 25q0 75 -72 75q-28 0 -64 -21t-82 -67l-69 -344h-76zM426 577q-26 0 -42.5 13t-29 29.5t-25.5 29.5t-32 13q-22 0 -37 -22t-23 -58l-55 3
q12 59 41.5 97.5t78.5 38.5q26 0 42.5 -13t29 -29.5t25.5 -29.5t32 -13q23 0 38 22.5t22 57.5l54 -4q-11 -58 -40 -96.5t-79 -38.5z" />
    <glyph glyph-name="ograve" unicode="&#xf2;" horiz-adv-x="515" 
d="M212 -12q-79 0 -126 52t-47 143q0 69 22 126.5t59 100t84 65.5t97 23q79 0 126.5 -52t47.5 -143q0 -69 -22 -126.5t-59.5 -100t-84.5 -65.5t-97 -23zM220 52q45 0 85.5 33t66 89t25.5 124q0 66 -27 101.5t-77 35.5q-45 0 -85.5 -33.5t-66 -89.5t-25.5 -124q0 -66 27 -101
t77 -35zM365 570l-132 164l66 49l114 -177z" />
    <glyph glyph-name="oacute" unicode="&#xf3;" horiz-adv-x="515" 
d="M212 -12q-79 0 -126 52t-47 143q0 69 22 126.5t59 100t84 65.5t97 23q79 0 126.5 -52t47.5 -143q0 -69 -22 -126.5t-59.5 -100t-84.5 -65.5t-97 -23zM220 52q45 0 85.5 33t66 89t25.5 124q0 66 -27 101.5t-77 35.5q-45 0 -85.5 -33.5t-66 -89.5t-25.5 -124q0 -66 27 -101
t77 -35zM304 579l-35 45l168 153l47 -60z" />
    <glyph glyph-name="ocircumflex" unicode="&#xf4;" horiz-adv-x="515" 
d="M212 -12q-79 0 -126 52t-47 143q0 69 22 126.5t59 100t84 65.5t97 23q79 0 126.5 -52t47.5 -143q0 -69 -22 -126.5t-59.5 -100t-84.5 -65.5t-97 -23zM220 52q45 0 85.5 33t66 89t25.5 124q0 66 -27 101.5t-77 35.5q-45 0 -85.5 -33.5t-66 -89.5t-25.5 -124q0 -66 27 -101
t77 -35zM208 568l-31 34l138 138h83l89 -141l-39 -31l-94 116h-4z" />
    <glyph glyph-name="otilde" unicode="&#xf5;" horiz-adv-x="515" 
d="M212 -12q-79 0 -126 52t-47 143q0 69 22 126.5t59 100t84 65.5t97 23q79 0 126.5 -52t47.5 -143q0 -69 -22 -126.5t-59.5 -100t-84.5 -65.5t-97 -23zM220 52q45 0 85.5 33t66 89t25.5 124q0 66 -27 101.5t-77 35.5q-45 0 -85.5 -33.5t-66 -89.5t-25.5 -124q0 -66 27 -101
t77 -35zM410 577q-26 0 -42.5 13t-29 29.5t-25.5 29.5t-32 13q-22 0 -37 -22t-23 -58l-55 3q12 59 41.5 97.5t78.5 38.5q26 0 42.5 -13t29 -29.5t25.5 -29.5t32 -13q23 0 38 22.5t22 57.5l54 -4q-11 -58 -40 -96.5t-79 -38.5z" />
    <glyph glyph-name="odieresis" unicode="&#xf6;" horiz-adv-x="515" 
d="M212 -12q-79 0 -126 52t-47 143q0 69 22 126.5t59 100t84 65.5t97 23q79 0 126.5 -52t47.5 -143q0 -69 -22 -126.5t-59.5 -100t-84.5 -65.5t-97 -23zM220 52q45 0 85.5 33t66 89t25.5 124q0 66 -27 101.5t-77 35.5q-45 0 -85.5 -33.5t-66 -89.5t-25.5 -124q0 -66 27 -101
t77 -35zM243 589q-17 0 -28.5 10.5t-11.5 29.5q0 23 15 39t36 16q18 0 29.5 -11t11.5 -31q0 -22 -15.5 -37.5t-36.5 -15.5zM429 589q-17 0 -28.5 10.5t-11.5 29.5q0 23 15 39t36 16q18 0 29 -11t11 -31q0 -22 -15 -37.5t-36 -15.5z" />
    <glyph glyph-name="divide" unicode="&#xf7;" horiz-adv-x="480" 
d="M48 302v57h410v-57h-410zM253 97q-22 0 -36.5 14.5t-14.5 36.5q0 21 14.5 35.5t36.5 14.5t36.5 -14.5t14.5 -35.5q0 -22 -14.5 -36.5t-36.5 -14.5zM253 460q-22 0 -36.5 15t-14.5 37q0 21 14.5 35.5t36.5 14.5t36.5 -14.5t14.5 -35.5q0 -22 -14.5 -37t-36.5 -15z" />
    <glyph glyph-name="oslash" unicode="&#xf8;" horiz-adv-x="515" 
d="M112 188q0 -36 7 -60l259 266q-28 42 -83 42q-37 0 -70 -20.5t-58.5 -56t-40 -80t-14.5 -91.5zM29 -23l-29 28l64 66q-25 47 -25 112q0 69 22 126.5t59 100t84 65.5t97 23q80 0 127 -53l61 63l30 -28l-67 -69q23 -46 23 -108q0 -69 -22 -127t-59.5 -100t-84.5 -65
t-97 -23q-77 0 -124 50zM218 50q38 0 71 20.5t58.5 55.5t40 79.5t14.5 91.5q0 32 -6 56l-259 -265q27 -38 81 -38z" />
    <glyph glyph-name="ugrave" unicode="&#xf9;" horiz-adv-x="528" 
d="M171 -12q-61 0 -88 33t-27 88q0 17 2 32.5t6 34.5l62 310h77l-61 -300q-4 -19 -6 -31.5t-2 -25.5q0 -75 72 -75q29 0 64.5 21t79.5 67l69 344h76l-97 -486h-63l8 74h-4q-40 -35 -82 -60.5t-86 -25.5zM359 570l-132 164l66 49l114 -177z" />
    <glyph glyph-name="uacute" unicode="&#xfa;" horiz-adv-x="528" 
d="M171 -12q-61 0 -88 33t-27 88q0 17 2 32.5t6 34.5l62 310h77l-61 -300q-4 -19 -6 -31.5t-2 -25.5q0 -75 72 -75q29 0 64.5 21t79.5 67l69 344h76l-97 -486h-63l8 74h-4q-40 -35 -82 -60.5t-86 -25.5zM298 579l-35 45l168 153l47 -60z" />
    <glyph glyph-name="ucircumflex" unicode="&#xfb;" horiz-adv-x="528" 
d="M171 -12q-61 0 -88 33t-27 88q0 17 2 32.5t6 34.5l62 310h77l-61 -300q-4 -19 -6 -31.5t-2 -25.5q0 -75 72 -75q29 0 64.5 21t79.5 67l69 344h76l-97 -486h-63l8 74h-4q-40 -35 -82 -60.5t-86 -25.5zM202 568l-31 34l138 138h83l89 -141l-39 -31l-94 116h-4z" />
    <glyph glyph-name="udieresis" unicode="&#xfc;" horiz-adv-x="528" 
d="M171 -12q-61 0 -88 33t-27 88q0 17 2 32.5t6 34.5l62 310h77l-61 -300q-4 -19 -6 -31.5t-2 -25.5q0 -75 72 -75q29 0 64.5 21t79.5 67l69 344h76l-97 -486h-63l8 74h-4q-40 -35 -82 -60.5t-86 -25.5zM237 589q-17 0 -28.5 10.5t-11.5 29.5q0 23 15 39t36 16
q18 0 29.5 -11t11.5 -31q0 -22 -15.5 -37.5t-36.5 -15.5zM423 589q-17 0 -28.5 10.5t-11.5 29.5q0 23 15 39t36 16q18 0 29 -11t11 -31q0 -22 -15 -37.5t-36 -15.5z" />
    <glyph glyph-name="yacute" unicode="&#xfd;" horiz-adv-x="448" 
d="M-6 -209q-10 0 -26 3.5t-30 10.5l25 57q18 -9 36 -9q37 0 69.5 30.5t57.5 80.5l18 35l-83 487h76l38 -273q5 -33 9 -71.5t7 -73.5h4q17 35 35.5 73t36.5 72l140 273h76l-286 -527q-25 -47 -54.5 -85.5t-65.5 -60.5t-83 -22zM256 579l-35 45l168 153l47 -60z" />
    <glyph glyph-name="thorn" unicode="&#xfe;" horiz-adv-x="535" 
d="M-10 -205l183 917h77l-39 -190l-22 -96h2q36 29 78 50.5t87 21.5q64 0 102 -45.5t38 -130.5q0 -70 -22 -130.5t-59 -106.5t-84 -71.5t-97 -25.5q-38 0 -67.5 19.5t-49.5 50.5h-2l-18 -104l-31 -159h-76zM231 52q36 0 69.5 21t60 57.5t41.5 83t15 97.5q0 62 -24 92.5
t-65 30.5q-34 0 -74.5 -21t-75.5 -58l-46 -233q20 -37 45.5 -53.5t53.5 -16.5z" />
    <glyph glyph-name="ydieresis" unicode="&#xff;" horiz-adv-x="448" 
d="M-6 -209q-10 0 -26 3.5t-30 10.5l25 57q18 -9 36 -9q37 0 69.5 30.5t57.5 80.5l18 35l-83 487h76l38 -273q5 -33 9 -71.5t7 -73.5h4q17 35 35.5 73t36.5 72l140 273h76l-286 -527q-25 -47 -54.5 -85.5t-65.5 -60.5t-83 -22zM195 589q-17 0 -28.5 10.5t-11.5 29.5
q0 23 15 39t36 16q18 0 29.5 -11t11.5 -31q0 -22 -15.5 -37.5t-36.5 -15.5zM381 589q-17 0 -28.5 10.5t-11.5 29.5q0 23 15 39t36 16q18 0 29 -11t11 -31q0 -22 -15 -37.5t-36 -15.5z" />
    <glyph glyph-name="Amacron" unicode="&#x100;" horiz-adv-x="510" 
d="M227 377l-58 -112h195l-10 112q-4 52 -9 105t-9 109h-4q-26 -57 -51.5 -108.5t-53.5 -105.5zM-53 0l356 656h90l76 -656h-81l-18 205h-232l-105 -205h-86zM234 729l11 54h256l-11 -54h-256z" />
    <glyph glyph-name="amacron" unicode="&#x101;" horiz-adv-x="537" 
d="M179 -12q-64 0 -102 45.5t-38 130.5q0 70 22 130.5t59 106.5t84 71.5t98 25.5q39 0 69.5 -20t47.5 -53h4l19 61h62l-97 -486h-63l8 72h-4q-35 -37 -79 -60.5t-90 -23.5zM207 52q38 0 77.5 23t75.5 70l44 217q-21 38 -46 55t-53 17q-36 0 -69.5 -21t-60 -57.5t-42 -83
t-15.5 -96.5q0 -63 24.5 -93.5t64.5 -30.5zM205 601l10 54h254l-9 -54h-255z" />
    <glyph glyph-name="Abreve" unicode="&#x102;" horiz-adv-x="510" 
d="M227 377l-58 -112h195l-10 112q-4 52 -9 105t-9 109h-4q-26 -57 -51.5 -108.5t-53.5 -105.5zM-53 0l356 656h90l76 -656h-81l-18 205h-232l-105 -205h-86zM359 705q-68 0 -96.5 38.5t-25.5 90.5l52 8q-1 -35 18.5 -59.5t62.5 -24.5q42 0 69.5 24.5t40.5 59.5l49 -8
q-14 -52 -56.5 -90.5t-113.5 -38.5z" />
    <glyph glyph-name="abreve" unicode="&#x103;" horiz-adv-x="537" 
d="M179 -12q-64 0 -102 45.5t-38 130.5q0 70 22 130.5t59 106.5t84 71.5t98 25.5q39 0 69.5 -20t47.5 -53h4l19 61h62l-97 -486h-63l8 72h-4q-35 -37 -79 -60.5t-90 -23.5zM207 52q38 0 77.5 23t75.5 70l44 217q-21 38 -46 55t-53 17q-36 0 -69.5 -21t-60 -57.5t-42 -83
t-15.5 -96.5q0 -63 24.5 -93.5t64.5 -30.5zM327 571q-52 0 -81.5 22.5t-40 57t-7.5 71.5l54 8q-2 -25 6 -49t28 -39.5t52 -15.5t56.5 15.5t41 39.5t25.5 49l50 -8q-9 -37 -31.5 -71.5t-60.5 -57t-92 -22.5z" />
    <glyph glyph-name="Aogonek" unicode="&#x104;" horiz-adv-x="510" 
d="M227 377l-58 -112h195l-10 112q-4 52 -9 105t-9 109h-4q-26 -57 -51.5 -108.5t-53.5 -105.5zM384 -211q-34 0 -56 17.5t-22 51.5q0 29 15 55.5t37 49t43 37.5h-13l-18 205h-232l-105 -205h-86l356 656h90l76 -656q-48 -27 -73 -58.5t-25 -60.5q0 -18 10.5 -28t25.5 -10
q18 0 36 11l17 -42q-16 -10 -37.5 -16.5t-38.5 -6.5z" />
    <glyph glyph-name="aogonek" unicode="&#x105;" horiz-adv-x="537" 
d="M311 -206q-33 0 -54 17t-21 50q0 30 16.5 57.5t42 50.5t50.5 37l7 66h-4q-35 -37 -79 -60.5t-90 -23.5q-64 0 -102 45.5t-38 130.5q0 70 22 130.5t59 106.5t84 71.5t98 25.5q39 0 69.5 -20t47.5 -53h4l19 61h62l-97 -486q-51 -23 -80.5 -54t-29.5 -64q0 -17 10.5 -27
t25.5 -10q19 0 38 12l16 -38q-17 -10 -38 -17.5t-38 -7.5zM207 52q38 0 77.5 23t75.5 70l44 217q-21 38 -46 55t-53 17q-36 0 -69.5 -21t-60 -57.5t-42 -83t-15.5 -96.5q0 -63 24.5 -93.5t64.5 -30.5z" />
    <glyph glyph-name="Cacute" unicode="&#x106;" horiz-adv-x="550" 
d="M290 -12q-75 0 -127 33.5t-79 93.5t-27 138q0 77 24 151t69 133.5t107.5 95t138.5 35.5q56 0 96.5 -27.5t64.5 -69.5l-54 -41q-19 32 -46 51.5t-65 19.5q-58 0 -105.5 -30.5t-80.5 -80.5t-51 -110t-18 -120q0 -59 17 -105.5t54 -73t96 -26.5q40 0 73.5 16t65.5 43l35 -50
q-36 -31 -82.5 -53.5t-105.5 -22.5zM381 703l-30 44l165 116l37 -60z" />
    <glyph glyph-name="cacute" unicode="&#x107;" horiz-adv-x="435" 
d="M216 -12q-79 0 -129 51t-50 144q0 68 22 125.5t60.5 100t87 66t101.5 23.5q44 0 74 -17t52 -42l-45 -48q-19 23 -38 33.5t-48 10.5q-48 0 -91 -34t-70 -90t-27 -123q0 -66 28.5 -101t86.5 -35q32 0 59 13t49 30l34 -50q-26 -20 -64.5 -38.5t-91.5 -18.5zM287 579l-35 45
l168 153l47 -60z" />
    <glyph glyph-name="Ccircumflex" unicode="&#x108;" horiz-adv-x="550" 
d="M290 -12q-75 0 -127 33.5t-79 93.5t-27 138q0 77 24 151t69 133.5t107.5 95t138.5 35.5q56 0 96.5 -27.5t64.5 -69.5l-54 -41q-19 32 -46 51.5t-65 19.5q-58 0 -105.5 -30.5t-80.5 -80.5t-51 -110t-18 -120q0 -59 17 -105.5t54 -73t96 -26.5q40 0 73.5 16t65.5 43l35 -50
q-36 -31 -82.5 -53.5t-105.5 -22.5zM298 698l-33 28l124 111h87l84 -113l-39 -25l-90 93h-4z" />
    <glyph glyph-name="ccircumflex" unicode="&#x109;" horiz-adv-x="435" 
d="M216 -12q-79 0 -129 51t-50 144q0 68 22 125.5t60.5 100t87 66t101.5 23.5q44 0 74 -17t52 -42l-45 -48q-19 23 -38 33.5t-48 10.5q-48 0 -91 -34t-70 -90t-27 -123q0 -66 28.5 -101t86.5 -35q32 0 59 13t49 30l34 -50q-26 -20 -64.5 -38.5t-91.5 -18.5zM191 568l-31 34
l138 138h83l89 -141l-39 -31l-94 116h-4z" />
    <glyph glyph-name="Cdotaccent" unicode="&#x10a;" horiz-adv-x="550" 
d="M290 -12q-75 0 -127 33.5t-79 93.5t-27 138q0 77 24 151t69 133.5t107.5 95t138.5 35.5q56 0 96.5 -27.5t64.5 -69.5l-54 -41q-19 32 -46 51.5t-65 19.5q-58 0 -105.5 -30.5t-80.5 -80.5t-51 -110t-18 -120q0 -59 17 -105.5t54 -73t96 -26.5q40 0 73.5 16t65.5 43l35 -50
q-36 -31 -82.5 -53.5t-105.5 -22.5zM419 716q-19 0 -34 11.5t-15 33.5q0 24 17.5 41t40.5 17q20 0 34.5 -12t14.5 -34q0 -25 -17.5 -41t-40.5 -16z" />
    <glyph glyph-name="cdotaccent" unicode="&#x10b;" horiz-adv-x="435" 
d="M216 -12q-79 0 -129 51t-50 144q0 68 22 125.5t60.5 100t87 66t101.5 23.5q44 0 74 -17t52 -42l-45 -48q-19 23 -38 33.5t-48 10.5q-48 0 -91 -34t-70 -90t-27 -123q0 -66 28.5 -101t86.5 -35q32 0 59 13t49 30l34 -50q-26 -20 -64.5 -38.5t-91.5 -18.5zM319 587
q-19 0 -34 11.5t-15 33.5q0 25 17.5 41.5t40.5 16.5q20 0 34.5 -12t14.5 -34q0 -25 -17.5 -41t-40.5 -16z" />
    <glyph glyph-name="Ccaron" unicode="&#x10c;" horiz-adv-x="550" 
d="M290 -12q-75 0 -127 33.5t-79 93.5t-27 138q0 77 24 151t69 133.5t107.5 95t138.5 35.5q56 0 96.5 -27.5t64.5 -69.5l-54 -41q-19 32 -46 51.5t-65 19.5q-58 0 -105.5 -30.5t-80.5 -80.5t-51 -110t-18 -120q0 -59 17 -105.5t54 -73t96 -26.5q40 0 73.5 16t65.5 43l35 -50
q-36 -31 -82.5 -53.5t-105.5 -22.5zM373 706l-85 113l39 25l90 -93h4l130 94l33 -28l-125 -111h-86z" />
    <glyph glyph-name="ccaron" unicode="&#x10d;" horiz-adv-x="435" 
d="M216 -12q-79 0 -129 51t-50 144q0 68 22 125.5t60.5 100t87 66t101.5 23.5q44 0 74 -17t52 -42l-45 -48q-19 23 -38 33.5t-48 10.5q-48 0 -91 -34t-70 -90t-27 -123q0 -66 28.5 -101t86.5 -35q32 0 59 13t49 30l34 -50q-26 -20 -64.5 -38.5t-91.5 -18.5zM273 575l-89 141
l38 31l95 -116h4l141 116l31 -34l-138 -138h-82z" />
    <glyph glyph-name="Dcaron" unicode="&#x10e;" horiz-adv-x="592" 
d="M35 0l131 656h122q137 0 207.5 -67.5t70.5 -188.5q0 -119 -42.5 -209t-122 -140.5t-190.5 -50.5h-176zM125 64h86q85 0 147 42t95.5 117t33.5 172q0 93 -51.5 145.5t-150.5 52.5h-54zM343 706l-85 113l39 25l90 -93h4l130 94l33 -28l-125 -111h-86z" />
    <glyph glyph-name="dcaron" unicode="&#x10f;" horiz-adv-x="542" 
d="M179 -12q-64 0 -102 45.5t-38 130.5q0 70 22 130.5t59 106.5t84 71.5t98 25.5q39 0 68 -19.5t47 -51.5h3l16 95l38 190h77l-144 -712h-63l8 72h-4q-35 -37 -79 -60.5t-90 -23.5zM207 52q38 0 77 23t76 70l44 217q-21 38 -46 55t-53 17q-36 0 -69.5 -21t-60 -57.5t-42 -83
t-15.5 -96.5q0 -63 24.5 -93.5t64.5 -30.5zM566 548l40 212h54l-11 -57l-44 -155h-39z" />
    <glyph glyph-name="Dcroat" unicode="&#x110;" horiz-adv-x="610" 
d="M53 0l65 324h-71l9 41l70 3l58 288h122q137 0 207.5 -67.5t70.5 -188.5q0 -119 -42.5 -209t-122 -140.5t-190.5 -50.5h-176zM143 64h86q85 0 147 42t95.5 117t33.5 172q0 93 -51.5 145.5t-150.5 52.5h-54l-45 -225h150l-10 -44h-149z" />
    <glyph glyph-name="dcroat" unicode="&#x111;" horiz-adv-x="535" 
d="M179 -12q-64 0 -102 45.5t-38 130.5q0 62 21.5 118.5t58.5 100.5t84 69.5t97 25.5q39 0 68 -19.5t45 -51.5h3l16 95l14 70h-155l8 45h156l19 95h77l-19 -95h71l-10 -40l-70 -5l-116 -572h-63l8 72h-4q-35 -37 -79 -60.5t-90 -23.5zM207 52q38 0 77 23t76 70l40 197
q-19 38 -44 55t-53 17q-36 0 -69.5 -20.5t-59.5 -55t-41 -77t-15 -85.5q0 -63 24.5 -93.5t64.5 -30.5z" />
    <glyph glyph-name="Emacron" unicode="&#x112;" horiz-adv-x="503" 
d="M35 0l131 656h362l-13 -65h-285l-42 -213h241l-14 -66h-239l-51 -246h294l-14 -66h-370zM241 729l11 54h256l-11 -54h-256z" />
    <glyph glyph-name="emacron" unicode="&#x113;" horiz-adv-x="481" 
d="M228 -12q-86 0 -138.5 53t-52.5 150q0 69 22.5 125t60 97t83.5 63t94 22q55 0 87.5 -23t47.5 -63t15 -90q0 -28 -6 -53.5t-11 -39.5h-316q-9 -63 7 -103t49.5 -58.5t75.5 -18.5q29 0 57.5 12.5t51.5 29.5l30 -51q-29 -21 -69.5 -36.5t-87.5 -15.5zM122 281h255
q2 11 3.5 23t1.5 25q0 28 -9 52.5t-29.5 40t-55.5 15.5q-53 0 -100 -42.5t-66 -113.5zM192 601l10 54h254l-9 -54h-255z" />
    <glyph glyph-name="Ebreve" unicode="&#x114;" horiz-adv-x="503" 
d="M35 0l131 656h362l-13 -65h-285l-42 -213h241l-14 -66h-239l-51 -246h294l-14 -66h-370zM366 705q-68 0 -96.5 38.5t-25.5 90.5l52 8q-1 -35 18.5 -59.5t62.5 -24.5q42 0 69.5 24.5t40.5 59.5l49 -8q-14 -52 -56.5 -90.5t-113.5 -38.5z" />
    <glyph glyph-name="ebreve" unicode="&#x115;" horiz-adv-x="481" 
d="M228 -12q-86 0 -138.5 53t-52.5 150q0 69 22.5 125t60 97t83.5 63t94 22q55 0 87.5 -23t47.5 -63t15 -90q0 -28 -6 -53.5t-11 -39.5h-316q-9 -63 7 -103t49.5 -58.5t75.5 -18.5q29 0 57.5 12.5t51.5 29.5l30 -51q-29 -21 -69.5 -36.5t-87.5 -15.5zM122 281h255
q2 11 3.5 23t1.5 25q0 28 -9 52.5t-29.5 40t-55.5 15.5q-53 0 -100 -42.5t-66 -113.5zM314 571q-52 0 -81.5 22.5t-40 57t-7.5 71.5l54 8q-2 -25 6 -49t28 -39.5t52 -15.5t56.5 15.5t41 39.5t25.5 49l50 -8q-9 -37 -31.5 -71.5t-60.5 -57t-92 -22.5z" />
    <glyph glyph-name="Edotaccent" unicode="&#x116;" horiz-adv-x="503" 
d="M35 0l131 656h362l-13 -65h-285l-42 -213h241l-14 -66h-239l-51 -246h294l-14 -66h-370zM372 716q-19 0 -34 11.5t-15 33.5q0 24 17.5 41t40.5 17q20 0 34.5 -12t14.5 -34q0 -25 -17.5 -41t-40.5 -16z" />
    <glyph glyph-name="edotaccent" unicode="&#x117;" horiz-adv-x="481" 
d="M228 -12q-86 0 -138.5 53t-52.5 150q0 69 22.5 125t60 97t83.5 63t94 22q55 0 87.5 -23t47.5 -63t15 -90q0 -28 -6 -53.5t-11 -39.5h-316q-9 -63 7 -103t49.5 -58.5t75.5 -18.5q29 0 57.5 12.5t51.5 29.5l30 -51q-29 -21 -69.5 -36.5t-87.5 -15.5zM122 281h255
q2 11 3.5 23t1.5 25q0 28 -9 52.5t-29.5 40t-55.5 15.5q-53 0 -100 -42.5t-66 -113.5zM321 587q-19 0 -34 11.5t-15 33.5q0 25 17.5 41.5t40.5 16.5q20 0 34.5 -12t14.5 -34q0 -25 -17.5 -41t-40.5 -16z" />
    <glyph glyph-name="Eogonek" unicode="&#x118;" horiz-adv-x="503" 
d="M306 -211q-34 0 -56 17.5t-22 51.5q0 29 15.5 56.5t37.5 50t41 35.5h-287l131 656h362l-13 -65h-285l-42 -213h241l-14 -66h-239l-51 -246h294l-14 -66q-30 -3 -55.5 -24t-41 -47.5t-15.5 -47.5q0 -18 10.5 -28t26.5 -10q17 0 35 11l17 -42q-36 -23 -76 -23z" />
    <glyph glyph-name="eogonek" unicode="&#x119;" horiz-adv-x="481" 
d="M253 -206q-32 0 -53 17t-21 50q0 36 23 69t54 61q-13 -3 -28 -3q-86 0 -138.5 53t-52.5 150q0 69 22.5 125t60 97t83.5 63t94 22q55 0 87.5 -23t47.5 -63t15 -90q0 -29 -6 -55t-11 -40h-316q-9 -62 7 -101.5t49.5 -58t75.5 -18.5q29 0 57.5 12.5t51.5 29.5l30 -51
q-84 -49 -114.5 -88.5t-30.5 -69.5q0 -17 10.5 -27t25.5 -10q19 0 38 12l16 -38q-17 -10 -38 -17.5t-39 -7.5zM122 279h255q2 12 3.5 24t1.5 26q0 28 -9 52.5t-29.5 40t-55.5 15.5q-53 0 -100 -43t-66 -115z" />
    <glyph glyph-name="Ecaron" unicode="&#x11a;" horiz-adv-x="503" 
d="M35 0l131 656h362l-13 -65h-285l-42 -213h241l-14 -66h-239l-51 -246h294l-14 -66h-370zM326 706l-85 113l39 25l90 -93h4l130 94l33 -28l-125 -111h-86z" />
    <glyph glyph-name="ecaron" unicode="&#x11b;" horiz-adv-x="481" 
d="M228 -12q-86 0 -138.5 53t-52.5 150q0 69 22.5 125t60 97t83.5 63t94 22q55 0 87.5 -23t47.5 -63t15 -90q0 -28 -6 -53.5t-11 -39.5h-316q-9 -63 7 -103t49.5 -58.5t75.5 -18.5q29 0 57.5 12.5t51.5 29.5l30 -51q-29 -21 -69.5 -36.5t-87.5 -15.5zM122 281h255
q2 11 3.5 23t1.5 25q0 28 -9 52.5t-29.5 40t-55.5 15.5q-53 0 -100 -42.5t-66 -113.5zM275 575l-89 141l38 31l95 -116h4l141 116l31 -34l-138 -138h-82z" />
    <glyph glyph-name="Gcircumflex" unicode="&#x11c;" horiz-adv-x="588" 
d="M300 -12q-118 0 -180.5 72.5t-62.5 192.5q0 78 24 152t69.5 133.5t110 94.5t145.5 35q59 0 99.5 -27.5t65.5 -69.5l-55 -41q-19 32 -46.5 51.5t-67.5 19.5q-62 0 -111 -30.5t-83.5 -80.5t-52.5 -110t-18 -120q0 -58 17.5 -105t55.5 -74t101 -27q36 0 64.5 12t47.5 28
l37 181h-136l13 64h206l-57 -284q-36 -30 -83 -48.5t-103 -18.5zM298 698l-33 28l124 111h87l84 -113l-39 -25l-90 93h-4z" />
    <glyph glyph-name="gcircumflex" unicode="&#x11d;" horiz-adv-x="531" 
d="M171 -220q-49 0 -92 19t-78 48l36 53q28 -23 62.5 -40t74.5 -17q62 0 99 38t51 102l25 104q-38 -38 -80 -60t-89 -22q-61 0 -101 43t-40 128q0 67 21.5 125t58 102.5t82.5 69.5t95 25q38 0 69 -20t48 -53h3l19 61h63l-102 -509q-19 -95 -76.5 -146t-148.5 -51zM205 69
q35 0 75.5 21.5t74.5 63.5l43 208q-22 38 -46.5 55t-52.5 17q-35 0 -67.5 -20.5t-58 -55.5t-40.5 -79t-15 -92q0 -59 23.5 -88.5t63.5 -29.5zM201 568l-31 34l138 138h83l89 -141l-39 -31l-94 116h-4z" />
    <glyph glyph-name="Gbreve" unicode="&#x11e;" horiz-adv-x="588" 
d="M300 -12q-118 0 -180.5 72.5t-62.5 192.5q0 78 24 152t69.5 133.5t110 94.5t145.5 35q59 0 99.5 -27.5t65.5 -69.5l-55 -41q-19 32 -46.5 51.5t-67.5 19.5q-62 0 -111 -30.5t-83.5 -80.5t-52.5 -110t-18 -120q0 -58 17.5 -105t55.5 -74t101 -27q36 0 64.5 12t47.5 28
l37 181h-136l13 64h206l-57 -284q-36 -30 -83 -48.5t-103 -18.5zM413 705q-68 0 -96.5 38.5t-25.5 90.5l52 8q-1 -35 18.5 -59.5t62.5 -24.5q42 0 69.5 24.5t40.5 59.5l49 -8q-14 -52 -56.5 -90.5t-113.5 -38.5z" />
    <glyph glyph-name="gbreve" unicode="&#x11f;" horiz-adv-x="531" 
d="M171 -220q-49 0 -92 19t-78 48l36 53q28 -23 62.5 -40t74.5 -17q62 0 99 38t51 102l25 104q-38 -38 -80 -60t-89 -22q-61 0 -101 43t-40 128q0 67 21.5 125t58 102.5t82.5 69.5t95 25q38 0 69 -20t48 -53h3l19 61h63l-102 -509q-19 -95 -76.5 -146t-148.5 -51zM205 69
q35 0 75.5 21.5t74.5 63.5l43 208q-22 38 -46.5 55t-52.5 17q-35 0 -67.5 -20.5t-58 -55.5t-40.5 -79t-15 -92q0 -59 23.5 -88.5t63.5 -29.5zM322 571q-52 0 -81.5 22.5t-40 57t-7.5 71.5l54 8q-2 -25 6 -49t28 -39.5t52 -15.5t56.5 15.5t41 39.5t25.5 49l50 -8
q-9 -37 -31.5 -71.5t-60.5 -57t-92 -22.5z" />
    <glyph glyph-name="Gdotaccent" unicode="&#x120;" horiz-adv-x="588" 
d="M300 -12q-118 0 -180.5 72.5t-62.5 192.5q0 78 24 152t69.5 133.5t110 94.5t145.5 35q59 0 99.5 -27.5t65.5 -69.5l-55 -41q-19 32 -46.5 51.5t-67.5 19.5q-62 0 -111 -30.5t-83.5 -80.5t-52.5 -110t-18 -120q0 -58 17.5 -105t55.5 -74t101 -27q36 0 64.5 12t47.5 28
l37 181h-136l13 64h206l-57 -284q-36 -30 -83 -48.5t-103 -18.5zM419 716q-19 0 -34 11.5t-15 33.5q0 24 17.5 41t40.5 17q20 0 34.5 -12t14.5 -34q0 -25 -17.5 -41t-40.5 -16z" />
    <glyph glyph-name="gdotaccent" unicode="&#x121;" horiz-adv-x="531" 
d="M171 -220q-49 0 -92 19t-78 48l36 53q28 -23 62.5 -40t74.5 -17q62 0 99 38t51 102l25 104q-38 -38 -80 -60t-89 -22q-61 0 -101 43t-40 128q0 67 21.5 125t58 102.5t82.5 69.5t95 25q38 0 69 -20t48 -53h3l19 61h63l-102 -509q-19 -95 -76.5 -146t-148.5 -51zM205 69
q35 0 75.5 21.5t74.5 63.5l43 208q-22 38 -46.5 55t-52.5 17q-35 0 -67.5 -20.5t-58 -55.5t-40.5 -79t-15 -92q0 -59 23.5 -88.5t63.5 -29.5zM329 587q-19 0 -34 11.5t-15 33.5q0 25 17.5 41.5t40.5 16.5q20 0 34.5 -12t14.5 -34q0 -25 -17.5 -41t-40.5 -16z" />
    <glyph glyph-name="uni0122" unicode="&#x122;" horiz-adv-x="588" 
d="M300 -12q-118 0 -180.5 72.5t-62.5 192.5q0 78 24 152t69.5 133.5t110 94.5t145.5 35q59 0 99.5 -27.5t65.5 -69.5l-55 -41q-19 32 -46.5 51.5t-67.5 19.5q-62 0 -111 -30.5t-83.5 -80.5t-52.5 -110t-18 -120q0 -58 17.5 -105t55.5 -74t101 -27q36 0 64.5 12t47.5 28
l37 181h-136l13 64h206l-57 -284q-36 -30 -83 -48.5t-103 -18.5zM164 -221l-1 39q60 2 88.5 16.5t28.5 36.5q0 17 -14.5 27.5t-48.5 11.5l23 37q65 -5 85 -22t20 -44q0 -49 -50.5 -74.5t-130.5 -27.5z" />
    <glyph glyph-name="uni0123" unicode="&#x123;" horiz-adv-x="531" 
d="M171 -220q-49 0 -92 19t-78 48l36 53q28 -23 62.5 -40t74.5 -17q62 0 99 38t51 102l25 104q-38 -38 -80 -60t-89 -22q-61 0 -101 43t-40 128q0 67 21.5 125t58 102.5t82.5 69.5t95 25q38 0 69 -20t48 -53h3l19 61h63l-102 -509q-19 -95 -76.5 -146t-148.5 -51zM205 69
q35 0 75.5 21.5t74.5 63.5l43 208q-22 38 -46.5 55t-52.5 17q-35 0 -67.5 -20.5t-58 -55.5t-40.5 -79t-15 -92q0 -59 23.5 -88.5t63.5 -29.5zM363 576q-65 6 -85.5 22.5t-20.5 44.5q0 50 51.5 75t130.5 27v-40q-60 -1 -88.5 -15.5t-28.5 -36.5q0 -36 63 -40z" />
    <glyph glyph-name="Hcircumflex" unicode="&#x124;" horiz-adv-x="622" 
d="M35 0l131 656h78l-56 -277h296l56 277h77l-131 -656h-78l63 312h-296l-62 -312h-78zM286 698l-33 28l124 111h87l84 -113l-39 -25l-90 93h-4z" />
    <glyph glyph-name="hcircumflex" unicode="&#x125;" horiz-adv-x="523" 
d="M31 0l142 712h77l-48 -235l-16 -61h4q41 35 82 58.5t85 23.5q62 0 88.5 -32.5t26.5 -88.5q0 -31 -8 -67l-62 -310h-76l60 300q4 20 6 32t2 25q0 75 -72 75q-28 0 -64 -21t-82 -67l-69 -344h-76zM286 739l-33 28l124 111h87l84 -113l-39 -25l-90 93h-4z" />
    <glyph glyph-name="Hbar" unicode="&#x126;" horiz-adv-x="654" 
d="M50 0l98 489h-73l10 48l73 3l23 116h78l-23 -116h296l23 116h77l-23 -116h74l-11 -51h-73l-98 -489h-78l63 312h-296l-62 -312h-78zM203 379h296l22 110h-296z" />
    <glyph glyph-name="hbar" unicode="&#x127;" horiz-adv-x="523" 
d="M31 0l113 569h-70l9 47l72 4l18 92h77l-19 -92h175l-11 -51h-174l-23 -112l-16 -61h4q41 35 82 58.5t85 23.5q62 0 88.5 -32.5t26.5 -88.5q0 -31 -8 -67l-58 -290h-76l56 280q4 20 6 32t2 25q0 75 -72 75q-28 0 -64 -21t-82 -67l-65 -324h-76z" />
    <glyph glyph-name="Itilde" unicode="&#x128;" horiz-adv-x="252" 
d="M35 0l131 656h78l-131 -656h-78zM294 709q-25 0 -43 11t-31.5 25t-26.5 25t-30 11q-40 0 -60 -67l-54 4q12 59 45 91t78 32q26 0 43.5 -11t31 -25t26.5 -25t30 -11q40 0 60 67l54 -4q-12 -59 -45 -91t-78 -32z" />
    <glyph glyph-name="itilde" unicode="&#x129;" horiz-adv-x="237" 
d="M31 0l97 486h77l-98 -486h-76zM266 577q-26 0 -42.5 13t-29 29.5t-25.5 29.5t-32 13q-22 0 -37 -22t-23 -58l-55 3q12 59 41.5 97.5t78.5 38.5q26 0 42.5 -13t29 -29.5t25.5 -29.5t32 -13q23 0 38 22.5t22 57.5l54 -4q-11 -58 -40 -96.5t-79 -38.5z" />
    <glyph glyph-name="Imacron" unicode="&#x12a;" horiz-adv-x="252" 
d="M35 0l131 656h78l-131 -656h-78zM96 729l11 54h256l-11 -54h-256z" />
    <glyph glyph-name="imacron" unicode="&#x12b;" horiz-adv-x="237" 
d="M31 0l97 486h77l-98 -486h-76zM63 601l10 54h254l-9 -54h-255z" />
    <glyph glyph-name="uni012C" unicode="&#x12c;" horiz-adv-x="252" 
d="M35 0l131 656h78l-131 -656h-78zM221 705q-68 0 -96.5 38.5t-25.5 90.5l52 8q-1 -35 18.5 -59.5t62.5 -24.5q42 0 69.5 24.5t40.5 59.5l49 -8q-14 -52 -56.5 -90.5t-113.5 -38.5z" />
    <glyph glyph-name="uni012D" unicode="&#x12d;" horiz-adv-x="237" 
d="M31 0l97 486h77l-98 -486h-76zM185 571q-52 0 -81.5 22.5t-40 57t-7.5 71.5l54 8q-2 -25 6 -49t28 -39.5t52 -15.5t56.5 15.5t41 39.5t25.5 49l50 -8q-9 -37 -31.5 -71.5t-60.5 -57t-92 -22.5z" />
    <glyph glyph-name="Iogonek" unicode="&#x12e;" horiz-adv-x="252" 
d="M37 -211q-33 0 -54.5 17.5t-21.5 51.5q0 29 15 56.5t36 50t38 35.5h-15l131 656h78l-131 -656q-38 -23 -62.5 -56.5t-24.5 -62.5q0 -18 10.5 -28t25.5 -10q19 0 35 11l18 -42q-38 -23 -78 -23z" />
    <glyph glyph-name="iogonek" unicode="&#x12f;" horiz-adv-x="237" 
d="M33 -206q-32 0 -53.5 17t-21.5 50q0 29 15 56t36 48.5t40 34.5h-18l97 486h77l-98 -486q-42 -27 -65 -56.5t-23 -61.5q0 -17 10.5 -27t26.5 -10q19 0 37 12l16 -38q-16 -10 -37.5 -17.5t-38.5 -7.5zM191 587q-19 0 -34 11.5t-15 33.5q0 25 17.5 41.5t40.5 16.5
q20 0 34.5 -12t14.5 -34q0 -25 -17.5 -41t-40.5 -16z" />
    <glyph glyph-name="Idotaccent" unicode="&#x130;" horiz-adv-x="252" 
d="M35 0l131 656h78l-131 -656h-78zM227 716q-19 0 -34 11.5t-15 33.5q0 24 17.5 41t40.5 17q20 0 34.5 -12t14.5 -34q0 -25 -17.5 -41t-40.5 -16z" />
    <glyph glyph-name="dotlessi" unicode="&#x131;" horiz-adv-x="237" 
d="M31 0l97 486h77l-98 -486h-76z" />
    <glyph glyph-name="uni0132" unicode="&#x132;" horiz-adv-x="498" 
d="M215 -162q-23 0 -40.5 5t-34.5 14l26 59q9 -6 19 -10t26 -4q28 0 45.5 24t26.5 67l132 663h78l-132 -661q-14 -69 -48.5 -113t-97.5 -44zM35 0l131 656h78l-131 -656h-78z" />
    <glyph glyph-name="uni0133" unicode="&#x133;" horiz-adv-x="474" 
d="M31 0l97 486h77l-98 -486h-76zM192 587q-19 0 -34 11.5t-15 33.5q0 25 17.5 41.5t40.5 16.5q20 0 34.5 -12t14.5 -34q0 -25 -17.5 -41t-40.5 -16zM188 -217q-23 0 -40.5 5t-34.5 14l25 57q10 -6 20 -9.5t26 -3.5q28 0 44.5 24.5t26.5 67.5l111 548h77l-111 -547
q-14 -70 -47.5 -113t-96.5 -43zM426 587q-19 0 -34 11.5t-15 33.5q0 25 17.5 41.5t40.5 16.5q20 0 34.5 -12t14.5 -34q0 -25 -17.5 -41t-40.5 -16z" />
    <glyph glyph-name="Jcircumflex" unicode="&#x134;" horiz-adv-x="456" 
d="M159 -12q-58 0 -99 27.5t-62 73.5l51 43q14 -36 42.5 -56.5t69.5 -20.5q50 0 81 37.5t44 102.5l92 461h78l-94 -472q-16 -85 -66.5 -140.5t-136.5 -55.5zM319 698l-33 28l124 111h87l84 -113l-39 -25l-90 93h-4z" />
    <glyph glyph-name="jcircumflex" unicode="&#x135;" horiz-adv-x="238" 
d="M-49 -217q-23 0 -40.5 5t-34.5 14l25 57q10 -6 20 -9.5t26 -3.5q28 0 44.5 24.5t26.5 67.5l111 548h77l-111 -547q-14 -70 -47.5 -113t-96.5 -43zM61 568l-31 34l138 138h83l89 -141l-39 -31l-94 116h-4z" />
    <glyph glyph-name="uni0136" unicode="&#x136;" horiz-adv-x="559" 
d="M35 0l131 656h78l-65 -324h3l329 324h88l-246 -252l149 -404h-81l-126 354l-137 -134l-45 -220h-78zM149 -221l-1 39q60 2 88.5 16.5t28.5 36.5q0 17 -14.5 27.5t-48.5 11.5l23 37q65 -5 85 -22t20 -44q0 -49 -50.5 -74.5t-130.5 -27.5z" />
    <glyph glyph-name="uni0137" unicode="&#x137;" horiz-adv-x="476" 
d="M31 0l142 712h77l-96 -483h2l249 257h88l-194 -203l117 -283h-78l-93 237l-112 -114l-26 -123h-76zM91 -221l-1 39q60 2 88.5 16.5t28.5 36.5q0 17 -14.5 27.5t-48.5 11.5l23 37q65 -5 85 -22t20 -44q0 -49 -50.5 -74.5t-130.5 -27.5z" />
    <glyph glyph-name="kgreenlandic" unicode="&#x138;" horiz-adv-x="476" 
d="M31 0l96 486h77l-50 -257h2l249 257h88l-194 -203l117 -283h-78l-93 237l-112 -114l-26 -123h-76z" />
    <glyph glyph-name="Lacute" unicode="&#x139;" horiz-adv-x="462" 
d="M35 0l131 656h78l-118 -590h276l-13 -66h-354zM197 703l-30 44l165 116l37 -60z" />
    <glyph glyph-name="lacute" unicode="&#x13a;" horiz-adv-x="248" 
d="M109 -12q-65 0 -65 63q0 17 6 42l123 619h77l-125 -623q-1 -7 -1.5 -11.5t-0.5 -7.5q0 -18 17 -18q3 0 6 0.5t10 2.5l1 -59q-10 -4 -21 -6t-27 -2zM191 749l-30 44l165 116l37 -60z" />
    <glyph glyph-name="uni013B" unicode="&#x13b;" horiz-adv-x="462" 
d="M35 0l131 656h78l-118 -590h276l-13 -66h-354zM92 -221l-1 39q60 2 88.5 16.5t28.5 36.5q0 17 -14.5 27.5t-48.5 11.5l23 37q65 -5 85 -22t20 -44q0 -49 -50.5 -74.5t-130.5 -27.5z" />
    <glyph glyph-name="uni013C" unicode="&#x13c;" horiz-adv-x="248" 
d="M109 -12q-65 0 -65 63q0 17 6 42l123 619h77l-125 -623q-1 -7 -1.5 -11.5t-0.5 -7.5q0 -18 17 -18q3 0 6 0.5t10 2.5l1 -59q-10 -4 -21 -6t-27 -2zM-42 -221l-1 39q60 2 88.5 16.5t28.5 36.5q0 17 -14.5 27.5t-48.5 11.5l23 37q65 -5 85 -22t20 -44q0 -49 -50.5 -74.5
t-130.5 -27.5z" />
    <glyph glyph-name="Lcaron" unicode="&#x13d;" horiz-adv-x="462" 
d="M35 0l131 656h78l-118 -590h276l-13 -66h-354zM370 512l40 212h54l-11 -57l-44 -155h-39z" />
    <glyph glyph-name="lcaron" unicode="&#x13e;" horiz-adv-x="243" 
d="M109 -12q-65 0 -65 63q0 17 6 42l123 619h77l-125 -623q-1 -7 -1.5 -11.5t-0.5 -7.5q0 -18 17 -18q3 0 6 0.5t10 2.5l1 -59q-10 -4 -21 -6t-27 -2zM267 548l40 212h54l-11 -57l-44 -155h-39z" />
    <glyph glyph-name="Ldot" unicode="&#x13f;" horiz-adv-x="462" 
d="M35 0l131 656h78l-118 -590h276l-13 -66h-354zM366 268q-22 0 -34.5 14t-12.5 36q0 26 19.5 48t47.5 22q22 0 34 -14.5t12 -36.5q0 -25 -18.5 -47t-47.5 -22z" />
    <glyph glyph-name="ldot" unicode="&#x140;" horiz-adv-x="331" 
d="M109 -12q-65 0 -65 63q0 17 6 42l123 619h77l-125 -623q-1 -7 -1.5 -11.5t-0.5 -7.5q0 -18 17 -18q3 0 6 0.5t10 2.5l1 -59q-10 -4 -21 -6t-27 -2zM291 271q-22 0 -34.5 14t-12.5 36q0 26 19.5 48t47.5 22q22 0 34 -14.5t12 -36.5q0 -25 -18.5 -47t-47.5 -22z" />
    <glyph glyph-name="Lslash" unicode="&#x141;" horiz-adv-x="462" 
d="M35 0l47 237l-71 -35l-20 53l105 50l70 351h78l-62 -312l180 89l21 -53l-215 -103l-42 -211h276l-13 -66h-354z" />
    <glyph glyph-name="lslash" unicode="&#x142;" horiz-adv-x="275" 
d="M124 -12q-65 0 -65 63q0 17 6 42l48 243l-64 -38l-20 50l97 52l62 312h77l-55 -274l83 47l20 -50l-116 -62l-57 -284q-1 -7 -1.5 -11.5t-0.5 -7.5q0 -18 17 -18q3 0 6 0.5t10 2.5l1 -59q-10 -4 -21 -6t-27 -2z" />
    <glyph glyph-name="Nacute" unicode="&#x143;" horiz-adv-x="619" 
d="M35 0l131 656h78l150 -420l42 -137h4q6 49 13 103.5t17 105.5l69 348h75l-131 -656h-77l-148 419l-43 141h-4q-6 -51 -13.5 -104t-17.5 -103l-70 -353h-75zM374 703l-30 44l165 116l37 -60z" />
    <glyph glyph-name="nacute" unicode="&#x144;" horiz-adv-x="525" 
d="M31 0l97 486h63l-7 -73h4q41 36 82 60.5t87 24.5q62 0 88.5 -32.5t26.5 -88.5q0 -31 -8 -67l-62 -310h-76l60 300q4 20 6 32t2 25q0 75 -72 75q-28 0 -64 -21t-82 -67l-69 -344h-76zM320 579l-35 45l168 153l47 -60z" />
    <glyph glyph-name="uni0145" unicode="&#x145;" horiz-adv-x="619" 
d="M35 0l131 656h78l150 -420l42 -137h4q6 49 13 103.5t17 105.5l69 348h75l-131 -656h-77l-148 419l-43 141h-4q-6 -51 -13.5 -104t-17.5 -103l-70 -353h-75zM138 -229l-1 39q60 2 88.5 16.5t28.5 36.5q0 17 -14.5 27.5t-48.5 11.5l23 37q65 -5 85 -22t20 -44
q0 -49 -50.5 -74.5t-130.5 -27.5z" />
    <glyph glyph-name="uni0146" unicode="&#x146;" horiz-adv-x="525" 
d="M31 0l97 486h63l-7 -73h4q41 36 82 60.5t87 24.5q62 0 88.5 -32.5t26.5 -88.5q0 -31 -8 -67l-62 -310h-76l60 300q4 20 6 32t2 25q0 75 -72 75q-28 0 -64 -21t-82 -67l-69 -344h-76zM96 -221l-1 39q60 2 88.5 16.5t28.5 36.5q0 17 -14.5 27.5t-48.5 11.5l23 37
q65 -5 85 -22t20 -44q0 -49 -50.5 -74.5t-130.5 -27.5z" />
    <glyph glyph-name="Ncaron" unicode="&#x147;" horiz-adv-x="619" 
d="M35 0l131 656h78l150 -420l42 -137h4q6 49 13 103.5t17 105.5l69 348h75l-131 -656h-77l-148 419l-43 141h-4q-6 -51 -13.5 -104t-17.5 -103l-70 -353h-75zM366 706l-85 113l39 25l90 -93h4l130 94l33 -28l-125 -111h-86z" />
    <glyph glyph-name="ncaron" unicode="&#x148;" horiz-adv-x="525" 
d="M31 0l97 486h63l-7 -73h4q41 36 82 60.5t87 24.5q62 0 88.5 -32.5t26.5 -88.5q0 -31 -8 -67l-62 -310h-76l60 300q4 20 6 32t2 25q0 75 -72 75q-28 0 -64 -21t-82 -67l-69 -344h-76zM306 575l-89 141l38 31l95 -116h4l141 116l31 -34l-138 -138h-82z" />
    <glyph glyph-name="napostrophe" unicode="&#x149;" horiz-adv-x="742" 
d="M127 443l-16 37q47 23 71.5 57t24.5 61h-2h-3q-22 0 -36 11.5t-14 33.5q0 23 15 40t40 17q23 0 38 -18t15 -50q0 -69 -38.5 -117t-94.5 -72zM247 0l97 486h63l-7 -73h4q41 36 82 60.5t87 24.5q62 0 88.5 -32.5t26.5 -88.5q0 -31 -8 -67l-62 -310h-76l60 300q4 20 6 32
t2 25q0 75 -72 75q-28 0 -64 -21t-82 -67l-69 -344h-76z" />
    <glyph glyph-name="uni014A" unicode="&#x14a;" horiz-adv-x="612" 
d="M345 -12q-21 0 -45 5t-38 13l31 62q10 -6 20.5 -9.5t25.5 -3.5q33 0 63.5 32.5t54.5 87t38 122t14 137.5q0 93 -33.5 130t-88.5 37q-34 0 -82 -23t-91 -67l-101 -511h-78l131 656h75l-15 -72q40 37 90 60.5t93 23.5q80 0 129.5 -52.5t49.5 -174.5q0 -88 -17.5 -169.5
t-50 -145.5t-77 -101t-98.5 -37z" />
    <glyph glyph-name="uni014B" unicode="&#x14b;" horiz-adv-x="525" 
d="M246 -217q-23 0 -40.5 5t-34.5 14l25 57q10 -6 20 -9.5t26 -3.5q28 0 44.5 24.5t26.5 67.5l73 362q4 20 6 32t2 25q0 75 -72 75q-28 0 -64 -21t-82 -67l-69 -344h-76l97 486h63l-7 -73h4q41 36 82 60.5t87 24.5q62 0 88.5 -32.5t26.5 -88.5q0 -31 -8 -67l-74 -371
q-14 -70 -48 -113t-96 -43z" />
    <glyph glyph-name="Omacron" unicode="&#x14c;" horiz-adv-x="633" 
d="M287 -12q-110 0 -168.5 75.5t-58.5 199.5q0 75 23 147t66 130.5t101.5 93t128.5 34.5q74 0 124.5 -34t76.5 -95.5t26 -144.5q0 -75 -23 -147.5t-66 -131t-101 -93t-129 -34.5zM291 55q53 0 96.5 30t74.5 79t48 107.5t17 115.5q0 97 -37 155.5t-115 58.5
q-53 0 -96.5 -29.5t-74.5 -78.5t-48 -107.5t-17 -116.5q0 -96 36.5 -155t115.5 -59zM288 729l11 54h256l-11 -54h-256z" />
    <glyph glyph-name="omacron" unicode="&#x14d;" horiz-adv-x="515" 
d="M212 -12q-79 0 -126 52t-47 143q0 69 22 126.5t59 100t84 65.5t97 23q79 0 126.5 -52t47.5 -143q0 -69 -22 -126.5t-59.5 -100t-84.5 -65.5t-97 -23zM220 52q45 0 85.5 33t66 89t25.5 124q0 66 -27 101.5t-77 35.5q-45 0 -85.5 -33.5t-66 -89.5t-25.5 -124q0 -66 27 -101
t77 -35zM207 601l10 54h254l-9 -54h-255z" />
    <glyph glyph-name="uni014E" unicode="&#x14e;" horiz-adv-x="633" 
d="M287 -12q-110 0 -168.5 75.5t-58.5 199.5q0 75 23 147t66 130.5t101.5 93t128.5 34.5q74 0 124.5 -34t76.5 -95.5t26 -144.5q0 -75 -23 -147.5t-66 -131t-101 -93t-129 -34.5zM291 55q53 0 96.5 30t74.5 79t48 107.5t17 115.5q0 97 -37 155.5t-115 58.5
q-53 0 -96.5 -29.5t-74.5 -78.5t-48 -107.5t-17 -116.5q0 -96 36.5 -155t115.5 -59zM413 705q-68 0 -96.5 38.5t-25.5 90.5l52 8q-1 -35 18.5 -59.5t62.5 -24.5q42 0 69.5 24.5t40.5 59.5l49 -8q-14 -52 -56.5 -90.5t-113.5 -38.5z" />
    <glyph glyph-name="uni014F" unicode="&#x14f;" horiz-adv-x="515" 
d="M212 -12q-79 0 -126 52t-47 143q0 69 22 126.5t59 100t84 65.5t97 23q79 0 126.5 -52t47.5 -143q0 -69 -22 -126.5t-59.5 -100t-84.5 -65.5t-97 -23zM220 52q45 0 85.5 33t66 89t25.5 124q0 66 -27 101.5t-77 35.5q-45 0 -85.5 -33.5t-66 -89.5t-25.5 -124q0 -66 27 -101
t77 -35zM329 571q-52 0 -81.5 22.5t-40 57t-7.5 71.5l54 8q-2 -25 6 -49t28 -39.5t52 -15.5t56.5 15.5t41 39.5t25.5 49l50 -8q-9 -37 -31.5 -71.5t-60.5 -57t-92 -22.5z" />
    <glyph glyph-name="Ohungarumlaut" unicode="&#x150;" horiz-adv-x="633" 
d="M287 -12q-110 0 -168.5 75.5t-58.5 199.5q0 75 23 147t66 130.5t101.5 93t128.5 34.5q74 0 124.5 -34t76.5 -95.5t26 -144.5q0 -75 -23 -147.5t-66 -131t-101 -93t-129 -34.5zM291 55q53 0 96.5 30t74.5 79t48 107.5t17 115.5q0 97 -37 155.5t-115 58.5
q-53 0 -96.5 -29.5t-74.5 -78.5t-48 -107.5t-17 -116.5q0 -96 36.5 -155t115.5 -59zM343 706l-39 25l119 142l50 -36zM503 706l-39 25l119 142l50 -36z" />
    <glyph glyph-name="ohungarumlaut" unicode="&#x151;" horiz-adv-x="515" 
d="M212 -12q-79 0 -126 52t-47 143q0 69 22 126.5t59 100t84 65.5t97 23q79 0 126.5 -52t47.5 -143q0 -69 -22 -126.5t-59.5 -100t-84.5 -65.5t-97 -23zM220 52q45 0 85.5 33t66 89t25.5 124q0 66 -27 101.5t-77 35.5q-45 0 -85.5 -33.5t-66 -89.5t-25.5 -124q0 -66 27 -101
t77 -35zM280 571l-41 25l117 163l52 -34zM431 571l-42 25l118 163l52 -34z" />
    <glyph glyph-name="OE" unicode="&#x152;" horiz-adv-x="816" 
d="M338 0q-136 0 -207 67.5t-71 188.5q0 120 42.5 210t122 140t190.5 50h426l-14 -65h-265l-43 -213h223l-14 -66h-221l-51 -246h276l-14 -66h-380zM341 64h39l106 529h-71q-85 0 -147 -42t-95.5 -117t-33.5 -173q0 -93 51.5 -145t150.5 -52z" />
    <glyph glyph-name="oe" unicode="&#x153;" horiz-adv-x="812" 
d="M208 -12q-76 0 -122.5 52t-46.5 143q0 69 21.5 126.5t58.5 100t83 65.5t95 23q61 0 98.5 -32.5t51.5 -93.5q32 60 82 93t99 33q55 0 88 -23t48 -63t15 -90q0 -28 -6 -53.5t-11 -39.5h-301q-7 -64 7 -104t43.5 -58t66.5 -18q29 0 57.5 12.5t51.5 29.5l29 -51
q-28 -20 -66.5 -36t-82.5 -16q-61 0 -103.5 34t-56.5 99q-34 -62 -87 -97.5t-112 -35.5zM220 52q44 0 83.5 33t65 89t25.5 124q0 66 -27 101.5t-77 35.5q-43 0 -83 -33.5t-65.5 -89.5t-25.5 -124q0 -66 27 -101t77 -35zM469 281h239q6 23 6 48q0 28 -9 52.5t-29.5 40
t-55.5 15.5q-49 0 -91.5 -42.5t-59.5 -113.5z" />
    <glyph glyph-name="Racute" unicode="&#x154;" horiz-adv-x="555" 
d="M35 0l131 656h180q92 0 148.5 -35t56.5 -118q0 -91 -55 -146t-138 -72l115 -285h-83l-108 278h-114l-55 -278h-78zM181 341h99q94 0 144 41t50 111q0 54 -37.5 77.5t-109.5 23.5h-96zM346 703l-30 44l165 116l37 -60z" />
    <glyph glyph-name="racute" unicode="&#x155;" horiz-adv-x="342" 
d="M31 0l97 486h63l-11 -93h4q29 44 67 74.5t83 30.5q25 0 46 -9l-27 -68q-16 8 -42 8q-36 0 -74 -31.5t-69 -90.5l-61 -307h-76zM241 579l-35 45l168 153l47 -60z" />
    <glyph glyph-name="uni0156" unicode="&#x156;" horiz-adv-x="555" 
d="M35 0l131 656h180q92 0 148.5 -35t56.5 -118q0 -91 -55 -146t-138 -72l115 -285h-83l-108 278h-114l-55 -278h-78zM181 341h99q94 0 144 41t50 111q0 54 -37.5 77.5t-109.5 23.5h-96zM132 -229l-1 39q60 2 88.5 16.5t28.5 36.5q0 17 -14.5 27.5t-48.5 11.5l23 37
q65 -5 85 -22t20 -44q0 -49 -50.5 -74.5t-130.5 -27.5z" />
    <glyph glyph-name="uni0157" unicode="&#x157;" horiz-adv-x="342" 
d="M31 0l97 486h63l-11 -93h4q29 44 67 74.5t83 30.5q25 0 46 -9l-27 -68q-16 8 -42 8q-36 0 -74 -31.5t-69 -90.5l-61 -307h-76zM-57 -221l-1 39q60 2 88.5 16.5t28.5 36.5q0 17 -14.5 27.5t-48.5 11.5l23 37q65 -5 85 -22t20 -44q0 -49 -50.5 -74.5t-130.5 -27.5z" />
    <glyph glyph-name="Rcaron" unicode="&#x158;" horiz-adv-x="555" 
d="M35 0l131 656h180q92 0 148.5 -35t56.5 -118q0 -91 -55 -146t-138 -72l115 -285h-83l-108 278h-114l-55 -278h-78zM181 341h99q94 0 144 41t50 111q0 54 -37.5 77.5t-109.5 23.5h-96zM338 706l-85 113l39 25l90 -93h4l130 94l33 -28l-125 -111h-86z" />
    <glyph glyph-name="rcaron" unicode="&#x159;" horiz-adv-x="342" 
d="M31 0l97 486h63l-11 -93h4q29 44 67 74.5t83 30.5q25 0 46 -9l-27 -68q-16 8 -42 8q-36 0 -74 -31.5t-69 -90.5l-61 -307h-76zM227 575l-89 141l38 31l95 -116h4l141 116l31 -34l-138 -138h-82z" />
    <glyph glyph-name="Sacute" unicode="&#x15a;" horiz-adv-x="506" 
d="M231 -12q-67 0 -123 29t-96 87l57 43q29 -43 71.5 -68t97.5 -25q60 0 100.5 34t40.5 90q0 36 -22.5 61t-59.5 47l-76 46q-42 26 -71.5 62.5t-29.5 91.5q0 50 26.5 91t72.5 66t105 25t107 -26t79 -66l-51 -46q-25 30 -60 50.5t-81 20.5q-37 0 -63.5 -15.5t-41 -39.5
t-14.5 -51q0 -38 24.5 -61.5t60.5 -45.5l76 -45q47 -28 73 -63.5t26 -90.5q0 -58 -29.5 -103.5t-80.5 -71.5t-118 -26zM327 705l-30 44l165 116l37 -60z" />
    <glyph glyph-name="sacute" unicode="&#x15b;" horiz-adv-x="402" 
d="M163 -12q-49 0 -95.5 26t-71.5 66l48 38q23 -31 55 -51t70 -20q42 0 72.5 23t30.5 58q0 26 -20.5 45.5t-76.5 50.5q-46 26 -74.5 57t-28.5 72q0 43 22 75.5t58.5 51t80.5 18.5q46 0 83 -18t65 -48l-46 -40q-19 20 -44.5 33t-58.5 13q-38 0 -62.5 -22.5t-24.5 -53.5
q0 -30 27 -49t59 -37q62 -34 88 -64t26 -74q0 -45 -24 -79t-65 -52.5t-93 -18.5zM242 579l-35 45l168 153l47 -60z" />
    <glyph glyph-name="Scircumflex" unicode="&#x15c;" horiz-adv-x="506" 
d="M231 -12q-67 0 -123 29t-96 87l57 43q29 -43 71.5 -68t97.5 -25q60 0 100.5 34t40.5 90q0 36 -22.5 61t-59.5 47l-76 46q-42 26 -71.5 62.5t-29.5 91.5q0 50 26.5 91t72.5 66t105 25t107 -26t79 -66l-51 -46q-25 30 -60 50.5t-81 20.5q-37 0 -63.5 -15.5t-41 -39.5
t-14.5 -51q0 -38 24.5 -61.5t60.5 -45.5l76 -45q47 -28 73 -63.5t26 -90.5q0 -58 -29.5 -103.5t-80.5 -71.5t-118 -26zM244 701l-33 28l124 111h87l84 -113l-39 -25l-90 93h-4z" />
    <glyph glyph-name="scircumflex" unicode="&#x15d;" horiz-adv-x="402" 
d="M163 -12q-49 0 -95.5 26t-71.5 66l48 38q23 -31 55 -51t70 -20q42 0 72.5 23t30.5 58q0 26 -20.5 45.5t-76.5 50.5q-46 26 -74.5 57t-28.5 72q0 43 22 75.5t58.5 51t80.5 18.5q46 0 83 -18t65 -48l-46 -40q-19 20 -44.5 33t-58.5 13q-38 0 -62.5 -22.5t-24.5 -53.5
q0 -30 27 -49t59 -37q62 -34 88 -64t26 -74q0 -45 -24 -79t-65 -52.5t-93 -18.5zM146 568l-31 34l138 138h83l89 -141l-39 -31l-94 116h-4z" />
    <glyph glyph-name="uni015E" unicode="&#x15e;" horiz-adv-x="506" 
d="M231 -12q-67 0 -123 29t-96 87l57 43q29 -43 71.5 -68t97.5 -25q60 0 100.5 34t40.5 90q0 36 -22.5 61t-59.5 47l-76 46q-42 26 -71.5 62.5t-29.5 91.5q0 50 26.5 91t72.5 66t105 25t107 -26t79 -66l-51 -46q-25 30 -60 50.5t-81 20.5q-37 0 -63.5 -15.5t-41 -39.5
t-14.5 -51q0 -38 24.5 -61.5t60.5 -45.5l76 -45q47 -28 73 -63.5t26 -90.5q0 -58 -29.5 -103.5t-80.5 -71.5t-118 -26zM93 -226l-2 39q60 2 88.5 16t30.5 38q0 19 -15.5 29t-53.5 14l60 93h54l-41 -68q35 -9 48 -23.5t11 -39.5q-4 -47 -52 -71.5t-128 -26.5z" />
    <glyph glyph-name="uni015F" unicode="&#x15f;" horiz-adv-x="402" 
d="M163 -12q-49 0 -95.5 26t-71.5 66l48 38q23 -31 55 -51t70 -20q42 0 72.5 23t30.5 58q0 26 -20.5 45.5t-76.5 50.5q-46 26 -74.5 57t-28.5 72q0 43 22 75.5t58.5 51t80.5 18.5q46 0 83 -18t65 -48l-46 -40q-19 20 -44.5 33t-58.5 13q-38 0 -62.5 -22.5t-24.5 -53.5
q0 -30 27 -49t59 -37q62 -34 88 -64t26 -74q0 -45 -24 -79t-65 -52.5t-93 -18.5zM41 -226l-2 39q60 2 88.5 16t30.5 38q0 19 -15.5 29t-53.5 14l60 93h54l-41 -68q35 -9 48 -23.5t11 -39.5q-4 -47 -52 -71.5t-128 -26.5z" />
    <glyph glyph-name="Scaron" unicode="&#x160;" horiz-adv-x="506" 
d="M231 -12q-67 0 -123 29t-96 87l57 43q29 -43 71.5 -68t97.5 -25q60 0 100.5 34t40.5 90q0 36 -22.5 61t-59.5 47l-76 46q-42 26 -71.5 62.5t-29.5 91.5q0 50 26.5 91t72.5 66t105 25t107 -26t79 -66l-51 -46q-25 30 -60 50.5t-81 20.5q-37 0 -63.5 -15.5t-41 -39.5
t-14.5 -51q0 -38 24.5 -61.5t60.5 -45.5l76 -45q47 -28 73 -63.5t26 -90.5q0 -58 -29.5 -103.5t-80.5 -71.5t-118 -26zM319 708l-85 113l39 25l90 -93h4l130 94l33 -28l-125 -111h-86z" />
    <glyph glyph-name="scaron" unicode="&#x161;" horiz-adv-x="402" 
d="M163 -12q-49 0 -95.5 26t-71.5 66l48 38q23 -31 55 -51t70 -20q42 0 72.5 23t30.5 58q0 26 -20.5 45.5t-76.5 50.5q-46 26 -74.5 57t-28.5 72q0 43 22 75.5t58.5 51t80.5 18.5q46 0 83 -18t65 -48l-46 -40q-19 20 -44.5 33t-58.5 13q-38 0 -62.5 -22.5t-24.5 -53.5
q0 -30 27 -49t59 -37q62 -34 88 -64t26 -74q0 -45 -24 -79t-65 -52.5t-93 -18.5zM228 575l-89 141l38 31l95 -116h4l141 116l31 -34l-138 -138h-82z" />
    <glyph glyph-name="uni0162" unicode="&#x162;" horiz-adv-x="510" 
d="M166 0l117 589h-190l13 67h459l-13 -67h-191l-117 -589h-78zM74 -226l-2 39q60 2 88.5 16t30.5 38q0 19 -15.5 29t-53.5 14l60 93h54l-41 -68q35 -9 48 -23.5t11 -39.5q-4 -47 -52 -71.5t-128 -26.5z" />
    <glyph glyph-name="uni0163" unicode="&#x163;" horiz-adv-x="325" 
d="M185 -12q-64 0 -90 31.5t-26 76.5q0 15 2 28t3 26l57 274h-71l11 57l76 5l36 134h65l-27 -134h123l-12 -62h-125l-57 -278q-3 -18 -3 -36q0 -30 14 -45t48 -15q14 0 27 5t24 10l17 -55q-16 -7 -39.5 -14.5t-52.5 -7.5zM43 -226l-2 39q60 2 88.5 16t30.5 38q0 19 -15.5 29
t-53.5 14l60 93h54l-41 -68q35 -9 48 -23.5t11 -39.5q-4 -47 -52 -71.5t-128 -26.5z" />
    <glyph glyph-name="Tcaron" unicode="&#x164;" horiz-adv-x="510" 
d="M166 0l117 589h-190l13 67h459l-13 -67h-191l-117 -589h-78zM306 706l-85 113l39 25l90 -93h4l130 94l33 -28l-125 -111h-86z" />
    <glyph glyph-name="tcaron" unicode="&#x165;" horiz-adv-x="325" 
d="M185 -12q-64 0 -90 31.5t-26 76.5q0 15 2 28t3 26l57 274h-71l11 57l76 5l36 134h65l-27 -134h123l-12 -62h-125l-57 -278q-3 -18 -3 -36q0 -30 14 -45t48 -15q14 0 27 5t24 10l17 -55q-16 -7 -39.5 -14.5t-52.5 -7.5zM314 548l40 212h54l-11 -57l-44 -155h-39z" />
    <glyph glyph-name="uni0166" unicode="&#x166;" horiz-adv-x="510" 
d="M166 0l62 312h-121l10 48l87 3h34l45 226h-190l13 67h459l-13 -67h-191l-45 -226h119l-10 -51h-119l-62 -312h-78z" />
    <glyph glyph-name="uni0167" unicode="&#x167;" horiz-adv-x="325" 
d="M185 -12q-64 0 -90 31.5t-26 76.5q0 15 2 28t3 26l17 80h-71l9 47l72 4l30 143h-71l11 57l76 5l36 134h65l-27 -134h123l-12 -62h-125l-29 -142h124l-11 -52h-124l-17 -84q-3 -18 -3 -36q0 -30 14 -45t48 -15q14 0 27 5t24 10l17 -55q-16 -7 -39.5 -14.5t-52.5 -7.5z" />
    <glyph glyph-name="Utilde" unicode="&#x168;" horiz-adv-x="616" 
d="M286 -12q-100 0 -153.5 52.5t-53.5 154.5q0 21 3 44.5t7 48.5l74 368h78l-75 -375q-9 -45 -9 -79q0 -70 32 -108.5t101 -38.5q56 0 101 46t66 153l81 402h76l-82 -405q-28 -142 -93 -202.5t-153 -60.5zM482 709q-25 0 -43 11t-31.5 25t-26.5 25t-30 11q-40 0 -60 -67
l-54 4q12 59 45 91t78 32q26 0 43.5 -11t31 -25t26.5 -25t30 -11q40 0 60 67l54 -4q-12 -59 -45 -91t-78 -32z" />
    <glyph glyph-name="utilde" unicode="&#x169;" horiz-adv-x="528" 
d="M171 -12q-61 0 -88 33t-27 88q0 17 2 32.5t6 34.5l62 310h77l-61 -300q-4 -19 -6 -31.5t-2 -25.5q0 -75 72 -75q29 0 64.5 21t79.5 67l69 344h76l-97 -486h-63l8 74h-4q-40 -35 -82 -60.5t-86 -25.5zM404 577q-26 0 -42.5 13t-29 29.5t-25.5 29.5t-32 13q-22 0 -37 -22
t-23 -58l-55 3q12 59 41.5 97.5t78.5 38.5q26 0 42.5 -13t29 -29.5t25.5 -29.5t32 -13q23 0 38 22.5t22 57.5l54 -4q-11 -58 -40 -96.5t-79 -38.5z" />
    <glyph glyph-name="Umacron" unicode="&#x16a;" horiz-adv-x="616" 
d="M286 -12q-100 0 -153.5 52.5t-53.5 154.5q0 21 3 44.5t7 48.5l74 368h78l-75 -375q-9 -45 -9 -79q0 -70 32 -108.5t101 -38.5q56 0 101 46t66 153l81 402h76l-82 -405q-28 -142 -93 -202.5t-153 -60.5zM284 729l11 54h256l-11 -54h-256z" />
    <glyph glyph-name="umacron" unicode="&#x16b;" horiz-adv-x="528" 
d="M171 -12q-61 0 -88 33t-27 88q0 17 2 32.5t6 34.5l62 310h77l-61 -300q-4 -19 -6 -31.5t-2 -25.5q0 -75 72 -75q29 0 64.5 21t79.5 67l69 344h76l-97 -486h-63l8 74h-4q-40 -35 -82 -60.5t-86 -25.5zM201 601l10 54h254l-9 -54h-255z" />
    <glyph glyph-name="Ubreve" unicode="&#x16c;" horiz-adv-x="616" 
d="M286 -12q-100 0 -153.5 52.5t-53.5 154.5q0 21 3 44.5t7 48.5l74 368h78l-75 -375q-9 -45 -9 -79q0 -70 32 -108.5t101 -38.5q56 0 101 46t66 153l81 402h76l-82 -405q-28 -142 -93 -202.5t-153 -60.5zM409 705q-68 0 -96.5 38.5t-25.5 90.5l52 8q-1 -35 18.5 -59.5
t62.5 -24.5q42 0 69.5 24.5t40.5 59.5l49 -8q-14 -52 -56.5 -90.5t-113.5 -38.5z" />
    <glyph glyph-name="ubreve" unicode="&#x16d;" horiz-adv-x="528" 
d="M171 -12q-61 0 -88 33t-27 88q0 17 2 32.5t6 34.5l62 310h77l-61 -300q-4 -19 -6 -31.5t-2 -25.5q0 -75 72 -75q29 0 64.5 21t79.5 67l69 344h76l-97 -486h-63l8 74h-4q-40 -35 -82 -60.5t-86 -25.5zM323 571q-52 0 -81.5 22.5t-40 57t-7.5 71.5l54 8q-2 -25 6 -49
t28 -39.5t52 -15.5t56.5 15.5t41 39.5t25.5 49l50 -8q-9 -37 -31.5 -71.5t-60.5 -57t-92 -22.5z" />
    <glyph glyph-name="Uring" unicode="&#x16e;" horiz-adv-x="616" 
d="M286 -12q-100 0 -153.5 52.5t-53.5 154.5q0 21 3 44.5t7 48.5l74 368h78l-75 -375q-9 -45 -9 -79q0 -70 32 -108.5t101 -38.5q56 0 101 46t66 153l81 402h76l-82 -405q-28 -142 -93 -202.5t-153 -60.5zM413 700q-34 0 -60.5 19.5t-26.5 59.5q0 41 31 70t75 29
q35 0 61 -19.5t26 -59.5q0 -42 -30.5 -70.5t-75.5 -28.5zM415 736q23 0 40.5 17t17.5 42q0 21 -11 34t-32 13q-23 0 -40.5 -17.5t-17.5 -42.5q0 -21 11.5 -33.5t31.5 -12.5z" />
    <glyph glyph-name="uring" unicode="&#x16f;" horiz-adv-x="528" 
d="M171 -12q-61 0 -88 33t-27 88q0 17 2 32.5t6 34.5l62 310h77l-61 -300q-4 -19 -6 -31.5t-2 -25.5q0 -75 72 -75q29 0 64.5 21t79.5 67l69 344h76l-97 -486h-63l8 74h-4q-40 -35 -82 -60.5t-86 -25.5zM327 556q-40 0 -67.5 21t-27.5 61q0 45 33 78t85 33q41 0 68.5 -21
t27.5 -61q0 -45 -33 -78t-86 -33zM332 592q26 0 44 21.5t18 50.5q0 21 -13 35t-36 14q-25 0 -43 -21.5t-18 -50.5q0 -22 12.5 -35.5t35.5 -13.5z" />
    <glyph glyph-name="Uhungarumlaut" unicode="&#x170;" horiz-adv-x="616" 
d="M286 -12q-100 0 -153.5 52.5t-53.5 154.5q0 21 3 44.5t7 48.5l74 368h78l-75 -375q-9 -45 -9 -79q0 -70 32 -108.5t101 -38.5q56 0 101 46t66 153l81 402h76l-82 -405q-28 -142 -93 -202.5t-153 -60.5zM339 706l-39 25l119 142l50 -36zM499 706l-39 25l119 142l50 -36z
" />
    <glyph glyph-name="uhungarumlaut" unicode="&#x171;" horiz-adv-x="528" 
d="M171 -12q-61 0 -88 33t-27 88q0 17 2 32.5t6 34.5l62 310h77l-61 -300q-4 -19 -6 -31.5t-2 -25.5q0 -75 72 -75q29 0 64.5 21t79.5 67l69 344h76l-97 -486h-63l8 74h-4q-40 -35 -82 -60.5t-86 -25.5zM274 571l-41 25l117 163l52 -34zM425 571l-42 25l118 163l52 -34z" />
    <glyph glyph-name="Uogonek" unicode="&#x172;" horiz-adv-x="616" 
d="M243 -211q-34 0 -56 17.5t-22 51.5q0 24 12.5 49t32 46.5t39.5 36.5q-82 11 -126 62.5t-44 142.5q0 21 3 44.5t7 48.5l74 368h78l-75 -375q-9 -45 -9 -79q0 -70 32 -108.5t101 -38.5q56 0 101 46t66 153l81 402h76l-82 -405q-15 -79 -41 -130t-63.5 -80.5t-88.5 -47.5
q-58 -19 -83.5 -52.5t-25.5 -59.5q0 -18 10.5 -28t25.5 -10q18 0 36 11l17 -42q-38 -23 -76 -23z" />
    <glyph glyph-name="uogonek" unicode="&#x173;" horiz-adv-x="528" 
d="M302 -206q-32 0 -53.5 17t-21.5 50q0 30 16.5 57.5t42 50.5t51.5 37l6 68h-4q-40 -35 -82 -60.5t-86 -25.5q-61 0 -88 33t-27 88q0 17 2 32.5t6 34.5l62 310h77l-61 -300q-4 -19 -6 -31.5t-2 -25.5q0 -75 72 -75q29 0 64.5 21t79.5 67l69 344h76l-97 -486
q-50 -23 -80 -54t-30 -64q0 -17 10.5 -27t26.5 -10q19 0 37 12l16 -38q-16 -10 -37.5 -17.5t-38.5 -7.5z" />
    <glyph glyph-name="Wcircumflex" unicode="&#x174;" horiz-adv-x="756" 
d="M95 0l9 656h80l-10 -361q-3 -52 -4.5 -106t-5.5 -107h4q23 53 47 107t46 106l164 361h71l9 -361q1 -52 1 -105.5v-107.5h4q20 54 41.5 107.5t41.5 105.5l142 361h77l-270 -656h-99l-7 401q0 36 1 75.5t2 78.5h-4q-14 -39 -30.5 -77t-33.5 -77l-179 -401h-97zM359 699
l-33 28l124 111h87l84 -113l-39 -25l-90 93h-4z" />
    <glyph glyph-name="wcircumflex" unicode="&#x175;" horiz-adv-x="707" 
d="M105 0l-35 486h76l16 -286q1 -34 1.5 -68t1.5 -68h4q15 34 28.5 68t29.5 68l128 286h75l17 -286q2 -34 3 -68l2 -68h4q14 34 27 68t29 68l127 286h72l-221 -486h-95l-14 266q-1 35 -1.5 71t-1.5 72h-4q-15 -36 -29.5 -72t-29.5 -71l-118 -266h-92zM288 568l-31 34
l138 138h83l89 -141l-39 -31l-94 116h-4z" />
    <glyph glyph-name="Ycircumflex" unicode="&#x176;" horiz-adv-x="461" 
d="M139 0l51 256l-107 400h80l45 -189q9 -36 16.5 -70.5t16.5 -72.5h3q23 37 45 72.5t46 71.5l124 188h83l-274 -400l-52 -256h-77zM209 699l-33 28l124 111h87l84 -113l-39 -25l-90 93h-4z" />
    <glyph glyph-name="ycircumflex" unicode="&#x177;" horiz-adv-x="448" 
d="M-6 -209q-10 0 -26 3.5t-30 10.5l25 57q18 -9 36 -9q37 0 69.5 30.5t57.5 80.5l18 35l-83 487h76l38 -273q5 -33 9 -71.5t7 -73.5h4q17 35 35.5 73t36.5 72l140 273h76l-286 -527q-25 -47 -54.5 -85.5t-65.5 -60.5t-83 -22zM160 568l-31 34l138 138h83l89 -141l-39 -31
l-94 116h-4z" />
    <glyph glyph-name="Ydieresis" unicode="&#x178;" horiz-adv-x="461" 
d="M139 0l51 256l-107 400h80l45 -189q9 -36 16.5 -70.5t16.5 -72.5h3q23 37 45 72.5t46 71.5l124 188h83l-274 -400l-52 -256h-77zM235 715q-17 0 -28.5 10.5t-11.5 29.5q0 22 15 38.5t36 16.5q17 0 28.5 -10.5t11.5 -30.5q0 -21 -15 -37.5t-36 -16.5zM421 715
q-17 0 -28.5 10.5t-11.5 29.5q0 22 15 38.5t36 16.5q17 0 28 -10.5t11 -30.5q0 -21 -14.5 -37.5t-35.5 -16.5z" />
    <glyph glyph-name="Zacute" unicode="&#x179;" horiz-adv-x="512" 
d="M-1 0l10 47l425 544h-300l14 65h393l-10 -46l-422 -544h331l-15 -66h-426zM324 703l-30 44l165 116l37 -60z" />
    <glyph glyph-name="zacute" unicode="&#x17a;" horiz-adv-x="410" 
d="M-10 0l8 44l323 380h-221l13 62h317l-8 -45l-323 -379h254l-12 -62h-351zM261 579l-35 45l168 153l47 -60z" />
    <glyph glyph-name="Zdotaccent" unicode="&#x17b;" horiz-adv-x="512" 
d="M-1 0l10 47l425 544h-300l14 65h393l-10 -46l-422 -544h331l-15 -66h-426zM362 716q-19 0 -34 11.5t-15 33.5q0 24 17.5 41t40.5 17q20 0 34.5 -12t14.5 -34q0 -25 -17.5 -41t-40.5 -16z" />
    <glyph glyph-name="zdotaccent" unicode="&#x17c;" horiz-adv-x="410" 
d="M-10 0l8 44l323 380h-221l13 62h317l-8 -45l-323 -379h254l-12 -62h-351zM293 587q-19 0 -34 11.5t-15 33.5q0 25 17.5 41.5t40.5 16.5q20 0 34.5 -12t14.5 -34q0 -25 -17.5 -41t-40.5 -16z" />
    <glyph glyph-name="Zcaron" unicode="&#x17d;" horiz-adv-x="512" 
d="M-1 0l10 47l425 544h-300l14 65h393l-10 -46l-422 -544h331l-15 -66h-426zM316 706l-85 113l39 25l90 -93h4l130 94l33 -28l-125 -111h-86z" />
    <glyph glyph-name="zcaron" unicode="&#x17e;" horiz-adv-x="410" 
d="M-10 0l8 44l323 380h-221l13 62h317l-8 -45l-323 -379h254l-12 -62h-351zM247 575l-89 141l38 31l95 -116h4l141 116l31 -34l-138 -138h-82z" />
    <glyph glyph-name="uni0180" unicode="&#x180;" horiz-adv-x="519" 
d="M234 -12q-39 0 -69.5 20t-47.5 53h-3l-20 -61h-63l113 569h-70l9 47l72 4l18 92h77l-19 -92h175l-11 -51h-174l-14 -67l-22 -96h2q36 29 78 50.5t87 21.5q64 0 102 -43t38 -123q0 -68 -21 -127t-57.5 -103t-83 -69t-96.5 -25zM324 414q-34 0 -74.5 -21t-75.5 -58
l-42 -211q20 -38 45.5 -55t53.5 -17q36 0 69 20.5t58.5 55.5t40 79.5t14.5 93.5q0 56 -24 84.5t-65 28.5z" />
    <glyph glyph-name="uni018F" unicode="&#x18f;" horiz-adv-x="636" 
d="M278 -12q-68 0 -116 31.5t-73.5 87t-25.5 127.5q0 32 4.5 57t11.5 54h452q1 11 1.5 22.5t0.5 22.5q0 98 -34 157t-117 59q-46 0 -84.5 -19t-70.5 -47l-35 53q37 34 88 56.5t110 22.5q112 0 166 -74.5t54 -198.5q0 -90 -26 -165t-72 -130t-106 -85.5t-128 -30.5zM283 54
q56 0 104 29.5t83 81.5t51 121h-382q-15 -109 26.5 -170.5t117.5 -61.5z" />
    <glyph glyph-name="uni0192" unicode="&#x192;" horiz-adv-x="480" 
d="M31 -97q-21 0 -41 5t-38 17l25 56q11 -7 24 -11t27 -4q40 0 67.5 39t49.5 111l71 232h-85l12 55l67 3h23l23 74q26 88 71 139.5t114 51.5q21 0 42 -6t39 -16l-25 -58q-13 8 -27 12.5t-30 4.5q-26 0 -47 -19t-36.5 -48.5t-25.5 -62.5l-22 -72h119l-12 -58h-125l-79 -256
q-17 -54 -41 -97t-58 -67.5t-82 -24.5z" />
    <glyph glyph-name="uni0193" unicode="&#x193;" horiz-adv-x="588" 
d="M300 -12q-118 0 -180.5 72.5t-62.5 192.5q0 78 24 152t69.5 133.5t110 94.5t145.5 35q24 0 45.5 -4t39.5 -12l-2 22t0 22q5 51 41 80.5t86 24.5q19 -1 32.5 -7t23.5 -12l-25 -55q-7 4 -14 7.5t-18 4.5q-26 2 -43 -14.5t-19 -44.5q-1 -23 3.5 -45t14.5 -48l-55 -41
q-19 25 -46.5 40t-67.5 15q-62 0 -111 -30.5t-83.5 -80.5t-52.5 -110t-18 -120q0 -58 17.5 -105t55.5 -74t101 -27q36 0 64.5 12t47.5 28l37 181h-136l13 64h206l-57 -284q-36 -30 -83 -48.5t-103 -18.5z" />
    <glyph glyph-name="Ohorn" unicode="&#x1a0;" horiz-adv-x="633" 
d="M287 -12q-110 0 -168.5 75.5t-58.5 199.5q0 75 23 147t66 130.5t101.5 93t128.5 34.5q65 0 113 -28q48 5 74.5 30.5t26.5 64.5q0 9 -2 19.5t-7 21.5l63 22q11 -29 11 -57q0 -56 -34.5 -90t-87.5 -45q35 -36 52.5 -90t17.5 -122q0 -75 -23 -147.5t-66 -131t-101 -93
t-129 -34.5zM291 55q53 0 96.5 30t74.5 79t48 107.5t17 115.5q0 97 -37 155.5t-115 58.5q-53 0 -96.5 -29.5t-74.5 -78.5t-48 -107.5t-17 -116.5q0 -96 36.5 -155t115.5 -59z" />
    <glyph glyph-name="ohorn" unicode="&#x1a1;" horiz-adv-x="517" 
d="M212 -12q-79 0 -126 52t-47 143q0 69 22 126.5t59 100t84 65.5t97 23q51 0 91 -23q43 7 69 33.5t28 68.5q0 9 -2 21.5t-6 22.5l61 23q6 -15 8.5 -31t2.5 -30q0 -58 -36.5 -93.5t-85.5 -48.5q21 -25 32.5 -59.5t11.5 -78.5q0 -69 -22 -126.5t-59.5 -100t-84.5 -65.5
t-97 -23zM220 52q45 0 85.5 33t66 89t25.5 124q0 66 -27 101.5t-77 35.5q-45 0 -85.5 -33.5t-66 -89.5t-25.5 -124q0 -66 27 -101t77 -35z" />
    <glyph glyph-name="Uhorn" unicode="&#x1af;" horiz-adv-x="629" 
d="M286 -12q-100 0 -153.5 52.5t-53.5 154.5q0 21 3 44.5t7 48.5l74 368h78l-75 -375q-9 -45 -9 -79q0 -70 32 -108.5t101 -38.5q56 0 101 46t66 153l81 402h31q50 3 77.5 26t27.5 63q0 10 -1.5 20t-6.5 22l62 21q12 -31 12 -57q0 -57 -38.5 -89t-94.5 -41l-75 -370
q-28 -142 -93 -202.5t-153 -60.5z" />
    <glyph glyph-name="uhorn" unicode="&#x1b0;" horiz-adv-x="543" 
d="M171 -12q-61 0 -88 33t-27 88q0 17 2 32.5t6 34.5l62 310h77l-61 -300q-4 -19 -6 -31.5t-2 -25.5q0 -75 72 -75q29 0 64.5 21t79.5 67l69 344h27q36 4 63.5 30t28.5 71q2 21 -7 45l61 22q11 -31 11 -61q0 -40 -17 -69t-43.5 -46.5t-54.5 -25.5l-90 -452h-63l8 74h-4
q-40 -35 -82 -60.5t-86 -25.5z" />
    <glyph glyph-name="uni01C2" unicode="&#x1c2;" horiz-adv-x="296" 
d="M49 8l49 247h-117l9 48l78 5h41l22 111h-117l9 49l78 4h41l49 248h77l-50 -248h115l-11 -53h-114l-23 -111h116l-12 -53h-114l-50 -247h-76z" />
    <glyph glyph-name="uni01C3" unicode="&#x1c3;" horiz-adv-x="246" 
d="M90 196l67 383l22 133h78l-28 -133l-86 -383h-53zM78 -12q-22 0 -34.5 14t-12.5 36q0 26 19.5 48t47.5 22q22 0 34 -14.5t12 -36.5q0 -25 -18.5 -47t-47.5 -22z" />
    <glyph glyph-name="uni01CD" unicode="&#x1cd;" horiz-adv-x="510" 
d="M227 377l-58 -112h195l-10 112q-4 52 -9 105t-9 109h-4q-26 -57 -51.5 -108.5t-53.5 -105.5zM-53 0l356 656h90l76 -656h-81l-18 205h-232l-105 -205h-86zM319 706l-85 113l39 25l90 -93h4l130 94l33 -28l-125 -111h-86z" />
    <glyph glyph-name="uni01CE" unicode="&#x1ce;" horiz-adv-x="537" 
d="M179 -12q-64 0 -102 45.5t-38 130.5q0 70 22 130.5t59 106.5t84 71.5t98 25.5q39 0 69.5 -20t47.5 -53h4l19 61h62l-97 -486h-63l8 72h-4q-35 -37 -79 -60.5t-90 -23.5zM207 52q38 0 77.5 23t75.5 70l44 217q-21 38 -46 55t-53 17q-36 0 -69.5 -21t-60 -57.5t-42 -83
t-15.5 -96.5q0 -63 24.5 -93.5t64.5 -30.5zM288 575l-89 141l38 31l95 -116h4l141 116l31 -34l-138 -138h-82z" />
    <glyph glyph-name="uni01CF" unicode="&#x1cf;" horiz-adv-x="252" 
d="M35 0l131 656h78l-131 -656h-78zM181 706l-85 113l39 25l90 -93h4l130 94l33 -28l-125 -111h-86z" />
    <glyph glyph-name="uni01D0" unicode="&#x1d0;" horiz-adv-x="237" 
d="M31 0l97 486h77l-98 -486h-76zM146 575l-89 141l38 31l95 -116h4l141 116l31 -34l-138 -138h-82z" />
    <glyph glyph-name="uni01D1" unicode="&#x1d1;" horiz-adv-x="633" 
d="M287 -12q-110 0 -168.5 75.5t-58.5 199.5q0 75 23 147t66 130.5t101.5 93t128.5 34.5q74 0 124.5 -34t76.5 -95.5t26 -144.5q0 -75 -23 -147.5t-66 -131t-101 -93t-129 -34.5zM291 55q53 0 96.5 30t74.5 79t48 107.5t17 115.5q0 97 -37 155.5t-115 58.5
q-53 0 -96.5 -29.5t-74.5 -78.5t-48 -107.5t-17 -116.5q0 -96 36.5 -155t115.5 -59zM373 706l-85 113l39 25l90 -93h4l130 94l33 -28l-125 -111h-86z" />
    <glyph glyph-name="uni01D2" unicode="&#x1d2;" horiz-adv-x="515" 
d="M212 -12q-79 0 -126 52t-47 143q0 69 22 126.5t59 100t84 65.5t97 23q79 0 126.5 -52t47.5 -143q0 -69 -22 -126.5t-59.5 -100t-84.5 -65.5t-97 -23zM220 52q45 0 85.5 33t66 89t25.5 124q0 66 -27 101.5t-77 35.5q-45 0 -85.5 -33.5t-66 -89.5t-25.5 -124q0 -66 27 -101
t77 -35zM290 575l-89 141l38 31l95 -116h4l141 116l31 -34l-138 -138h-82z" />
    <glyph glyph-name="uni01D3" unicode="&#x1d3;" horiz-adv-x="616" 
d="M286 -12q-100 0 -153.5 52.5t-53.5 154.5q0 21 3 44.5t7 48.5l74 368h78l-75 -375q-9 -45 -9 -79q0 -70 32 -108.5t101 -38.5q56 0 101 46t66 153l81 402h76l-82 -405q-28 -142 -93 -202.5t-153 -60.5zM369 706l-85 113l39 25l90 -93h4l130 94l33 -28l-125 -111h-86z" />
    <glyph glyph-name="uni01D4" unicode="&#x1d4;" horiz-adv-x="528" 
d="M171 -12q-61 0 -88 33t-27 88q0 17 2 32.5t6 34.5l62 310h77l-61 -300q-4 -19 -6 -31.5t-2 -25.5q0 -75 72 -75q29 0 64.5 21t79.5 67l69 344h76l-97 -486h-63l8 74h-4q-40 -35 -82 -60.5t-86 -25.5zM284 575l-89 141l38 31l95 -116h4l141 116l31 -34l-138 -138h-82z" />
    <glyph glyph-name="uni01D5" unicode="&#x1d5;" horiz-adv-x="616" 
d="M286 -12q-100 0 -153.5 52.5t-53.5 154.5q0 21 3 44.5t7 48.5l74 368h78l-75 -375q-9 -45 -9 -79q0 -70 32 -108.5t101 -38.5q56 0 101 46t66 153l81 402h76l-82 -405q-28 -142 -93 -202.5t-153 -60.5zM321 715q-16 0 -26.5 10t-10.5 27q0 20 14 35.5t33 15.5
q17 0 27 -10t10 -28q0 -19 -13.5 -34.5t-33.5 -15.5zM505 715q-16 0 -26.5 10t-10.5 27q0 20 13.5 35.5t32.5 15.5q17 0 27 -10t10 -28q0 -19 -13.5 -34.5t-32.5 -15.5zM308 859l9 44h257l-10 -44h-256z" />
    <glyph glyph-name="uni01D6" unicode="&#x1d6;" horiz-adv-x="528" 
d="M171 -12q-61 0 -88 33t-27 88q0 17 2 32.5t6 34.5l62 310h77l-61 -300q-4 -19 -6 -31.5t-2 -25.5q0 -75 72 -75q29 0 64.5 21t79.5 67l69 344h76l-97 -486h-63l8 74h-4q-40 -35 -82 -60.5t-86 -25.5zM235 589q-16 0 -26 10t-10 26q0 22 14 37t33 15q37 0 37 -37
q0 -21 -14 -36t-34 -15zM420 589q-16 0 -26 10t-10 26q0 22 14 37t33 15q17 0 27 -10t10 -27q0 -21 -14 -36t-34 -15zM230 748l10 44h254l-10 -44h-254z" />
    <glyph glyph-name="uni01D7" unicode="&#x1d7;" horiz-adv-x="616" 
d="M286 -12q-100 0 -153.5 52.5t-53.5 154.5q0 21 3 44.5t7 48.5l74 368h78l-75 -375q-9 -45 -9 -79q0 -70 32 -108.5t101 -38.5q56 0 101 46t66 153l81 402h76l-82 -405q-28 -142 -93 -202.5t-153 -60.5zM309 715q-16 0 -26.5 10t-10.5 27q0 20 14 35.5t33 15.5
q17 0 27 -10t10 -28q0 -19 -13.5 -34.5t-33.5 -15.5zM493 715q-16 0 -26.5 10t-10.5 27q0 20 14 35.5t33 15.5q16 0 26.5 -10t10.5 -28q0 -19 -14 -34.5t-33 -15.5zM417 827l-33 29l116 109l46 -40z" />
    <glyph glyph-name="uni01D8" unicode="&#x1d8;" horiz-adv-x="528" 
d="M171 -12q-61 0 -88 33t-27 88q0 17 2 32.5t6 34.5l62 310h77l-61 -300q-4 -19 -6 -31.5t-2 -25.5q0 -75 72 -75q29 0 64.5 21t79.5 67l69 344h76l-97 -486h-63l8 74h-4q-40 -35 -82 -60.5t-86 -25.5zM351 708l-31 28l102 106l42 -38zM235 589q-16 0 -26 10t-10 26
q0 22 14 37t33 15q37 0 37 -37q0 -21 -14 -36t-34 -15zM420 589q-16 0 -26 10t-10 26q0 22 14 37t33 15q17 0 27 -10t10 -27q0 -21 -14 -36t-34 -15z" />
    <glyph glyph-name="uni01D9" unicode="&#x1d9;" horiz-adv-x="616" 
d="M286 -12q-100 0 -153.5 52.5t-53.5 154.5q0 21 3 44.5t7 48.5l74 368h78l-75 -375q-9 -45 -9 -79q0 -70 32 -108.5t101 -38.5q56 0 101 46t66 153l81 402h76l-82 -405q-28 -142 -93 -202.5t-153 -60.5zM321 715q-16 0 -26.5 10t-10.5 27q0 20 14 35.5t33 15.5
q17 0 27 -10t10 -28q0 -19 -13.5 -34.5t-33.5 -15.5zM505 715q-16 0 -26.5 10t-10.5 27q0 20 13.5 35.5t32.5 15.5q17 0 27 -10t10 -28q0 -19 -13.5 -34.5t-32.5 -15.5zM397 839l-77 91l38 25l78 -70h4l108 70l31 -26l-110 -90h-72z" />
    <glyph glyph-name="uni01DA" unicode="&#x1da;" horiz-adv-x="528" 
d="M171 -12q-61 0 -88 33t-27 88q0 17 2 32.5t6 34.5l62 310h77l-61 -300q-4 -19 -6 -31.5t-2 -25.5q0 -75 72 -75q29 0 64.5 21t79.5 67l69 344h76l-97 -486h-63l8 74h-4q-40 -35 -82 -60.5t-86 -25.5zM317 720l-85 93l33 29l89 -74h4l118 74l24 -30l-116 -92h-67zM235 589
q-16 0 -26 10t-10 26q0 22 14 37t33 15q37 0 37 -37q0 -21 -14 -36t-34 -15zM420 589q-16 0 -26 10t-10 26q0 22 14 37t33 15q17 0 27 -10t10 -27q0 -21 -14 -36t-34 -15z" />
    <glyph glyph-name="uni01DB" unicode="&#x1db;" horiz-adv-x="616" 
d="M286 -12q-100 0 -153.5 52.5t-53.5 154.5q0 21 3 44.5t7 48.5l74 368h78l-75 -375q-9 -45 -9 -79q0 -70 32 -108.5t101 -38.5q56 0 101 46t66 153l81 402h76l-82 -405q-28 -142 -93 -202.5t-153 -60.5zM309 715q-16 0 -26.5 10t-10.5 27q0 20 14 35.5t33 15.5
q17 0 27 -10t10 -28q0 -19 -13.5 -34.5t-33.5 -15.5zM493 715q-16 0 -26.5 10t-10.5 27q0 20 14 35.5t33 15.5q16 0 26.5 -10t10.5 -28q0 -19 -14 -34.5t-33 -15.5zM419 821l-91 117l57 31l73 -127z" />
    <glyph glyph-name="uni01DC" unicode="&#x1dc;" horiz-adv-x="528" 
d="M171 -12q-61 0 -88 33t-27 88q0 17 2 32.5t6 34.5l62 310h77l-61 -300q-4 -19 -6 -31.5t-2 -25.5q0 -75 72 -75q29 0 64.5 21t79.5 67l69 344h76l-97 -486h-63l8 74h-4q-40 -35 -82 -60.5t-86 -25.5zM235 589q-16 0 -26 10t-10 26q0 22 14 37t33 15q37 0 37 -37
q0 -21 -14 -36t-34 -15zM420 589q-16 0 -26 10t-10 26q0 22 14 37t33 15q17 0 27 -10t10 -27q0 -21 -14 -36t-34 -15zM349 702l-78 113l51 30l64 -122z" />
    <glyph glyph-name="uni01E2" unicode="&#x1e2;" horiz-adv-x="803" 
d="M313 380l-84 -124h168l68 341h-3q-37 -55 -74 -108.5t-75 -108.5zM-33 0l459 656h402l-14 -65h-273l-42 -213h229l-13 -66h-228l-51 -246h282l-13 -66h-359l39 194h-198l-131 -194h-89zM504 733l11 54h256l-11 -54h-256z" />
    <glyph glyph-name="uni01E3" unicode="&#x1e3;" horiz-adv-x="761" 
d="M157 -12q-51 0 -88 30.5t-37 87.5q0 69 41 111t112.5 61.5t164.5 22.5q3 14 4 24t1 20q0 44 -19.5 67.5t-64.5 23.5q-31 0 -66 -12t-70 -32l-21 56q38 21 83.5 35.5t89.5 14.5q50 0 82.5 -23.5t40.5 -71.5q34 44 77.5 69.5t89.5 25.5q55 0 88 -23t48 -63t15 -90
q0 -28 -6 -53.5t-11 -39.5h-304q-13 -83 21.5 -131.5t97.5 -48.5q29 0 58 12.5t51 29.5l30 -51q-28 -21 -67.5 -36.5t-86.5 -15.5q-52 0 -94 28t-59 68q-48 -45 -97.5 -70.5t-103.5 -25.5zM185 49q31 0 71.5 21.5t81.5 64.5q-4 32 -3.5 57.5t5.5 57.5q-109 -3 -171 -35
t-62 -93q0 -35 22 -54t56 -19zM415 281h242q2 12 3.5 23.5t1.5 24.5q0 28 -9 52.5t-29.5 40t-55.5 15.5q-30 0 -61 -19.5t-55.5 -54.5t-36.5 -82zM328 614l10 54h254l-9 -54h-255z" />
    <glyph glyph-name="Gcaron" unicode="&#x1e6;" horiz-adv-x="588" 
d="M300 -12q-118 0 -180.5 72.5t-62.5 192.5q0 78 24 152t69.5 133.5t110 94.5t145.5 35q59 0 99.5 -27.5t65.5 -69.5l-55 -41q-19 32 -46.5 51.5t-67.5 19.5q-62 0 -111 -30.5t-83.5 -80.5t-52.5 -110t-18 -120q0 -58 17.5 -105t55.5 -74t101 -27q36 0 64.5 12t47.5 28
l37 181h-136l13 64h206l-57 -284q-36 -30 -83 -48.5t-103 -18.5zM373 706l-85 113l39 25l90 -93h4l130 94l33 -28l-125 -111h-86z" />
    <glyph glyph-name="gcaron" unicode="&#x1e7;" horiz-adv-x="531" 
d="M171 -220q-49 0 -92 19t-78 48l36 53q28 -23 62.5 -40t74.5 -17q62 0 99 38t51 102l25 104q-38 -38 -80 -60t-89 -22q-61 0 -101 43t-40 128q0 67 21.5 125t58 102.5t82.5 69.5t95 25q38 0 69 -20t48 -53h3l19 61h63l-102 -509q-19 -95 -76.5 -146t-148.5 -51zM205 69
q35 0 75.5 21.5t74.5 63.5l43 208q-22 38 -46.5 55t-52.5 17q-35 0 -67.5 -20.5t-58 -55.5t-40.5 -79t-15 -92q0 -59 23.5 -88.5t63.5 -29.5zM283 575l-89 141l38 31l95 -116h4l141 116l31 -34l-138 -138h-82z" />
    <glyph glyph-name="uni01EA" unicode="&#x1ea;" horiz-adv-x="633" 
d="M253 -211q-34 0 -55.5 17.5t-21.5 51.5q0 38 25 73t58 58q-97 10 -148 84t-51 190q0 75 23 147t66 130.5t101.5 93t128.5 34.5q74 0 124.5 -34t76.5 -95.5t26 -144.5q0 -66 -17.5 -129.5t-50.5 -118.5t-80 -94.5t-107 -56.5q-59 -16 -85 -51t-26 -63q0 -18 10.5 -28
t26.5 -10q19 0 35 11l17 -42q-36 -23 -76 -23zM291 55q53 0 96.5 30t74.5 79t48 107.5t17 115.5q0 97 -37 155.5t-115 58.5q-53 0 -96.5 -29.5t-74.5 -78.5t-48 -107.5t-17 -116.5q0 -96 36.5 -155t115.5 -59z" />
    <glyph glyph-name="uni01EB" unicode="&#x1eb;" horiz-adv-x="515" 
d="M171 -206q-33 0 -54 17t-21 50q0 38 26 73t61 56q-66 10 -105 60.5t-39 132.5q0 69 22 126.5t59 100t84 65.5t97 23q77 0 125.5 -51t48.5 -144q0 -72 -25 -134.5t-72 -108t-112 -66.5q-62 -20 -85.5 -52t-23.5 -60q0 -17 10.5 -27t25.5 -10q19 0 38 12l16 -38
q-17 -10 -38 -17.5t-38 -7.5zM220 52q45 0 85.5 33t66 89t25.5 124q0 66 -27 101.5t-77 35.5q-45 0 -85.5 -33.5t-66 -89.5t-25.5 -124q0 -66 27 -101t77 -35z" />
    <glyph glyph-name="uni01F4" unicode="&#x1f4;" horiz-adv-x="588" 
d="M300 -12q-118 0 -180.5 72.5t-62.5 192.5q0 78 24 152t69.5 133.5t110 94.5t145.5 35q59 0 99.5 -27.5t65.5 -69.5l-55 -41q-19 32 -46.5 51.5t-67.5 19.5q-62 0 -111 -30.5t-83.5 -80.5t-52.5 -110t-18 -120q0 -58 17.5 -105t55.5 -74t101 -27q36 0 64.5 12t47.5 28
l37 181h-136l13 64h206l-57 -284q-36 -30 -83 -48.5t-103 -18.5zM381 703l-30 44l165 116l37 -60z" />
    <glyph glyph-name="uni01F5" unicode="&#x1f5;" horiz-adv-x="531" 
d="M171 -220q-49 0 -92 19t-78 48l36 53q28 -23 62.5 -40t74.5 -17q62 0 99 38t51 102l25 104q-38 -38 -80 -60t-89 -22q-61 0 -101 43t-40 128q0 67 21.5 125t58 102.5t82.5 69.5t95 25q38 0 69 -20t48 -53h3l19 61h63l-102 -509q-19 -95 -76.5 -146t-148.5 -51zM205 69
q35 0 75.5 21.5t74.5 63.5l43 208q-22 38 -46.5 55t-52.5 17q-35 0 -67.5 -20.5t-58 -55.5t-40.5 -79t-15 -92q0 -59 23.5 -88.5t63.5 -29.5zM297 579l-35 45l168 153l47 -60z" />
    <glyph glyph-name="uni01F8" unicode="&#x1f8;" horiz-adv-x="619" 
d="M35 0l131 656h78l150 -420l42 -137h4q6 49 13 103.5t17 105.5l69 348h75l-131 -656h-77l-148 419l-43 141h-4q-6 -51 -13.5 -104t-17.5 -103l-70 -353h-75zM424 693l-134 127l55 50l122 -140z" />
    <glyph glyph-name="uni01F9" unicode="&#x1f9;" horiz-adv-x="525" 
d="M31 0l97 486h63l-7 -73h4q41 36 82 60.5t87 24.5q62 0 88.5 -32.5t26.5 -88.5q0 -31 -8 -67l-62 -310h-76l60 300q4 20 6 32t2 25q0 75 -72 75q-28 0 -64 -21t-82 -67l-69 -344h-76zM381 570l-132 164l66 49l114 -177z" />
    <glyph glyph-name="uni01FC" unicode="&#x1fc;" horiz-adv-x="803" 
d="M313 380l-84 -124h168l68 341h-3q-37 -55 -74 -108.5t-75 -108.5zM-33 0l459 656h402l-14 -65h-273l-42 -213h229l-13 -66h-228l-51 -246h282l-13 -66h-359l39 194h-198l-131 -194h-89zM597 707l-30 44l165 116l37 -60z" />
    <glyph glyph-name="uni01FD" unicode="&#x1fd;" horiz-adv-x="761" 
d="M157 -12q-51 0 -88 30.5t-37 87.5q0 69 41 111t112.5 61.5t164.5 22.5q3 14 4 24t1 20q0 44 -19.5 67.5t-64.5 23.5q-31 0 -66 -12t-70 -32l-21 56q38 21 83.5 35.5t89.5 14.5q50 0 82.5 -23.5t40.5 -71.5q34 44 77.5 69.5t89.5 25.5q55 0 88 -23t48 -63t15 -90
q0 -28 -6 -53.5t-11 -39.5h-304q-13 -83 21.5 -131.5t97.5 -48.5q29 0 58 12.5t51 29.5l30 -51q-28 -21 -67.5 -36.5t-86.5 -15.5q-52 0 -94 28t-59 68q-48 -45 -97.5 -70.5t-103.5 -25.5zM185 49q31 0 71.5 21.5t81.5 64.5q-4 32 -3.5 57.5t5.5 57.5q-109 -3 -171 -35
t-62 -93q0 -35 22 -54t56 -19zM415 281h242q2 12 3.5 23.5t1.5 24.5q0 28 -9 52.5t-29.5 40t-55.5 15.5q-30 0 -61 -19.5t-55.5 -54.5t-36.5 -82zM425 592l-35 45l168 153l47 -60z" />
    <glyph glyph-name="uni0218" unicode="&#x218;" horiz-adv-x="506" 
d="M231 -12q-67 0 -123 29t-96 87l57 43q29 -43 71.5 -68t97.5 -25q60 0 100.5 34t40.5 90q0 36 -22.5 61t-59.5 47l-76 46q-42 26 -71.5 62.5t-29.5 91.5q0 50 26.5 91t72.5 66t105 25t107 -26t79 -66l-51 -46q-25 30 -60 50.5t-81 20.5q-37 0 -63.5 -15.5t-41 -39.5
t-14.5 -51q0 -38 24.5 -61.5t60.5 -45.5l76 -45q47 -28 73 -63.5t26 -90.5q0 -58 -29.5 -103.5t-80.5 -71.5t-118 -26zM91 -229l-1 39q60 2 88.5 16.5t28.5 36.5q0 17 -14.5 27.5t-48.5 11.5l23 37q65 -5 85 -22t20 -44q0 -49 -50.5 -74.5t-130.5 -27.5z" />
    <glyph glyph-name="uni0219" unicode="&#x219;" horiz-adv-x="402" 
d="M163 -12q-49 0 -95.5 26t-71.5 66l48 38q23 -31 55 -51t70 -20q42 0 72.5 23t30.5 58q0 26 -20.5 45.5t-76.5 50.5q-46 26 -74.5 57t-28.5 72q0 43 22 75.5t58.5 51t80.5 18.5q46 0 83 -18t65 -48l-46 -40q-19 20 -44.5 33t-58.5 13q-38 0 -62.5 -22.5t-24.5 -53.5
q0 -30 27 -49t59 -37q62 -34 88 -64t26 -74q0 -45 -24 -79t-65 -52.5t-93 -18.5zM37 -221l-1 39q60 2 88.5 16.5t28.5 36.5q0 17 -14.5 27.5t-48.5 11.5l23 37q65 -5 85 -22t20 -44q0 -49 -50.5 -74.5t-130.5 -27.5z" />
    <glyph glyph-name="uni021A" unicode="&#x21a;" horiz-adv-x="510" 
d="M166 0l117 589h-190l13 67h459l-13 -67h-191l-117 -589h-78zM81 -221l-1 39q60 2 88.5 16.5t28.5 36.5q0 17 -14.5 27.5t-48.5 11.5l23 37q65 -5 85 -22t20 -44q0 -49 -50.5 -74.5t-130.5 -27.5z" />
    <glyph glyph-name="uni021B" unicode="&#x21b;" horiz-adv-x="325" 
d="M185 -12q-64 0 -90 31.5t-26 76.5q0 15 2 28t3 26l57 274h-71l11 57l76 5l36 134h65l-27 -134h123l-12 -62h-125l-57 -278q-3 -18 -3 -36q0 -30 14 -45t48 -15q14 0 27 5t24 10l17 -55q-16 -7 -39.5 -14.5t-52.5 -7.5zM33 -221l-1 39q60 2 88.5 16.5t28.5 36.5
q0 17 -14.5 27.5t-48.5 11.5l23 37q65 -5 85 -22t20 -44q0 -49 -50.5 -74.5t-130.5 -27.5z" />
    <glyph glyph-name="uni0237" unicode="&#x237;" horiz-adv-x="238" 
d="M-49 -217q-23 0 -40.5 5t-34.5 14l25 57q10 -6 20 -9.5t26 -3.5q28 0 44.5 24.5t26.5 67.5l111 548h77l-111 -547q-14 -70 -47.5 -113t-96.5 -43z" />
    <glyph glyph-name="uni0243" unicode="&#x243;" horiz-adv-x="605" 
d="M53 0l35 175h-78l11 48l77 4l86 429h175q95 0 149 -36t54 -105q0 -43 -21.5 -76.5t-55 -55t-69.5 -29.5l-1 -4q51 -12 86 -45.5t35 -91.5q0 -74 -35.5 -121t-97.5 -69.5t-140 -22.5h-210zM141 58h115q92 0 148 37t56 118q0 50 -38.5 81.5t-110.5 31.5h-115l-20 -99h149
l-10 -52h-150zM206 379h93q93 0 138.5 34.5t45.5 89.5q0 46 -34.5 70.5t-108.5 24.5h-90z" />
    <glyph glyph-name="uni0250" unicode="&#x250;" horiz-adv-x="489" 
d="M218 -12q-73 0 -113.5 34.5t-40.5 111.5q0 14 2 31t5 33l57 288h63l-5 -63h3q35 30 80.5 52.5t91.5 22.5q47 0 77.5 -27t30.5 -77q0 -93 -84.5 -147t-239.5 -67q-3 -13 -4 -22t-1 -19q0 -47 22 -68t71 -21q35 0 71 13.5t74 34.5l24 -52q-43 -25 -90.5 -41.5t-93.5 -16.5z
M154 235q111 8 175.5 42t64.5 93q0 32 -19.5 49.5t-47.5 17.5q-34 0 -71 -18.5t-76 -52.5z" />
    <glyph glyph-name="uni0251" unicode="&#x251;" horiz-adv-x="539" 
d="M179 -12q-64 0 -102 45.5t-38 130.5q0 70 22 130.5t59 106.5t84 71.5t98 25.5q39 0 69.5 -20t47.5 -53h4l19 61h62l-80 -400q-1 -7 -1.5 -11.5t-0.5 -7.5q0 -15 15 -15q2 0 5 0.5t10 2.5l1 -59q-11 -4 -22.5 -6t-25.5 -2q-22 0 -38 11t-20 39q0 5 1 12t4 22h-4
q-35 -37 -79 -60.5t-90 -23.5zM207 52q38 0 77.5 23t75.5 70l44 217q-21 38 -46 55t-53 17q-36 0 -69.5 -21t-60 -57.5t-42 -83t-15.5 -96.5q0 -63 24.5 -93.5t64.5 -30.5z" />
    <glyph glyph-name="uni0252" unicode="&#x252;" horiz-adv-x="539" 
d="M238 -12q-39 0 -69 20t-47 53h-3l-20 -61h-64l81 401q2 7 2 11v7q0 16 -15 16q-2 0 -5 -0.5t-10 -3.5l-1 59q11 4 23 6t25 2q23 0 38.5 -11t19.5 -39q0 -4 -1 -10.5t-4 -18.5h3q38 33 81 56t89 23q64 0 102 -45t38 -131q0 -70 -22 -130.5t-59 -106.5t-84 -71.5t-98 -25.5
zM235 52q36 0 69.5 21t60 57.5t42 83t15.5 97.5q0 62 -24 92.5t-65 30.5q-34 0 -74.5 -21t-75.5 -59l-47 -230q21 -38 46 -55t53 -17z" />
    <glyph glyph-name="uni0253" unicode="&#x253;" horiz-adv-x="536" 
d="M234 -12q-39 0 -69.5 20t-47.5 53h-3l-20 -61h-63l113 565q15 77 56 118t109 41q30 0 53 -7t43 -20l-27 -55q-13 9 -29 14.5t-35 5.5q-37 0 -60 -24t-33 -68l-11 -55l-23 -96h2q37 29 78.5 50.5t86.5 21.5q65 0 102.5 -44.5t37.5 -128.5q0 -69 -21.5 -129t-58.5 -105
t-83.5 -70.5t-96.5 -25.5zM231 52q36 0 69.5 21t59.5 57t41 81.5t15 95.5q0 60 -24 89.5t-65 29.5q-34 0 -75 -20.5t-75 -57.5l-45 -224q20 -38 45.5 -55t53.5 -17z" />
    <glyph glyph-name="uni0254" unicode="&#x254;" horiz-adv-x="439" 
d="M125 -12q-48 0 -84 18t-58 45l43 50q18 -21 44 -35t58 -14q53 0 97 30.5t70.5 84.5t26.5 124q0 66 -30 105t-78 39q-33 0 -59.5 -11.5t-53.5 -34.5l-33 48q32 27 71.5 44t91.5 17q73 0 121 -51.5t48 -146.5q0 -72 -23 -129.5t-62 -98t-88 -62.5t-102 -22z" />
    <glyph glyph-name="uni0255" unicode="&#x255;" horiz-adv-x="449" 
d="M290 152q-28 0 -63.5 -20t-71.5 -55q30 -25 81 -25q38 0 65.5 16.5t31.5 40.5q2 16 -7.5 29.5t-35.5 13.5zM49 -69l-48 20q17 30 35 56.5t37 50.5q-17 24 -26.5 55.5t-9.5 69.5q0 68 22 125.5t60.5 100t87 66t101.5 23.5q44 0 74 -17t52 -42l-45 -48q-19 23 -38 33.5
t-48 10.5q-48 0 -91 -34t-70 -90t-27 -123q0 -39 11 -69q45 44 91 68t89 24q48 0 72.5 -26t20.5 -66q-3 -36 -27 -65.5t-63.5 -47.5t-87.5 -18q-68 0 -114 35q-16 -21 -30.5 -43.5t-27.5 -48.5z" />
    <glyph glyph-name="uni0256" unicode="&#x256;" horiz-adv-x="537" 
d="M399 -217q-83 0 -83 84q0 16 2.5 36.5t10.5 59.5t23 110h-2q-37 -38 -81 -61.5t-90 -23.5q-64 0 -102 45.5t-38 130.5q0 70 22 130.5t59 106.5t84 71.5t98 25.5q39 0 68 -19.5t47 -51.5h3l16 95l38 190h77l-157 -784q-5 -21 -5 -41q0 -41 33 -41q11 0 20 3t16 6l13 -57
q-12 -5 -32 -10t-40 -5zM207 52q38 0 77 23t76 70l44 217q-21 38 -46 55t-53 17q-36 0 -69.5 -21t-60 -57.5t-42 -83t-15.5 -96.5q0 -63 24.5 -93.5t64.5 -30.5z" />
    <glyph glyph-name="uni0257" unicode="&#x257;" horiz-adv-x="537" 
d="M179 -12q-64 0 -102 45.5t-38 130.5q0 70 22 130.5t59 106.5t84 71.5t98 25.5q39 0 68 -19.5t47 -51.5h3l17 92l13 61q14 71 50 107.5t99 36.5q15 0 28.5 -3.5t22.5 -8.5l-24 -57q-5 2 -13 4.5t-17 2.5q-28 0 -45.5 -20t-28.5 -70l-115 -572h-63l8 72h-4
q-35 -37 -79 -60.5t-90 -23.5zM207 52q38 0 77 23t76 70l44 217q-21 38 -46 55t-53 17q-36 0 -69.5 -21t-60 -57.5t-42 -83t-15.5 -96.5q0 -63 24.5 -93.5t64.5 -30.5z" />
    <glyph glyph-name="uni0258" unicode="&#x258;" horiz-adv-x="481" 
d="M175 -12q-50 0 -89 14.5t-67 38.5l35 48q24 -19 54.5 -29.5t65.5 -10.5q45 0 83 24t65 65t40 91h-320q3 74 33.5 135t83 97.5t120.5 36.5q73 0 120.5 -49t47.5 -141q0 -64 -20 -121.5t-56.5 -102.5t-86.5 -70.5t-109 -25.5zM116 281h257q2 9 2 15v13q0 60 -27 94t-77 34
q-40 0 -73 -22.5t-54.5 -58t-27.5 -75.5z" />
    <glyph glyph-name="uni0259" unicode="&#x259;" horiz-adv-x="481" 
d="M181 -12q-55 0 -88 23t-48 63t-15 90q0 28 6 54.5t13 46.5h316q9 81 -22 127t-90 46q-30 0 -59 -10.5t-55 -25.5l-24 53q34 17 71 30t83 13q77 0 124 -52t47 -151q0 -69 -22.5 -125t-60 -97t-83.5 -63t-93 -22zM190 49q53 0 100.5 43t66.5 121h-255q-3 -13 -4.5 -27.5
t-1.5 -28.5q0 -27 8.5 -52t29 -40.5t56.5 -15.5z" />
    <glyph glyph-name="uni025A" unicode="&#x25a;" horiz-adv-x="644" 
d="M186 -12q-60 0 -97.5 25.5t-55.5 69t-18 98.5q0 4 0.5 8.5t0.5 7.5l348 127q-6 58 -38.5 85t-78.5 27q-36 0 -66 -11t-59 -28l-25 54q37 20 75 33.5t89 13.5q68 0 115.5 -37t58.5 -111l148 54q-11 -39 -16 -66t-5 -46q0 -27 10 -36.5t27 -9.5q13 0 22.5 4t17.5 10l14 -43
q-13 -8 -31.5 -15.5t-41.5 -7.5q-27 0 -48 17t-21 55q0 14 2 29t7 32l-82 -30q-1 -65 -22.5 -121.5t-56.5 -98.5t-80 -65.5t-93 -23.5zM82 167q0 -54 28 -86t83 -32q40 0 77 28t62.5 78t31.5 115z" />
    <glyph glyph-name="uni025B" unicode="&#x25b;" horiz-adv-x="417" 
d="M189 -12q-73 0 -120.5 31.5t-47.5 89.5q0 64 41.5 101t98.5 50v3q-28 9 -48 32t-20 56q0 65 51.5 106t139.5 41q43 0 78 -13t63 -36l-38 -49q-25 18 -51 27.5t-58 9.5q-50 0 -80 -23.5t-30 -62.5q0 -31 24 -50.5t76 -19.5h54l-11 -52h-68q-67 0 -105.5 -27.5t-38.5 -74.5
q0 -37 29 -57.5t77 -20.5q36 0 67.5 9.5t70.5 33.5l22 -50q-48 -30 -88.5 -42t-87.5 -12z" />
    <glyph glyph-name="uni025C" unicode="&#x25c;" horiz-adv-x="417" 
d="M157 -12q-49 0 -86 12t-72 42l33 50q29 -24 59.5 -33.5t67.5 -9.5q60 0 101 29.5t41 75.5q0 75 -115 75h-63l11 52h53q67 0 100 27.5t33 64.5q0 32 -24 48t-59 16q-32 0 -61 -10t-60 -29l-25 52q38 23 78.5 35.5t85.5 12.5q57 0 98.5 -26.5t41.5 -80.5q0 -49 -31 -83
t-74 -49v-2q36 -10 61.5 -33.5t25.5 -64.5q0 -50 -30 -88.5t-80 -60.5t-110 -22z" />
    <glyph glyph-name="uni025E" unicode="&#x25e;" horiz-adv-x="496" 
d="M236 -12q-94 0 -145.5 52t-51.5 143q0 69 22.5 126.5t62.5 100t92.5 65.5t111.5 23q60 0 103 -26.5t43 -80.5q0 -49 -31 -83t-74 -49v-2q35 -10 60.5 -33.5t25.5 -64.5q0 -50 -30 -89t-80 -60.5t-109 -21.5zM245 49q58 0 96.5 29.5t38.5 75.5q0 36 -30 55.5t-86 19.5h-22
l10 52h14q66 0 99.5 27.5t33.5 64.5q0 32 -24 48t-59 16q-55 0 -100.5 -33.5t-72.5 -90t-27 -125.5q0 -67 32.5 -103t96.5 -36z" />
    <glyph glyph-name="uni025F" unicode="&#x25f;" horiz-adv-x="265" 
d="M-38 -217q-23 0 -40.5 5t-34.5 14l25 57q10 -6 20 -9.5t26 -3.5q28 0 44.5 24.5t26.5 67.5l59 291h-90l9 47l91 5l42 205h77l-42 -205h89l-10 -52h-89l-59 -290q-14 -70 -47.5 -113t-96.5 -43z" />
    <glyph glyph-name="uni0260" unicode="&#x260;" horiz-adv-x="536" 
d="M171 -220q-49 0 -92 19t-78 48l36 53q28 -23 62.5 -40t74.5 -17q62 0 99 38t51 102l25 104q-38 -38 -80 -60t-89 -22q-61 0 -101 43t-40 128q0 67 21.5 125t58 102.5t82.5 69.5t95 25q38 0 67.5 -19.5t47.5 -51.5h3l19 95q14 69 50 107.5t99 38.5q14 0 27.5 -3.5
t23.5 -8.5l-24 -58q-5 2 -13.5 4t-16.5 2q-30 0 -48 -23t-26 -66l-109 -538q-19 -95 -76.5 -146t-148.5 -51zM205 69q35 0 75.5 21.5t74.5 63.5l43 208q-22 38 -46.5 55t-52.5 17q-35 0 -67.5 -20.5t-58 -55.5t-40.5 -79t-15 -92q0 -59 23.5 -88.5t63.5 -29.5z" />
    <glyph glyph-name="uni0261" unicode="&#x261;" horiz-adv-x="531" 
d="M171 -220q-49 0 -92 19t-78 48l36 53q28 -23 62.5 -40t74.5 -17q62 0 99 38t51 102l25 104q-38 -38 -80 -60t-89 -22q-61 0 -101 43t-40 128q0 67 21.5 125t58 102.5t82.5 69.5t95 25q38 0 69 -20t48 -53h3l19 61h63l-102 -509q-19 -95 -76.5 -146t-148.5 -51zM205 69
q35 0 75.5 21.5t74.5 63.5l43 208q-22 38 -46.5 55t-52.5 17q-35 0 -67.5 -20.5t-58 -55.5t-40.5 -79t-15 -92q0 -59 23.5 -88.5t63.5 -29.5z" />
    <glyph glyph-name="uni0262" unicode="&#x262;" horiz-adv-x="491" 
d="M228 -12q-82 0 -135.5 50t-53.5 146q0 66 22.5 123.5t62 100t91.5 66.5t112 24q56 0 89.5 -17.5t54.5 -40.5l-44 -48q-18 20 -42 32.5t-62 12.5q-57 0 -103.5 -33.5t-74.5 -90t-28 -124.5q0 -66 33 -103t93 -37q28 0 53 8.5t43 21.5l27 128h-110l11 52h175l-42 -212
q-31 -25 -75.5 -42t-96.5 -17z" />
    <glyph glyph-name="uni0263" unicode="&#x263;" horiz-adv-x="448" 
d="M125 -224q-40 0 -63.5 22.5t-23.5 62.5q0 43 25 90.5t70 106.5l-74 428h76l38 -254q5 -37 9 -71.5t8 -71.5h4q19 38 36.5 72.5t36.5 70.5l137 254h77l-248 -437q13 -46 16.5 -73.5t3.5 -50.5q0 -62 -34 -105.5t-94 -43.5zM135 -168q28 0 40.5 25t12.5 62q0 23 -2 47
t-8 49h-4q-30 -40 -50.5 -78.5t-20.5 -68.5q0 -17 9.5 -26.5t22.5 -9.5z" />
    <glyph glyph-name="uni0264" unicode="&#x264;" horiz-adv-x="502" 
d="M209 -12q-62 0 -100.5 33.5t-38.5 93.5q0 69 46 133t119 122q-25 30 -49 47.5t-51 17.5q-13 0 -24 -4.5t-21 -10.5l-22 58q32 20 76 20q42 0 77.5 -24.5t66.5 -62.5q44 39 86.5 63t81.5 24q44 0 70 -21l-32 -56q-20 14 -46 14q-28 0 -57 -19t-64 -50q33 -42 57 -87
t24 -95t-23.5 -95t-67.5 -73t-108 -28zM218 49q36 0 62 18.5t40 48t14 63.5q0 44 -18.5 80.5t-42.5 67.5q-55 -45 -92 -99.5t-37 -102.5q0 -33 18 -54.5t56 -21.5z" />
    <glyph glyph-name="uni0265" unicode="&#x265;" horiz-adv-x="530" 
d="M282 -205l44 214l17 61h-4q-42 -35 -83 -58.5t-85 -23.5q-61 0 -88 33t-27 88q0 17 2 32.5t6 34.5l62 310h77l-61 -300q-4 -19 -6 -31.5t-2 -25.5q0 -75 72 -75q29 0 65 21t82 67l68 344h76l-138 -691h-77z" />
    <glyph glyph-name="uni0266" unicode="&#x266;" horiz-adv-x="519" 
d="M31 0l113 565q15 77 56 118t109 41q30 0 53 -7t43 -20l-27 -55q-13 9 -29 14.5t-35 5.5q-37 0 -60 -24t-33 -68l-19 -94l-18 -68h4q41 36 82 59.5t85 23.5q62 0 89 -32.5t27 -88.5q0 -18 -2 -32.5t-6 -34.5l-61 -303h-76l59 293q4 19 6 31t2 25q0 75 -73 75
q-28 0 -64 -21t-82 -66l-67 -337h-76z" />
    <glyph glyph-name="uni0267" unicode="&#x267;" horiz-adv-x="519" 
d="M246 -217q-23 0 -40.5 5t-34.5 14l25 57q10 -6 20 -9.5t26 -3.5q28 0 45 24.5t26 67.5l72 355q4 19 6 31t2 25q0 75 -73 75q-28 0 -64 -21t-82 -66l-67 -337h-76l114 567q15 75 56 116t108 41q30 0 53 -7t43 -20l-27 -55q-13 9 -29 14.5t-35 5.5q-37 0 -60 -25.5
t-32 -63.5l-20 -97l-18 -68h4q41 36 82 59.5t85 23.5q62 0 89 -32.5t27 -88.5q0 -18 -2 -32.5t-6 -34.5l-73 -364q-14 -70 -48 -113t-96 -43z" />
    <glyph glyph-name="uni0268" unicode="&#x268;" horiz-adv-x="270" 
d="M43 0l46 229h-91l9 47l92 5l41 205h77l-41 -205h88l-10 -52h-89l-46 -229h-76zM201 616q-19 0 -34 11.5t-15 33.5q0 25 17.5 41.5t40.5 16.5q20 0 34.5 -12t14.5 -34q0 -25 -17.5 -41t-40.5 -16z" />
    <glyph glyph-name="uni0269" unicode="&#x269;" horiz-adv-x="248" 
d="M109 -12q-65 0 -65 63q0 17 6 42l79 393h77l-81 -397q-1 -7 -1.5 -11.5t-0.5 -7.5q0 -18 17 -18q3 0 6 0.5t10 2.5l1 -59q-10 -4 -21 -6t-27 -2z" />
    <glyph glyph-name="uni026A" unicode="&#x26a;" horiz-adv-x="330" 
d="M-1 0l14 62h78l73 362h-80l13 62h237l-12 -62h-81l-73 -362h81l-13 -62h-237z" />
    <glyph glyph-name="uni026B" unicode="&#x26b;" horiz-adv-x="374" 
d="M181 -12q-65 0 -65 63q0 17 6 42l123 619h77l-125 -623q-1 -7 -1.5 -11.5t-0.5 -7.5q0 -18 17 -18q3 0 6 0.5t10 2.5l1 -59q-10 -4 -21 -6t-27 -2zM296 313q-31 0 -53 13t-38.5 29.5t-33 29.5t-38.5 13t-37 -21.5t-23 -56.5l-54 9q14 55 42 91.5t75 36.5q32 0 53.5 -13
t38 -29.5t33.5 -29.5t39 -13q23 0 37 22t22 56l54 -9q-13 -53 -41 -90.5t-76 -37.5z" />
    <glyph glyph-name="uni026C" unicode="&#x26c;" horiz-adv-x="322" 
d="M129 370h18l3 16q-1 22 -11 40.5t-36 18.5q-19 0 -28 -10t-9 -26q0 -39 63 -39zM73 0l63 318h-3q-57 0 -86 26t-29 66q0 30 21.5 55t57.5 25q25 0 41 -10t26 -25l51 257h77l-69 -342h108l-10 -52h-108l-64 -318h-76z" />
    <glyph glyph-name="uni026D" unicode="&#x26d;" horiz-adv-x="242" 
d="M99 -217q-88 0 -88 84q0 16 1.5 30.5t4.5 33.5l156 781h77l-157 -784q-4 -23 -4 -41q0 -41 33 -41q10 0 19.5 3t16.5 6l12 -57q-12 -5 -31.5 -10t-39.5 -5z" />
    <glyph glyph-name="uni026E" unicode="&#x26e;" horiz-adv-x="570" 
d="M31 0l142 712h77l-45 -226h374l-8 -45l-238 -257q54 8 93 -10t60.5 -53.5t21.5 -82.5q0 -54 -20 -100t-54 -80.5t-77.5 -54t-91.5 -19.5q-69 0 -112 24.5t-68 54.5l43 45q22 -23 55 -42.5t85 -19.5q40 0 77 24t61.5 65.5t24.5 94.5t-29.5 79t-82.5 26q-19 0 -34.5 -4.5
t-33.5 -12.5l-23 43l246 263h-282l-85 -424h-76z" />
    <glyph glyph-name="uni026F" unicode="&#x26f;" horiz-adv-x="797" 
d="M166 -12q-60 0 -87 33t-27 88q0 17 2 32.5t6 34.5l62 310h77l-61 -300q-4 -19 -6 -31.5t-2 -25.5q0 -75 71 -75q21 0 57.5 21t79.5 67l69 344h76l-60 -300q-4 -19 -6 -31.5t-2 -25.5q0 -75 70 -75q21 0 57.5 21t79.5 67l69 344h76l-97 -486h-63l7 73h-4
q-38 -36 -79.5 -60.5t-79.5 -24.5q-58 0 -82.5 27.5t-29.5 67.5q-46 -44 -90.5 -69.5t-82.5 -25.5z" />
    <glyph glyph-name="uni0270" unicode="&#x270;" horiz-adv-x="797" 
d="M552 -205l34 166l26 112h-4q-35 -36 -77.5 -60.5t-79.5 -24.5q-58 0 -82.5 27.5t-29.5 67.5q-46 -44 -90.5 -69.5t-82.5 -25.5q-60 0 -87 33t-27 88q0 17 2 32.5t6 34.5l62 310h77l-61 -300q-4 -19 -6 -31.5t-2 -25.5q0 -75 71 -75q21 0 57.5 21t79.5 67l69 344h76
l-60 -300q-4 -19 -6 -31.5t-2 -25.5q0 -75 70 -75q21 0 57.5 21t79.5 67l69 344h76l-138 -691h-77z" />
    <glyph glyph-name="uni0271" unicode="&#x271;" horiz-adv-x="799" 
d="M519 -217q-23 0 -40.5 5t-34.5 14l25 57q10 -6 20 -9.5t26 -3.5q28 0 44.5 24.5t26.5 67.5l74 362q4 20 6 32t2 25q0 75 -71 75q-21 0 -57 -21t-80 -67l-69 -344h-76l60 300q4 20 6 32t2 25q0 75 -70 75q-22 0 -58 -21t-79 -67l-69 -344h-76l96 486h63l-7 -73h4
q38 36 80 60.5t80 24.5q58 0 82.5 -27.5t29.5 -67.5q47 44 91 69.5t81 25.5q61 0 88 -32.5t27 -88.5q0 -17 -2 -32t-6 -35l-75 -371q-14 -70 -48 -113t-96 -43z" />
    <glyph glyph-name="uni0272" unicode="&#x272;" horiz-adv-x="525" 
d="M-48 -217q-22 0 -38 4.5t-31 12.5l26 57q8 -5 16 -8t23 -3q28 0 45.5 24.5t25.5 67.5l109 548h63l-7 -73h4q41 36 82 60.5t87 24.5q62 0 88.5 -32.5t26.5 -88.5q0 -31 -8 -67l-62 -310h-76l60 300q4 20 6 32t2 25q0 75 -72 75q-28 0 -64 -21t-82 -67l-80 -405
q-13 -70 -47.5 -113t-96.5 -43z" />
    <glyph glyph-name="uni0273" unicode="&#x273;" horiz-adv-x="525" 
d="M394 -217q-89 0 -89 84q0 29 7 64l74 369q4 20 6 32t2 25q0 75 -72 75q-28 0 -64 -21t-82 -67l-69 -344h-76l97 486h63l-7 -73h4q41 36 82 60.5t87 24.5q62 0 88.5 -32.5t26.5 -88.5q0 -31 -8 -67l-76 -382q-4 -23 -4 -41q0 -41 33 -41q10 0 19 3t16 6l13 -57
q-12 -5 -31.5 -10t-39.5 -5z" />
    <glyph glyph-name="uni0274" unicode="&#x274;" horiz-adv-x="524" 
d="M31 0l97 486h70l113 -275q8 -22 18 -51.5t19 -52.5h3q7 47 14 92.5t14 84.5l40 202h73l-98 -486h-69l-113 275q-8 22 -18.5 52t-18.5 52h-4q-6 -47 -12 -92.5t-14 -84.5l-42 -202h-72z" />
    <glyph glyph-name="uni0275" unicode="&#x275;" horiz-adv-x="515" 
d="M212 -12q-79 0 -126 52t-47 143q0 69 22 126.5t59 100t84 65.5t97 23q79 0 126.5 -52t47.5 -143q0 -69 -22 -126.5t-59.5 -100t-84.5 -65.5t-97 -23zM294 437q-54 0 -100 -43.5t-68 -111.5h276v8v8q0 67 -27.5 103t-80.5 36zM219 49q39 0 74.5 23.5t62 63.5t38.5 91h-280
q-1 -10 -1.5 -19.5t-0.5 -19.5q0 -67 27 -103t80 -36z" />
    <glyph glyph-name="uni0276" unicode="&#x276;" horiz-adv-x="678" 
d="M227 -12q-82 0 -135 48.5t-53 145.5q0 70 23 128t63 100t91 65t108 23q24 0 46 -2t49 -10h261l-11 -58h-216l-29 -147h180l-11 -52h-179l-34 -171h225l-12 -58h-270q-30 -7 -53 -9.5t-43 -2.5zM241 52q14 0 31 3t33 7l73 364q-30 9 -62 9q-54 0 -99.5 -32t-73 -86.5
t-27.5 -124.5q0 -73 35 -106.5t90 -33.5z" />
    <glyph glyph-name="uni0277" unicode="&#x277;" horiz-adv-x="683" 
d="M178 -12q-35 0 -68 16t-54.5 51.5t-21.5 92.5q0 72 25 135t72 111.5t112 75.5t145 27q68 0 125.5 -28.5t92 -81.5t34.5 -128q0 -81 -25.5 -142t-68.5 -95t-98 -34q-46 0 -83 22t-49 76h-4q-41 -98 -134 -98zM194 52q40 0 64 39t40 106l26 113h72l-22 -109
q-4 -19 -7.5 -36.5t-3.5 -30.5q0 -42 22 -60t58 -18q32 0 59 24.5t44 69t17 104.5q0 56 -24 96t-66 62t-95 22q-81 0 -141 -39t-93 -102t-33 -136q0 -59 25.5 -82t57.5 -23z" />
    <glyph glyph-name="uni0278" unicode="&#x278;" horiz-adv-x="648" 
d="M199 -205l39 197q-50 6 -95.5 31.5t-74.5 72t-29 113.5q0 88 41.5 150.5t110 97.5t148.5 38l43 217h71l-44 -219q51 -5 96.5 -31t74 -72t28.5 -113q0 -87 -42 -150t-110 -97.5t-148 -38.5l-39 -196h-70zM531 272q0 50 -19 84.5t-49.5 54t-65.5 23.5l-77 -385q56 4 104 33
t77.5 78t29.5 112zM116 213q0 -50 19 -84.5t50 -54t65 -24.5l77 386q-56 -3 -104 -32t-77.5 -78t-29.5 -113z" />
    <glyph glyph-name="uni0279" unicode="&#x279;" horiz-adv-x="342" 
d="M6 -12q-25 0 -46 9l27 68q16 -8 41 -8q37 0 75 31.5t69 91.5l61 306h76l-97 -486h-63l11 93h-4q-29 -44 -67 -74.5t-83 -30.5z" />
    <glyph glyph-name="uni027A" unicode="&#x27a;" horiz-adv-x="342" 
d="M6 -12q-25 0 -46 9l27 68q16 -8 41 -8q37 0 75 31.5t69 91.5l108 532h76l-144 -712h-63l11 93h-4q-29 -44 -67 -74.5t-83 -30.5z" />
    <glyph glyph-name="uni027B" unicode="&#x27b;" horiz-adv-x="342" 
d="M203 -217q-83 0 -83 84q0 9 1 22.5t5 37t12.5 63.5t22.5 103h-4q-29 -44 -67.5 -74.5t-83.5 -30.5q-25 0 -46 9l27 68q16 -8 41 -8q37 0 75 31.5t69 91.5l61 306h76l-111 -558q-5 -21 -5 -41q0 -41 33 -41q11 0 20 3t16 6l13 -57q-12 -5 -32 -10t-40 -5z" />
    <glyph glyph-name="uni027D" unicode="&#x27d;" horiz-adv-x="342" 
d="M99 -217q-88 0 -88 84q0 16 1.5 30.5t4.5 33.5l111 555h63l-11 -93h4q29 44 67 74.5t83 30.5q25 0 46 -9l-27 -68q-16 8 -42 8q-36 0 -74 -31.5t-69 -90.5l-75 -379q-4 -23 -4 -41q0 -41 33 -41q10 0 19.5 3t16.5 6l12 -57q-12 -5 -31.5 -10t-39.5 -5z" />
    <glyph glyph-name="uni027E" unicode="&#x27e;" horiz-adv-x="335" 
d="M31 0l62 313q19 92 71.5 138.5t128.5 46.5q26 0 45.5 -4.5t35.5 -12.5l-27 -63q-16 7 -28.5 9t-30.5 2q-45 0 -77 -32t-46 -102l-58 -295h-76z" />
    <glyph glyph-name="uni0280" unicode="&#x280;" horiz-adv-x="471" 
d="M31 0l97 486h159q70 0 114.5 -26.5t44.5 -91.5q0 -61 -37 -104t-99 -59l91 -205h-84l-80 197h-90l-40 -197h-76zM156 248h79q64 0 98.5 30t34.5 73q0 40 -25.5 56t-75.5 16h-76z" />
    <glyph glyph-name="uni0281" unicode="&#x281;" horiz-adv-x="471" 
d="M31 0l97 486h77l-40 -197h83h4h3l160 197h85l-175 -206q38 -11 60 -37t22 -71q0 -51 -26 -89.5t-72.5 -60.5t-107.5 -22h-170zM119 63h78q65 0 99.5 29.5t34.5 73.5q0 39 -25.5 55.5t-75.5 16.5h-76z" />
    <glyph glyph-name="uni0282" unicode="&#x282;" horiz-adv-x="402" 
d="M56 -217q-43 0 -68 25.5t-25 71.5q0 20 3 45.5t12 68t26 111.5l4 2q55 -34 89.5 -47t71.5 -13q42 0 72.5 23t30.5 58q0 26 -20.5 45.5t-76.5 50.5q-46 26 -74.5 57t-28.5 72q0 43 22 75.5t58.5 51t80.5 18.5q46 0 83 -18t65 -48l-46 -40q-19 20 -44.5 33t-58.5 13
q-38 0 -62.5 -22.5t-24.5 -53.5q0 -30 27 -49t59 -37q62 -34 88 -64t26 -74q0 -45 -24 -79t-65 -52.5t-93 -18.5q-27 0 -56.5 8t-56.5 24q-10 -44 -14.5 -68t-5.5 -36.5t-1 -20.5q0 -49 40 -49q11 0 19.5 2.5t15.5 5.5l9 -58q-11 -5 -26.5 -9t-30.5 -4z" />
    <glyph glyph-name="uni0283" unicode="&#x283;" horiz-adv-x="238" 
d="M-49 -217q-23 0 -40.5 5t-34.5 14l25 56q10 -6 20 -9t26 -3q28 0 45 24.5t26 67.5l127 627q15 77 53 119t113 42q17 0 34 -4.5t28 -10.5l-26 -57q-18 9 -39 9q-40 0 -59 -25.5t-29 -75.5l-125 -623q-13 -70 -47.5 -113t-96.5 -43z" />
    <glyph glyph-name="uni0284" unicode="&#x284;" horiz-adv-x="265" 
d="M-38 -217q-23 0 -40.5 5t-34.5 14l25 56q10 -6 20 -9t26 -3q28 0 45 24.5t26 67.5l59 291h-90l9 47l91 5l58 284q15 77 53 119t113 42q17 0 34 -4.5t28 -10.5l-26 -57q-18 9 -39 9q-40 0 -59 -25.5t-29 -75.5l-56 -281h89l-10 -52h-90l-58 -290q-13 -70 -47.5 -113
t-96.5 -43z" />
    <glyph glyph-name="uni0288" unicode="&#x288;" horiz-adv-x="325" 
d="M142 -217q-64 0 -90 31.5t-26 76.5q0 15 1.5 27.5t3.5 26.5l100 479h-71l11 57l76 5l36 134h65l-27 -134h123l-12 -62h-125l-100 -483q-3 -18 -3 -36q0 -30 14 -45t48 -15q14 0 27 5t24 10l17 -55q-16 -7 -39.5 -14.5t-52.5 -7.5z" />
    <glyph glyph-name="uni0289" unicode="&#x289;" horiz-adv-x="538" 
d="M186 -12q-61 0 -88 33t-27 88q0 17 2 32.5t6 34.5l17 83h-83l9 47l84 5l35 175h77l-36 -175h217l35 175h76l-35 -175h84l-11 -52h-83l-52 -259h-63l8 74h-4q-40 -35 -82 -60.5t-86 -25.5zM149 129q0 -75 72 -75q29 0 64.5 21t79.5 67l23 117h-216l-15 -73
q-4 -19 -6 -31.5t-2 -25.5z" />
    <glyph glyph-name="uni028A" unicode="&#x28a;" horiz-adv-x="515" 
d="M216 -12q-84 0 -131 48.5t-47 126.5q0 56 19 106t48.5 89.5t61.5 63.5v2h-101l13 62h181l-9 -50q-37 -28 -68 -68.5t-49.5 -88t-18.5 -99.5q0 -62 29 -95t83 -33q45 0 84 31.5t63 85t24 118.5q0 41 -13 83t-38 66l10 50h181l-13 -62h-102v-2q21 -24 35 -68.5t14 -86.5
q0 -54 -19.5 -104.5t-54 -89.5t-81 -62t-101.5 -23z" />
    <glyph glyph-name="uni028B" unicode="&#x28b;" horiz-adv-x="525" 
d="M204 -12q-67 0 -105 36t-38 112q0 33 9 73l56 277h77l-56 -276q-4 -18 -7 -34.5t-3 -30.5q0 -52 20.5 -71.5t57.5 -19.5q34 0 68.5 24.5t63.5 67.5t46.5 98.5t17.5 116.5q0 41 -16 57.5t-45 16.5q-12 0 -29 -6v61q13 5 27 6.5t31 1.5q50 0 80 -29t30 -97
q0 -76 -22.5 -145t-62 -123t-91 -85t-109.5 -31z" />
    <glyph glyph-name="uni028C" unicode="&#x28c;" horiz-adv-x="448" 
d="M324 486l71 -486h-76l-36 281q-4 35 -7 72.5t-7 72.5h-4q-17 -36 -35 -72.5t-37 -72.5l-143 -281h-77l259 486h92z" />
    <glyph glyph-name="uni028D" unicode="&#x28d;" horiz-adv-x="707" 
d="M603 486l35 -486h-76l-16 286q-1 35 -1.5 68.5t-1.5 67.5h-4q-15 -34 -28.5 -67.5t-29.5 -68.5l-128 -286h-75l-17 286q-1 35 -2 68.5t-3 67.5h-4q-14 -34 -27 -67.5t-29 -68.5l-127 -286h-72l221 486h95l14 -266q1 -34 1.5 -70.5t1.5 -72.5h4q15 36 29.5 72.5t29.5 70.5
l118 266h92z" />
    <glyph glyph-name="uni028E" unicode="&#x28e;" horiz-adv-x="448" 
d="M-27 0l301 557q40 78 84.5 122.5t112.5 44.5q30 0 56 -14l-25 -57q-7 4 -16.5 6.5t-19.5 2.5q-39 0 -66.5 -30t-54.5 -81l-33 -64l83 -487h-76l-38 273q-5 34 -9 72.5t-7 72.5h-4q-17 -34 -35.5 -72t-36.5 -73l-140 -273h-76z" />
    <glyph glyph-name="uni028F" unicode="&#x28f;" horiz-adv-x="408" 
d="M117 0l33 168l-103 318h79l40 -138q8 -30 16 -59t16 -61h3q20 31 40 61t39 59l93 138h79l-225 -318l-34 -168h-76z" />
    <glyph glyph-name="uni0290" unicode="&#x290;" horiz-adv-x="418" 
d="M336 -217q-85 0 -85 86q0 13 1.5 28t6 39t13.5 64h-282l8 44l323 380h-221l13 62h317l-8 -45l-323 -379h254q-15 -68 -21.5 -102t-8 -48t-1.5 -25q0 -41 36 -41q10 0 19 3t16 5l6 -58q-10 -4 -27.5 -8.5t-35.5 -4.5z" />
    <glyph glyph-name="uni0291" unicode="&#x291;" horiz-adv-x="440" 
d="M354 160q-24 0 -52.5 -24.5t-60.5 -77.5h22.5h22.5q34 0 56.5 11.5t33.5 28t11 30.5q0 32 -33 32zM175 -81l-42 10q8 19 16 37t16 34h-175l8 44l323 380h-221l13 62h313l-8 -45l-323 -379q26 -1 51 -1.5t50 -1.5q41 71 83 109.5t83 38.5q32 0 52.5 -17t20.5 -49
q0 -30 -18 -62.5t-57.5 -55.5t-104.5 -23h-45q-9 -18 -17.5 -38t-17.5 -43z" />
    <glyph glyph-name="uni0292" unicode="&#x292;" horiz-adv-x="418" 
d="M113 -217q-69 0 -112 24.5t-68 54.5l43 45q22 -23 55 -42t85 -19q40 0 77 23.5t61.5 65.5t24.5 95t-29.5 79t-82.5 26q-19 0 -34.5 -4.5t-33.5 -12.5l-23 43l246 263h-243l12 62h336l-8 -45l-238 -257q54 8 93 -10t60.5 -53.5t21.5 -82.5q0 -54 -20 -100t-54 -81
t-77.5 -54.5t-91.5 -19.5z" />
    <glyph glyph-name="uni0294" unicode="&#x294;" horiz-adv-x="410" 
d="M95 0l64 323q115 58 163 117.5t48 114.5q0 50 -27.5 78t-78.5 28q-46 0 -87 -22t-72 -51l-31 49q37 33 89.5 60t119.5 27q72 0 118.5 -39t46.5 -113q0 -78 -54 -150.5t-165 -131.5l-58 -290h-76z" />
    <glyph glyph-name="uni0295" unicode="&#x295;" horiz-adv-x="410" 
d="M139 0l57 290q-55 43 -90.5 91.5t-35.5 115.5q0 66 31.5 117.5t85 80.5t119.5 29q69 0 112.5 -27t68.5 -61l-48 -46q-22 29 -55 50t-82 21q-44 0 -79 -20.5t-55 -55t-20 -77.5q0 -52 32 -97t98 -89l-63 -322h-76z" />
    <glyph glyph-name="uni0298" unicode="&#x298;" horiz-adv-x="481" 
d="M190 -12q-42 0 -76 20t-53.5 65.5t-19.5 119.5q0 78 13 154.5t38 144.5t60 120t79 82t95 30q42 0 76 -20t54 -65t20 -119q0 -78 -13 -155t-38 -145t-60.5 -120t-79.5 -82t-95 -30zM202 55q34 0 64.5 27t55.5 74t43 106.5t28 124t10 127.5q0 56 -12 87t-32 43.5t-44 12.5
q-34 0 -64.5 -27t-55.5 -74t-43 -106t-28 -124t-10 -128q0 -82 25.5 -112.5t62.5 -30.5zM250 312q-16 0 -26.5 11t-10.5 27q0 25 16 40.5t37 15.5q16 0 26.5 -11t10.5 -28q0 -23 -16.5 -39t-36.5 -16z" />
    <glyph glyph-name="uni0299" unicode="&#x299;" horiz-adv-x="480" 
d="M31 0l97 486h181q63 0 106 -23.5t43 -76.5q0 -48 -30.5 -80t-74.5 -47l-1 -2q35 -10 61 -32.5t26 -65.5q0 -67 -56.5 -113t-160.5 -46h-191zM164 281h88q65 0 98 26.5t33 57.5q0 32 -23.5 47.5t-73.5 15.5h-93zM119 58h103q73 0 107.5 30.5t34.5 65.5q0 75 -119 75h-92z
" />
    <glyph glyph-name="uni029C" unicode="&#x29c;" horiz-adv-x="534" 
d="M31 0l97 486h77l-40 -198h220l40 198h76l-97 -486h-77l44 221h-220l-44 -221h-76z" />
    <glyph glyph-name="uni029D" unicode="&#x29d;" horiz-adv-x="279" 
d="M-62 -114q0 -18 14 -29t35 -11q32 0 52.5 17t32.5 42q-37 32 -76 32q-31 0 -44.5 -16.5t-13.5 -34.5zM170 -263q-22 67 -52 113q-23 -31 -56 -49t-76 -18q-53 0 -81.5 27.5t-28.5 69.5q0 27 13.5 53t41 42.5t69.5 16.5q46 0 90 -29l1 3l105 520h76l-101 -509
q-8 -40 -21 -71q21 -28 40 -65t33 -82zM257 587q-19 0 -34 11.5t-15 33.5q0 25 17.5 41.5t40.5 16.5q20 0 34.5 -12t14.5 -34q0 -25 -17.5 -41t-40.5 -16z" />
    <glyph glyph-name="uni029F" unicode="&#x29f;" horiz-adv-x="400" 
d="M31 0l97 486h77l-85 -424h216l-13 -62h-292z" />
    <glyph glyph-name="uni02A1" unicode="&#x2a1;" horiz-adv-x="423" 
d="M101 0l28 140h-120l9 47l87 5h34l26 131q115 58 163 117.5t48 114.5q0 50 -27.5 78t-78.5 28q-46 0 -87 -22t-72 -51l-31 49q37 33 89.5 60t119.5 27q72 0 118.5 -39t46.5 -113q0 -78 -54 -150.5t-165 -131.5l-20 -98h115l-11 -52h-114l-28 -140h-76z" />
    <glyph glyph-name="uni02A2" unicode="&#x2a2;" horiz-adv-x="423" 
d="M145 0l28 140h-119l9 47l88 5h32l19 98q-55 43 -90.5 91.5t-35.5 115.5q0 66 31.5 117.5t85 80.5t119.5 29q69 0 112.5 -27t68.5 -61l-48 -46q-22 29 -55 50t-82 21q-44 0 -79 -20.5t-55 -55t-20 -77.5q0 -52 32 -97t98 -89l-25 -130h116l-11 -52h-116l-27 -140h-76z" />
    <glyph glyph-name="uni02A4" unicode="&#x2a4;" horiz-adv-x="817" 
d="M169 -12q-59 0 -94.5 43t-35.5 123q0 72 21 134.5t57 109.5t81 73.5t94 26.5q35 0 61 -19.5t44 -51.5h3l16 95l38 190h77l-46 -226h341l-8 -45l-218 -256q52 6 86.5 -13.5t51.5 -54t17 -75.5q0 -54 -18.5 -101t-51 -82.5t-73 -55t-84.5 -19.5q-63 0 -100 24.5t-60 54.5
l43 45q20 -23 47 -42.5t74 -19.5q35 0 68.5 24.5t55.5 66.5t22 96q0 52 -24 77t-68 25q-19 0 -34.5 -4.5t-33.5 -12.5l-23 43l226 263h-248l-86 -424h-63l8 72h-4q-34 -37 -75 -60.5t-84 -23.5zM197 52q70 0 143 93l44 217q-40 72 -89 72q-35 0 -67 -22t-56.5 -59.5
t-39 -85.5t-14.5 -101q0 -58 21.5 -86t57.5 -28z" />
    <glyph glyph-name="uni02A7" unicode="&#x2a7;" horiz-adv-x="545" 
d="M258 -217q-23 0 -40.5 5t-34.5 14l25 56q10 -6 20 -9t26 -3q29 0 46.5 24.5t25.5 67.5l26 132h-4q-37 -34 -77.5 -57.5t-82.5 -23.5q-61 0 -88 33t-27 89q0 31 8 67l50 246h-71l11 57l76 5l36 134h65l-27 -134h215l16 79q15 77 53 119t113 42q17 0 34 -4.5t28 -10.5
l-26 -57q-16 9 -39 9q-40 0 -59 -25.5t-29 -75.5l-125 -623q-13 -70 -47.5 -113t-96.5 -43zM223 56q28 0 63.5 21t80.5 67l57 280h-217l-48 -237q-8 -33 -8 -56q0 -75 72 -75z" />
    <glyph glyph-name="h.sups" unicode="&#x2b0;" horiz-adv-x="353" 
d="M83 395l93 468h58l-24 -118l-17 -72h4q26 22 52.5 36.5t56.5 14.5q42 0 59.5 -21.5t17.5 -60.5q0 -11 -2 -22t-4 -21l-41 -204h-57l39 196q6 24 6 36q0 48 -42 48q-40 0 -97 -58l-44 -222h-58z" />
    <glyph glyph-name="j.sups" unicode="&#x2b2;" horiz-adv-x="164" 
d="M31 250q-26 0 -54 14l20 41q7 -3 14.5 -5.5t17.5 -2.5q20 0 30.5 15t15.5 43l71 361h58l-72 -364q-9 -46 -33 -74t-68 -28zM192 779q-14 0 -24.5 9t-10.5 25q0 17 12 29t30 12q14 0 24.5 -8.5t10.5 -25.5q0 -16 -12.5 -28.5t-29.5 -12.5z" />
    <glyph glyph-name="r.sups" unicode="&#x2b3;" horiz-adv-x="224" 
d="M83 395l63 321h47l-5 -51h3q20 27 43.5 43t51.5 16q15 0 26 -5l-19 -52q-7 3 -11.5 3.5t-10.5 0.5q-24 0 -45.5 -15.5t-43.5 -50.5l-42 -210h-57z" />
    <glyph glyph-name="w.sups" unicode="&#x2b7;" horiz-adv-x="479" 
d="M134 395l-26 321h56l12 -182l2 -92h4l38 92l84 182h54l14 -182l5 -92h4l38 92l81 182h54l-148 -321h-71l-13 167l-3 91h-2l-38 -92l-76 -166h-69z" />
    <glyph glyph-name="y.sups" unicode="&#x2b8;" horiz-adv-x="307" 
d="M67 250q-25 0 -47 13l19 41q7 -3 12.5 -5t15.5 -2q29 0 49.5 22t36.5 50l9 20l-60 327h56l28 -180l10 -94h4l44 94l92 180h56l-185 -348q-16 -30 -35.5 -57t-44.5 -44t-60 -17z" />
    <glyph glyph-name="uni02B9" unicode="&#x2b9;" horiz-adv-x="242" 
d="M112 434l75 256h75l-33 -97l-66 -159h-51z" />
    <glyph glyph-name="quoteleft" unicode="&#x2018;" horiz-adv-x="242" 
d="M163 434q-23 0 -38 18t-15 50q0 69 38 117t94 72l16 -38q-46 -22 -70.5 -56t-24.5 -62h3h2q21 0 35 -11.5t14 -32.5q0 -23 -15 -40t-39 -17z" />
    <glyph glyph-name="quoteleft" unicode="&#x2bb;" horiz-adv-x="242" 
d="M163 434q-23 0 -38 18t-15 50q0 69 38 117t94 72l16 -38q-46 -22 -70.5 -56t-24.5 -62h3h2q21 0 35 -11.5t14 -32.5q0 -23 -15 -40t-39 -17z" />
    <glyph glyph-name="quoteright" unicode="&#x2019;" horiz-adv-x="242" 
d="M127 443l-16 37q47 23 71.5 57t24.5 61h-2h-3q-22 0 -36 11.5t-14 33.5q0 23 15 40t40 17q23 0 38 -18t15 -50q0 -69 -38.5 -117t-94.5 -72z" />
    <glyph glyph-name="quoteright" unicode="&#x2bc;" horiz-adv-x="242" 
d="M127 443l-16 37q47 23 71.5 57t24.5 61h-2h-3q-22 0 -36 11.5t-14 33.5q0 23 15 40t40 17q23 0 38 -18t15 -50q0 -69 -38.5 -117t-94.5 -72z" />
    <glyph glyph-name="uni02BE" unicode="&#x2be;" horiz-adv-x="161" 
d="M85 534l7 35q42 0 64 21.5t22 56.5q0 22 -14.5 34.5t-46.5 12.5l7 34q48 4 77 -19.5t29 -59.5q0 -54 -40 -85t-105 -30z" />
    <glyph glyph-name="uni02BF" unicode="&#x2bf;" horiz-adv-x="161" 
d="M195 537q-48 -4 -77 19t-29 59q0 55 40.5 86t104.5 30l-7 -35q-42 -1 -64 -22t-22 -56q0 -22 15 -34.5t46 -12.5z" />
    <glyph glyph-name="uni02C1" unicode="&#x2c1;" horiz-adv-x="297" 
d="M151 395l37 188q-36 28 -59 59.5t-23 74.5t20.5 78t57.5 55.5t86 20.5q46 0 74 -18t44 -39l-38 -38q-14 18 -33 31.5t-51 13.5q-47 0 -74 -29t-27 -67q0 -34 21 -62t65 -57l-42 -211h-58z" />
    <glyph glyph-name="circumflex" unicode="&#x2c6;" horiz-adv-x="517" 
d="M208 568l-31 34l138 138h83l89 -141l-39 -31l-94 116h-4z" />
    <glyph glyph-name="caron" unicode="&#x2c7;" horiz-adv-x="517" 
d="M290 575l-89 141l38 31l95 -116h4l141 116l31 -34l-138 -138h-82z" />
    <glyph glyph-name="uni02C8" unicode="&#x2c8;" horiz-adv-x="108" 
d="M90 564l29 182h66l-43 -182h-52z" />
    <glyph glyph-name="uni02C9" unicode="&#x2c9;" horiz-adv-x="262" 
d="M73 601l10 54h254l-9 -54h-255z" />
    <glyph glyph-name="uni02CA" unicode="&#x2ca;" horiz-adv-x="213" 
d="M144 579l-35 45l168 153l47 -60z" />
    <glyph glyph-name="uni02CB" unicode="&#x2cb;" horiz-adv-x="213" 
d="M205 570l-132 164l66 49l114 -177z" />
    <glyph glyph-name="uni02CC" unicode="&#x2cc;" horiz-adv-x="108" 
d="M-74 -263l45 196h52l-30 -196h-67z" />
    <glyph glyph-name="uni02D0" unicode="&#x2d0;" horiz-adv-x="188" 
d="M-22 0l94 138h11l38 -138h-143zM110 349l-38 137h143l-94 -137h-11z" />
    <glyph glyph-name="uni02D1" unicode="&#x2d1;" horiz-adv-x="188" 
d="M110 349l-38 137h143l-94 -137h-11z" />
    <glyph glyph-name="breve" unicode="&#x2d8;" horiz-adv-x="517" 
d="M329 571q-52 0 -81.5 22.5t-40 57t-7.5 71.5l54 8q-2 -25 6 -49t28 -39.5t52 -15.5t56.5 15.5t41 39.5t25.5 49l50 -8q-9 -37 -31.5 -71.5t-60.5 -57t-92 -22.5z" />
    <glyph glyph-name="dotaccent" unicode="&#x2d9;" horiz-adv-x="517" 
d="M336 587q-19 0 -34 11.5t-15 33.5q0 25 17.5 41.5t40.5 16.5q20 0 34.5 -12t14.5 -34q0 -25 -17.5 -41t-40.5 -16z" />
    <glyph glyph-name="ring" unicode="&#x2da;" horiz-adv-x="517" 
d="M333 556q-40 0 -67.5 21t-27.5 61q0 45 33 78t85 33q41 0 68.5 -21t27.5 -61q0 -45 -33 -78t-86 -33zM338 592q26 0 44 21.5t18 50.5q0 21 -13 35t-36 14q-25 0 -43 -21.5t-18 -50.5q0 -22 12.5 -35.5t35.5 -13.5z" />
    <glyph glyph-name="ogonek" unicode="&#x2db;" horiz-adv-x="517" 
d="M185 -206q-33 0 -54 17t-21 50q0 29 15.5 56t37.5 49t43 37h53q-41 -28 -64.5 -59.5t-23.5 -61.5q0 -17 10.5 -27t25.5 -10q19 0 38 12l16 -38q-17 -10 -38 -17.5t-38 -7.5z" />
    <glyph glyph-name="tilde" unicode="&#x2dc;" horiz-adv-x="517" 
d="M410 577q-26 0 -42.5 13t-29 29.5t-25.5 29.5t-32 13q-22 0 -37 -22t-23 -58l-55 3q12 59 41.5 97.5t78.5 38.5q26 0 42.5 -13t29 -29.5t25.5 -29.5t32 -13q23 0 38 22.5t22 57.5l54 -4q-11 -58 -40 -96.5t-79 -38.5z" />
    <glyph glyph-name="hungarumlaut" unicode="&#x2dd;" horiz-adv-x="517" 
d="M280 571l-41 25l117 163l52 -34zM431 571l-42 25l118 163l52 -34z" />
    <glyph glyph-name="uni02DE" unicode="&#x2de;" horiz-adv-x="185" 
d="M103 194q-27 0 -48 17t-21 55q0 14 2 29t7 32l-118 -43l7 56l174 64q-11 -39 -16 -66t-5 -46q0 -27 9.5 -36.5t27.5 -9.5q12 0 21.5 4t18.5 10l14 -43q-13 -8 -31.5 -15.5t-41.5 -7.5z" />
    <glyph glyph-name="uni02E0" unicode="&#x2e0;" horiz-adv-x="307" 
d="M162 289q17 0 26 16.5t9 38.5q0 14 -3 29t-8 30h-3q-19 -28 -30 -51.5t-11 -40.5q0 -22 20 -22zM153 248q-27 0 -44 16t-17 42q0 29 15.5 57t44.5 70l-51 283h60l24 -166q2 -22 6 -40.5t5 -40.5h3q11 22 22.5 40.5t22.5 40.5l90 166h57l-162 -284q8 -26 13 -46t5 -38
q0 -38 -25 -69t-69 -31z" />
    <glyph glyph-name="l.sups" unicode="&#x2e1;" horiz-adv-x="165" 
d="M140 387q-24 0 -35.5 12.5t-11.5 34.5q0 8 1.5 16.5t3.5 17.5l78 395h58l-81 -402q-1 -5 -1.5 -8t-0.5 -6q0 -12 13 -12q2 0 5.5 0.5t7.5 2.5l1 -45q-15 -6 -38 -6z" />
    <glyph glyph-name="s.sups" unicode="&#x2e2;" horiz-adv-x="271" 
d="M172 387q-34 0 -64.5 15.5t-52.5 39.5l35 33q18 -18 40 -31.5t48 -13.5q30 0 46.5 14.5t16.5 36.5q0 14 -13.5 27t-45.5 31q-31 17 -52 37.5t-21 49.5q0 44 32.5 71t80.5 27q32 0 57.5 -12.5t45.5 -29.5l-30 -36q-14 14 -33 24.5t-42 10.5q-25 0 -40.5 -14.5t-15.5 -34.5
q0 -17 17 -29.5t40 -24.5q37 -20 56 -40.5t19 -50.5q0 -46 -33.5 -73t-90.5 -27z" />
    <glyph glyph-name="x.sups" unicode="&#x2e3;" horiz-adv-x="306" 
d="M33 395l146 170l-62 151h58l26 -65l22 -54h3l37 48l53 71h65l-133 -163l67 -158h-58l-29 69l-24 59h-4l-40 -52l-62 -76h-65z" />
    <glyph glyph-name="uni0300" unicode="&#x300;" 
d="M149 570l-132 164l66 49l114 -177z" />
    <glyph glyph-name="uni0301" unicode="&#x301;" 
d="M88 579l-35 45l168 153l47 -60z" />
    <glyph glyph-name="uni0302" unicode="&#x302;" 
d="M-8 568l-31 34l138 138h83l89 -141l-39 -31l-94 116h-4z" />
    <glyph glyph-name="uni0303" unicode="&#x303;" 
d="M194 577q-26 0 -42.5 13t-29 29.5t-25.5 29.5t-32 13q-22 0 -37 -22t-23 -58l-55 3q12 59 41.5 97.5t78.5 38.5q26 0 42.5 -13t29 -29.5t25.5 -29.5t32 -13q23 0 38 22.5t22 57.5l54 -4q-11 -58 -40 -96.5t-79 -38.5z" />
    <glyph glyph-name="uni0304" unicode="&#x304;" 
d="M-9 601l10 54h254l-9 -54h-255z" />
    <glyph glyph-name="uni0305" unicode="&#x305;" 
d="M-9 601l10 54h254l-9 -54h-255z" />
    <glyph glyph-name="uni0306" unicode="&#x306;" 
d="M113 571q-52 0 -81.5 22.5t-40 57t-7.5 71.5l54 8q-2 -25 6 -49t28 -39.5t52 -15.5t56.5 15.5t41 39.5t25.5 49l50 -8q-9 -37 -31.5 -71.5t-60.5 -57t-92 -22.5z" />
    <glyph glyph-name="uni0307" unicode="&#x307;" 
d="M120 587q-19 0 -34 11.5t-15 33.5q0 25 17.5 41.5t40.5 16.5q20 0 34.5 -12t14.5 -34q0 -25 -17.5 -41t-40.5 -16z" />
    <glyph glyph-name="uni0308" unicode="&#x308;" 
d="M27 589q-17 0 -28.5 10.5t-11.5 29.5q0 23 15 39t36 16q18 0 29.5 -11t11.5 -31q0 -22 -15.5 -37.5t-36.5 -15.5zM213 589q-17 0 -28.5 10.5t-11.5 29.5q0 23 15 39t36 16q18 0 29 -11t11 -31q0 -22 -15 -37.5t-36 -15.5z" />
    <glyph glyph-name="uni0309" unicode="&#x309;" 
d="M81 572l-2 39q63 14 66 54q3 37 -75 42l15 53q132 -3 124 -87q-4 -41 -38.5 -66t-89.5 -35z" />
    <glyph glyph-name="uni030A" unicode="&#x30a;" 
d="M117 556q-40 0 -67.5 21t-27.5 61q0 45 33 78t85 33q41 0 68.5 -21t27.5 -61q0 -45 -33 -78t-86 -33zM122 592q26 0 44 21.5t18 50.5q0 21 -13 35t-36 14q-25 0 -43 -21.5t-18 -50.5q0 -22 12.5 -35.5t35.5 -13.5z" />
    <glyph glyph-name="uni030B" unicode="&#x30b;" 
d="M64 571l-41 25l117 163l52 -34zM215 571l-42 25l118 163l52 -34z" />
    <glyph glyph-name="uni030C" unicode="&#x30c;" 
d="M74 575l-89 141l38 31l95 -116h4l141 116l31 -34l-138 -138h-82z" />
    <glyph glyph-name="uni030F" unicode="&#x30f;" 
d="M3 567l-70 171l64 24l56 -179zM154 567l-70 171l64 24l55 -179z" />
    <glyph glyph-name="uni0311" unicode="&#x311;" 
d="M7 568l-50 8q10 37 32.5 71.5t60.5 57t91 22.5q54 0 83 -22.5t39.5 -57t6.5 -71.5l-54 -8q2 26 -6 49.5t-27 39t-52 15.5q-32 0 -57 -15.5t-41.5 -39t-25.5 -49.5z" />
    <glyph glyph-name="uni0312" unicode="&#x312;" 
d="M105 543q-19 0 -31 16t-12 39q0 42 25.5 76.5t83.5 54.5l9 -32q-33 -13 -49.5 -29.5t-23.5 -39.5q4 1 10 1q14 0 25.5 -10.5t11.5 -27.5q0 -23 -14 -35.5t-35 -12.5z" />
    <glyph glyph-name="uni0313" unicode="&#x313;" 
d="M79 543l-10 32q33 13 49.5 30t23.5 39q-4 -1 -10 -1q-14 0 -25.5 11t-11.5 27q0 23 14.5 35.5t34.5 12.5t31.5 -16t11.5 -40q0 -41 -25 -75.5t-83 -54.5z" />
    <glyph glyph-name="uni0318" unicode="&#x318;" 
d="M-9 -245l14 72h-110l9 46h110l14 72h49l-38 -190h-48z" />
    <glyph glyph-name="uni0319" unicode="&#x319;" 
d="M-124 -245l37 190h49l-15 -72h110l-9 -46h-110l-14 -72h-48z" />
    <glyph glyph-name="uni031A" unicode="&#x31a;" 
d="M151 573l19 94h-110l10 47h157l-27 -141h-49z" />
    <glyph glyph-name="uni031B" unicode="&#x31b;" 
d="M95 444l-15 38q38 4 64.5 27.5t28.5 63.5q1 9 -1 19.5t-6 20.5l61 22q6 -14 8.5 -28.5t2.5 -28.5q0 -40 -20.5 -68t-53 -44.5t-69.5 -21.5z" />
    <glyph glyph-name="uni031C" unicode="&#x31c;" 
d="M-22 -257q-48 -4 -77 19t-29 59q0 55 40.5 86t104.5 30l-7 -35q-42 -1 -64 -22t-22 -56q0 -22 15 -34.5t46 -12.5z" />
    <glyph glyph-name="uni031D" unicode="&#x31d;" 
d="M-134 -207l9 46h70l20 106h49l-21 -106h70l-9 -46h-188z" />
    <glyph glyph-name="uni031E" unicode="&#x31e;" 
d="M-72 -245l21 107h-70l9 45h188l-9 -45h-69l-22 -107h-48z" />
    <glyph glyph-name="uni031F" unicode="&#x31f;" 
d="M-73 -249l14 73h-69l9 45h70l13 73h49l-14 -73h70l-9 -45h-70l-15 -73h-48z" />
    <glyph glyph-name="uni0320" unicode="&#x320;" 
d="M-128 -176l9 45h188l-9 -45h-188z" />
    <glyph glyph-name="uni0323" unicode="&#x323;" 
d="M-37 -217q-19 0 -34 11.5t-15 33.5q0 25 17.5 41.5t40.5 16.5q20 0 34.5 -12t14.5 -34q0 -25 -17.5 -41t-40.5 -16z" />
    <glyph glyph-name="uni0324" unicode="&#x324;" 
d="M-129 -203q-17 0 -28.5 10.5t-11.5 29.5q0 23 15 39t36 16q18 0 29.5 -11t11.5 -31q0 -22 -15.5 -37.5t-36.5 -15.5zM57 -203q-17 0 -28.5 10.5t-11.5 29.5q0 23 15 39t36 16q18 0 29 -11t11 -31q0 -22 -15 -37.5t-36 -15.5z" />
    <glyph glyph-name="uni0325" unicode="&#x325;" 
d="M-44 -258q-40 0 -67.5 21t-27.5 61q0 45 33 78t85 33q41 0 68.5 -21t27.5 -61q0 -45 -33 -78t-86 -33zM-39 -222q26 0 44 21.5t18 50.5q0 21 -13 35t-36 14q-25 0 -43 -21.5t-18 -50.5q0 -22 12.5 -35.5t35.5 -13.5z" />
    <glyph glyph-name="uni0326" unicode="&#x326;" 
d="M-132 -226l-1 39q60 2 88.5 16.5t28.5 36.5q0 17 -14.5 27.5t-48.5 11.5l23 37q65 -5 85 -22t20 -44q0 -49 -50.5 -74.5t-130.5 -27.5z" />
    <glyph glyph-name="uni0327" unicode="&#x327;" 
d="M-132 -226l-2 39q60 2 88.5 16t30.5 38q0 19 -15.5 29t-53.5 14l60 93h54l-41 -68q35 -9 48 -23.5t11 -39.5q-4 -47 -52 -71.5t-128 -26.5z" />
    <glyph glyph-name="uni0328" unicode="&#x328;" 
d="M-31 -206q-33 0 -54 17t-21 50q0 29 15.5 56t37.5 49t43 37h53q-41 -28 -64.5 -59.5t-23.5 -61.5q0 -17 10.5 -27t25.5 -10q19 0 38 12l16 -38q-17 -10 -38 -17.5t-38 -7.5z" />
    <glyph glyph-name="uni0329" unicode="&#x329;" 
d="M-85 -263l45 196h52l-30 -196h-67z" />
    <glyph glyph-name="uni032A" unicode="&#x32a;" 
d="M-163 -226l28 144h239l-28 -144h-45l18 97h-148l-19 -97h-45z" />
    <glyph glyph-name="uni032C" unicode="&#x32c;" 
d="M-83 -229l-89 141l38 31l95 -116h4l141 116l31 -34l-138 -138h-82z" />
    <glyph glyph-name="uni032E" unicode="&#x32e;" 
d="M-46 -230q-52 0 -81.5 22.5t-40 57t-7.5 71.5l54 8q-2 -25 6 -49t28 -39.5t52 -15.5t56.5 15.5t41 39.5t25.5 49l50 -8q-9 -37 -31.5 -71.5t-60.5 -57t-92 -22.5z" />
    <glyph glyph-name="uni032F" unicode="&#x32f;" 
d="M-150 -228l-50 8q10 37 32.5 71.5t60.5 57t91 22.5q54 0 83 -22.5t39.5 -57t6.5 -71.5l-54 -8q2 26 -6 49.5t-27 39t-52 15.5q-32 0 -57 -15.5t-41.5 -39t-25.5 -49.5z" />
    <glyph glyph-name="uni0330" unicode="&#x330;" 
d="M37 -227q-26 0 -42.5 13t-29 29.5t-25.5 29.5t-32 13q-22 0 -37 -22t-23 -58l-55 3q12 59 41.5 97.5t78.5 38.5q26 0 42.5 -13t29 -29.5t25.5 -29.5t32 -13q23 0 38 22.5t22 57.5l54 -4q-11 -58 -40 -96.5t-79 -38.5z" />
    <glyph glyph-name="uni0331" unicode="&#x331;" 
d="M-159 -165l10 54h254l-9 -54h-255z" />
    <glyph glyph-name="uni0334" unicode="&#x334;" 
d="M132 184q-31 0 -53 13t-38.5 29.5t-33 29.5t-38.5 13t-37 -21.5t-23 -56.5l-54 9q14 55 42 91.5t75 36.5q32 0 53.5 -13t38 -29.5t33.5 -29.5t39 -13q23 0 37 22t22 56l54 -9q-13 -53 -41 -90.5t-76 -37.5z" />
    <glyph glyph-name="uni0339" unicode="&#x339;" 
d="M-82 -260l7 35q42 0 64 21.5t22 56.5q0 22 -14.5 34.5t-46.5 12.5l7 34q48 4 77 -19.5t29 -59.5q0 -54 -40 -85t-105 -30z" />
    <glyph glyph-name="uni033A" unicode="&#x33a;" 
d="M-162 -225l28 143h45l-19 -96h148l19 96h45l-28 -143h-238z" />
    <glyph glyph-name="uni033B" unicode="&#x33b;" 
d="M-166 -240l32 163h238l-32 -163h-238zM-113 -200h148l16 84h-148z" />
    <glyph glyph-name="uni033C" unicode="&#x33c;" 
d="M-164 -230l-45 6q14 78 45.5 112.5t76.5 34.5q26 0 42.5 -14t17.5 -43h3q13 31 35 44t47 13q34 0 52.5 -19.5t18.5 -63.5q0 -13 -2.5 -30t-5.5 -34l-48 -6q4 17 5.5 30.5t1.5 23.5q0 27 -9 37t-26 10q-25 0 -42 -24t-26 -76h-45q5 20 7 32t2 22q0 46 -37 46
q-22 0 -39 -21t-29 -80z" />
    <glyph glyph-name="uni033D" unicode="&#x33d;" 
d="M58 555l-26 33l60 51l-40 51l39 34l40 -51l61 51l25 -34l-60 -51l40 -51l-39 -33l-40 51z" />
    <glyph glyph-name="uni0342" unicode="&#x342;" 
d="M194 577q-26 0 -42.5 13t-29 29.5t-25.5 29.5t-32 13q-22 0 -37 -22t-23 -58l-55 3q12 59 41.5 97.5t78.5 38.5q26 0 42.5 -13t29 -29.5t25.5 -29.5t32 -13q23 0 38 22.5t22 57.5l54 -4q-11 -58 -40 -96.5t-79 -38.5z" />
    <glyph glyph-name="uni0343" unicode="&#x343;" 
d="M79 543l-10 32q33 13 49.5 30t23.5 39q-4 -1 -10 -1q-14 0 -25.5 11t-11.5 27q0 23 14.5 35.5t34.5 12.5t31.5 -16t11.5 -40q0 -41 -25 -75.5t-83 -54.5z" />
    <glyph glyph-name="uni0344" unicode="&#x344;" 
d="M8 594q-16 0 -25 9.5t-9 25.5q0 22 13 36.5t32 14.5q35 0 35 -37q0 -20 -13 -34.5t-33 -14.5zM226 594q-16 0 -26 9.5t-10 25.5q0 22 13.5 36.5t32.5 14.5q35 0 35 -37q0 -20 -13.5 -34.5t-31.5 -14.5zM106 561l-36 13l84 200l56 -21z" />
    <glyph glyph-name="uni0345" unicode="&#x345;" 
d="M4 -201q-61 0 -61 59q0 11 2.5 27t12.5 53h59q-6 -17 -10 -34.5t-4 -28.5q0 -13 6.5 -17.5t13.5 -4.5q4 0 7.5 0.5t12.5 2.5l6 -48q-10 -4 -20.5 -6.5t-24.5 -2.5z" />
    <glyph glyph-name="uni034F" unicode="&#x34f;" 
 />
    <glyph glyph-name="uni0361" unicode="&#x361;" 
d="M-303 551l-20 39q104 62 220 95t243 33q122 0 223.5 -33t186.5 -95l-30 -39q-80 58 -183 85t-208 27q-103 0 -216.5 -27t-215.5 -85z" />
    <glyph glyph-name="Delta" unicode="&#x2206;" horiz-adv-x="565" 
d="M-19 0l9 45l332 611h90l77 -611l-9 -45h-499zM245 377l-166 -311h327l-34 311q-4 52 -8.5 105t-8.5 109h-4q-26 -57 -52 -108.5t-54 -105.5z" />
    <glyph glyph-name="Delta" unicode="&#x394;" horiz-adv-x="565" 
d="M-19 0l9 45l332 611h90l77 -611l-9 -45h-499zM245 377l-166 -311h327l-34 311q-4 52 -8.5 105t-8.5 109h-4q-26 -57 -52 -108.5t-54 -105.5z" />
    <glyph glyph-name="Omega" unicode="&#x2126;" horiz-adv-x="658" 
d="M-7 0l12 64h131v4q-25 32 -47.5 87t-22.5 125q0 84 26 155t72.5 123t109 81t135.5 29q70 0 120 -30.5t76.5 -84.5t26.5 -127q0 -88 -27.5 -156t-68.5 -118t-82 -84l-2 -4h124l-11 -64h-227l11 51q54 37 100 89.5t74 120.5t28 153q0 83 -40 135t-114 52q-72 0 -129.5 -43
t-91 -117t-33.5 -168q0 -75 24.5 -132t61.5 -90l-10 -51h-226z" />
    <glyph glyph-name="Omega" unicode="&#x3a9;" horiz-adv-x="658" 
d="M-7 0l12 64h131v4q-25 32 -47.5 87t-22.5 125q0 84 26 155t72.5 123t109 81t135.5 29q70 0 120 -30.5t76.5 -84.5t26.5 -127q0 -88 -27.5 -156t-68.5 -118t-82 -84l-2 -4h124l-11 -64h-227l11 51q54 37 100 89.5t74 120.5t28 153q0 83 -40 135t-114 52q-72 0 -129.5 -43
t-91 -117t-33.5 -168q0 -75 24.5 -132t61.5 -90l-10 -51h-226z" />
    <glyph glyph-name="pi" unicode="&#x3c0;" horiz-adv-x="558" 
d="M417 -12q-43 0 -62 21t-19 61q0 15 7.5 54t19 90t24 106.5t23.5 103.5h-180q-20 -104 -45.5 -214t-54.5 -217l-75 7q33 108 59.5 216t45.5 208h-93l12 57l67 5h431l-13 -62h-82q-13 -50 -26 -106.5t-24 -107t-17.5 -85t-6.5 -40.5q0 -34 36 -34q5 0 11 1.5t16 3.5l-1 -57
q-10 -4 -23 -7.5t-30 -3.5z" />
    <glyph glyph-name="uni1D25" unicode="&#x1d25;" horiz-adv-x="502" 
d="M52 -12q-47 0 -72 22l33 55q10 -7 21.5 -10t25.5 -3q29 0 59 18.5t65 49.5q-34 42 -58.5 87.5t-24.5 94.5q0 50 24 95t69.5 73t109.5 28t103 -33.5t39 -93.5q0 -69 -47 -132.5t-122 -122.5q26 -30 50.5 -47t52.5 -17q14 0 25 4t21 10l23 -58q-34 -20 -78 -20
q-43 0 -79.5 24.5t-68.5 63.5q-45 -40 -88 -64t-83 -24z" />
    <glyph glyph-name="a.sups" unicode="&#x1d43;" horiz-adv-x="355" 
d="M179 387q-42 0 -68 30t-26 88q0 61 25.5 110.5t66 79t85.5 29.5q23 0 42.5 -11.5t31.5 -35.5h4l14 39h45l-63 -321h-47l6 47h-4q-24 -25 -52.5 -40t-59.5 -15zM198 435q24 0 51.5 16.5t49.5 45.5l26 134q-13 25 -28.5 35t-32.5 10q-30 0 -57.5 -23t-45 -60.5t-17.5 -80.5
q0 -40 15.5 -58.5t38.5 -18.5z" />
    <glyph glyph-name="b.sups" unicode="&#x1d47;" horiz-adv-x="360" 
d="M220 387q-22 0 -42 11.5t-32 35.5h-4l-13 -39h-46l93 468h58l-24 -118l-16 -66h3q23 20 49 32.5t57 12.5q43 0 68.5 -30t25.5 -88q0 -61 -25.5 -110.5t-65.5 -79t-86 -29.5zM219 435q30 0 57.5 23t45 60.5t17.5 80.5q0 40 -16 58.5t-39 18.5q-24 0 -49.5 -13t-48.5 -39
l-28 -144q13 -25 29 -35t32 -10z" />
    <glyph glyph-name="d.sups" unicode="&#x1d48;" horiz-adv-x="365" 
d="M181 387q-43 0 -68.5 30t-25.5 88q0 61 25.5 110.5t66 79t85.5 29.5q23 0 42.5 -11t30.5 -34h4l8 65l23 116h57l-92 -465h-47l7 47h-4q-24 -25 -53 -40t-59 -15zM200 435q24 0 51 16.5t50 45.5l25 134q-13 25 -28.5 35t-32.5 10q-30 0 -57.5 -23t-45 -60.5t-17.5 -80.5
q0 -40 16 -58.5t39 -18.5z" />
    <glyph glyph-name="e.sups" unicode="&#x1d49;" horiz-adv-x="323" 
d="M215 387q-58 0 -93.5 35.5t-35.5 100.5q0 60 26 105t66.5 70.5t82.5 25.5q40 0 62.5 -17t32 -43.5t9.5 -56.5q0 -20 -4 -37t-9 -28h-209q-6 -52 16.5 -81t68.5 -29q21 0 39 8t34 18l19 -40q-22 -12 -49 -21.5t-56 -9.5zM150 581h162q2 8 2.5 15t0.5 14q0 27 -13.5 47.5
t-46.5 20.5q-31 0 -62.5 -26.5t-42.5 -70.5z" />
    <glyph glyph-name="g.sups" unicode="&#x1d4d;" horiz-adv-x="354" 
d="M180 244q-29 0 -60.5 11.5t-58.5 33.5l26 40q20 -16 45 -27t50 -11q38 0 63 26.5t36 70.5l13 54h-4q-24 -19 -51 -31t-57 -12q-43 0 -68.5 29.5t-25.5 82.5q0 59 25 107t65 77t86 29q23 0 42.5 -11.5t31.5 -35.5h4l13 39h46l-65 -330q-13 -66 -53.5 -104t-102.5 -38z
M201 447q23 0 50 13t49 37l26 134q-13 25 -28.5 35t-32.5 10q-30 0 -57 -22.5t-44.5 -58.5t-17.5 -76q0 -37 15.5 -54.5t39.5 -17.5z" />
    <glyph glyph-name="k.sups" unicode="&#x1d4f;" horiz-adv-x="325" 
d="M83 395l93 468h58l-63 -308h4l159 161h63l-128 -134l79 -187h-57l-62 154l-72 -71l-16 -83h-58z" />
    <glyph glyph-name="m.sups" unicode="&#x1d50;" horiz-adv-x="536" 
d="M83 395l63 321h47l-3 -46h4q24 23 51.5 38.5t55.5 15.5q38 0 54 -17.5t20 -42.5q29 26 58 43t57 17q41 0 58.5 -21.5t17.5 -60.5q0 -18 -6 -44l-40 -203h-57l39 196q2 11 3.5 20t1.5 17q0 47 -41 47q-17 0 -41.5 -15t-49.5 -43l-44 -222h-57l39 196q2 11 4 19.5t2 15.5
q0 49 -43 49q-38 0 -91 -58l-44 -222h-58z" />
    <glyph glyph-name="o.sups" unicode="&#x1d52;" horiz-adv-x="348" 
d="M204 387q-53 0 -85.5 34t-32.5 95q0 63 26 110t67.5 72.5t85.5 25.5q53 0 85.5 -33.5t32.5 -95.5q0 -63 -26 -110t-67 -72.5t-86 -25.5zM209 434q32 0 58 21.5t42 57.5t16 79q0 41 -16.5 63t-48.5 22q-31 0 -57.5 -21.5t-42.5 -57.5t-16 -79q0 -40 16.5 -62.5t48.5 -22.5
z" />
    <glyph glyph-name="p.sups" unicode="&#x1d56;" horiz-adv-x="359" 
d="M56 257l90 459h47l-1 -38h4q25 21 50.5 33.5t56.5 12.5q43 0 68.5 -30t25.5 -88q0 -61 -25.5 -110.5t-65.5 -79t-86 -29.5q-22 0 -42 11.5t-32 35.5h-4l-8 -71l-21 -106h-57zM284 676q-24 0 -49.5 -13t-48.5 -39l-28 -144q13 -25 28 -35.5t32 -10.5q30 0 58 23.5t45.5 61
t17.5 80.5q0 40 -16 58.5t-39 18.5z" />
    <glyph glyph-name="t.sups" unicode="&#x1d57;" horiz-adv-x="222" 
d="M187 387q-45 0 -62.5 22.5t-17.5 54.5q0 9 1.5 18t3.5 19l34 169h-47l8 44l50 2l24 89h48l-18 -89h86l-9 -46h-85l-35 -171q-1 -7 -1.5 -13.5t-0.5 -11.5q0 -41 36 -41q12 0 20 3t15 6l10 -43q-13 -4 -29.5 -8t-30.5 -4z" />
    <glyph glyph-name="u.sups" unicode="&#x1d58;" horiz-adv-x="355" 
d="M174 387q-41 0 -58.5 21.5t-17.5 60.5q0 11 2 21t4 22l40 204h58l-39 -196q-6 -24 -6 -36q0 -48 41 -48q23 0 46 14.5t51 43.5l44 222h58l-64 -321h-47l4 46h-4q-26 -22 -53 -38t-59 -16z" />
    <glyph glyph-name="v.sups" unicode="&#x1d5b;" horiz-adv-x="307" 
d="M149 395l-48 321h57l21 -180l11 -97h3l49 97l92 180h58l-174 -321h-69z" />
    <glyph glyph-name="c.sups" unicode="&#x1d9c;" horiz-adv-x="292" 
d="M210 387q-53 0 -88.5 34t-35.5 94q0 52 23.5 99.5t64.5 78.5t94 31q29 0 50.5 -10.5t37.5 -27.5l-34 -36q-13 14 -26 20.5t-32 6.5q-34 0 -61.5 -24t-43 -59.5t-15.5 -71.5q0 -44 23 -66t54 -22q20 0 36.5 7.5t30.5 16.5l20 -38q-16 -13 -41 -23t-57 -10z" />
    <glyph glyph-name="f.sups" unicode="&#x1da0;" horiz-adv-x="195" 
d="M90 395l55 275h-42l7 43l45 3l10 51q9 50 36.5 78.5t71.5 28.5q32 0 60 -17l-20 -41q-16 11 -36 11q-21 0 -35 -15.5t-20 -43.5l-10 -52h67l-9 -46h-68l-55 -275h-57z" />
    <glyph glyph-name="z.sups" unicode="&#x1dbb;" horiz-adv-x="279" 
d="M51 395l6 32l208 243h-142l9 46h217l-6 -33l-209 -242h164l-9 -46h-238z" />
    <glyph glyph-name="uni1E02" unicode="&#x1e02;" horiz-adv-x="583" 
d="M35 0l131 656h175q95 0 149 -37t54 -108q0 -44 -21.5 -78t-55 -56t-69.5 -30l-1 -4q51 -12 86 -44.5t35 -88.5q0 -73 -35.5 -119.5t-97.5 -68.5t-140 -22h-210zM187 374h94q94 0 139 35.5t45 90.5q0 45 -34.5 70t-108.5 25h-91zM124 61h114q94 0 149 34.5t55 110.5
q0 50 -38.5 80.5t-111.5 30.5h-116zM357 716q-19 0 -34 11.5t-15 33.5q0 24 17.5 41t40.5 17q20 0 34.5 -12t14.5 -34q0 -25 -17.5 -41t-40.5 -16z" />
    <glyph glyph-name="uni1E03" unicode="&#x1e03;" horiz-adv-x="536" 
d="M234 -12q-39 0 -69.5 20t-47.5 53h-3l-20 -61h-63l142 712h77l-39 -190l-22 -96h2q36 29 78 50.5t87 21.5q64 0 102 -45t38 -131q0 -70 -22 -130.5t-59 -106.5t-84 -71.5t-97 -25.5zM231 52q36 0 69.5 21t60 57.5t41.5 83t15 97.5q0 62 -24 92.5t-65 30.5
q-34 0 -74.5 -21t-75.5 -58l-46 -231q20 -38 45.5 -55t53.5 -17zM386 587q-19 0 -34 11.5t-15 33.5q0 25 17.5 41.5t40.5 16.5q20 0 34.5 -12t14.5 -34q0 -25 -17.5 -41t-40.5 -16z" />
    <glyph glyph-name="uni1E06" unicode="&#x1e06;" horiz-adv-x="583" 
d="M35 0l131 656h175q95 0 149 -37t54 -108q0 -44 -21.5 -78t-55 -56t-69.5 -30l-1 -4q51 -12 86 -44.5t35 -88.5q0 -73 -35.5 -119.5t-97.5 -68.5t-140 -22h-210zM187 374h94q94 0 139 35.5t45 90.5q0 45 -34.5 70t-108.5 25h-91zM124 61h114q94 0 149 34.5t55 110.5
q0 50 -38.5 80.5t-111.5 30.5h-116zM96 -160l10 54h254l-9 -54h-255z" />
    <glyph glyph-name="uni1E07" unicode="&#x1e07;" horiz-adv-x="536" 
d="M234 -12q-39 0 -69.5 20t-47.5 53h-3l-20 -61h-63l142 712h77l-39 -190l-22 -96h2q36 29 78 50.5t87 21.5q64 0 102 -45t38 -131q0 -70 -22 -130.5t-59 -106.5t-84 -71.5t-97 -25.5zM231 52q36 0 69.5 21t60 57.5t41.5 83t15 97.5q0 62 -24 92.5t-65 30.5
q-34 0 -74.5 -21t-75.5 -58l-46 -231q20 -38 45.5 -55t53.5 -17zM71 -160l10 54h254l-9 -54h-255z" />
    <glyph glyph-name="uni1E0A" unicode="&#x1e0a;" horiz-adv-x="592" 
d="M35 0l131 656h122q137 0 207.5 -67.5t70.5 -188.5q0 -119 -42.5 -209t-122 -140.5t-190.5 -50.5h-176zM125 64h86q85 0 147 42t95.5 117t33.5 172q0 93 -51.5 145.5t-150.5 52.5h-54zM389 716q-19 0 -34 11.5t-15 33.5q0 24 17.5 41t40.5 17q20 0 34.5 -12t14.5 -34
q0 -25 -17.5 -41t-40.5 -16z" />
    <glyph glyph-name="uni1E0B" unicode="&#x1e0b;" horiz-adv-x="535" 
d="M179 -12q-64 0 -102 45.5t-38 130.5q0 70 22 130.5t59 106.5t84 71.5t98 25.5q39 0 68 -19.5t47 -51.5h3l16 95l38 190h77l-144 -712h-63l8 72h-4q-35 -37 -79 -60.5t-90 -23.5zM207 52q38 0 77 23t76 70l44 217q-21 38 -46 55t-53 17q-36 0 -69.5 -21t-60 -57.5t-42 -83
t-15.5 -96.5q0 -63 24.5 -93.5t64.5 -30.5zM293 587q-19 0 -34 11.5t-15 33.5q0 25 17.5 41.5t40.5 16.5q20 0 34.5 -12t14.5 -34q0 -25 -17.5 -41t-40.5 -16z" />
    <glyph glyph-name="uni1E0C" unicode="&#x1e0c;" horiz-adv-x="592" 
d="M35 0l131 656h122q137 0 207.5 -67.5t70.5 -188.5q0 -119 -42.5 -209t-122 -140.5t-190.5 -50.5h-176zM125 64h86q85 0 147 42t95.5 117t33.5 172q0 93 -51.5 145.5t-150.5 52.5h-54zM219 -212q-19 0 -34 11.5t-15 33.5q0 25 17.5 41.5t40.5 16.5q20 0 34.5 -12t14.5 -34
q0 -25 -17.5 -41t-40.5 -16z" />
    <glyph glyph-name="uni1E0D" unicode="&#x1e0d;" horiz-adv-x="535" 
d="M179 -12q-64 0 -102 45.5t-38 130.5q0 70 22 130.5t59 106.5t84 71.5t98 25.5q39 0 68 -19.5t47 -51.5h3l16 95l38 190h77l-144 -712h-63l8 72h-4q-35 -37 -79 -60.5t-90 -23.5zM207 52q38 0 77 23t76 70l44 217q-21 38 -46 55t-53 17q-36 0 -69.5 -21t-60 -57.5t-42 -83
t-15.5 -96.5q0 -63 24.5 -93.5t64.5 -30.5zM174 -212q-19 0 -34 11.5t-15 33.5q0 25 17.5 41.5t40.5 16.5q20 0 34.5 -12t14.5 -34q0 -25 -17.5 -41t-40.5 -16z" />
    <glyph glyph-name="uni1E0E" unicode="&#x1e0e;" horiz-adv-x="592" 
d="M35 0l131 656h122q137 0 207.5 -67.5t70.5 -188.5q0 -119 -42.5 -209t-122 -140.5t-190.5 -50.5h-176zM125 64h86q85 0 147 42t95.5 117t33.5 172q0 93 -51.5 145.5t-150.5 52.5h-54zM97 -160l10 54h254l-9 -54h-255z" />
    <glyph glyph-name="uni1E0F" unicode="&#x1e0f;" horiz-adv-x="535" 
d="M179 -12q-64 0 -102 45.5t-38 130.5q0 70 22 130.5t59 106.5t84 71.5t98 25.5q39 0 68 -19.5t47 -51.5h3l16 95l38 190h77l-144 -712h-63l8 72h-4q-35 -37 -79 -60.5t-90 -23.5zM207 52q38 0 77 23t76 70l44 217q-21 38 -46 55t-53 17q-36 0 -69.5 -21t-60 -57.5t-42 -83
t-15.5 -96.5q0 -63 24.5 -93.5t64.5 -30.5zM52 -160l10 54h254l-9 -54h-255z" />
    <glyph glyph-name="uni1E16" unicode="&#x1e16;" horiz-adv-x="503" 
d="M35 0l131 656h362l-13 -65h-285l-42 -213h241l-14 -66h-239l-51 -246h294l-14 -66h-370zM240 729l11 54h256l-11 -54h-256zM388 827l-33 29l116 109l46 -40z" />
    <glyph glyph-name="uni1E17" unicode="&#x1e17;" horiz-adv-x="481" 
d="M228 -12q-86 0 -138.5 53t-52.5 150q0 69 22.5 125t60 97t83.5 63t94 22q55 0 87.5 -23t47.5 -63t15 -90q0 -28 -6 -53.5t-11 -39.5h-316q-9 -63 7 -103t49.5 -58.5t75.5 -18.5q29 0 57.5 12.5t51.5 29.5l30 -51q-29 -21 -69.5 -36.5t-87.5 -15.5zM122 281h255
q2 11 3.5 23t1.5 25q0 28 -9 52.5t-29.5 40t-55.5 15.5q-53 0 -100 -42.5t-66 -113.5zM192 601l10 54h254l-9 -54h-255zM341 708l-30 28l102 106l42 -38z" />
    <glyph glyph-name="uni1E1E" unicode="&#x1e1e;" horiz-adv-x="473" 
d="M35 0l131 656h362l-13 -65h-285l-45 -228h241l-13 -66h-240l-60 -297h-78zM375 716q-19 0 -34 11.5t-15 33.5q0 24 17.5 41t40.5 17q20 0 34.5 -12t14.5 -34q0 -25 -17.5 -41t-40.5 -16z" />
    <glyph glyph-name="uni1E1F" unicode="&#x1e1f;" horiz-adv-x="282" 
d="M43 0l85 424h-63l11 57l65 5l16 81q15 74 54 115.5t100 41.5q26 0 47 -6.5t39 -17.5l-27 -55q-10 7 -23.5 12t-30.5 5q-33 0 -53.5 -25t-28.5 -68l-17 -83h98l-12 -62h-99l-85 -424h-76zM316 760q-19 0 -34 11.5t-15 33.5q0 24 17.5 41t40.5 17q20 0 34.5 -12t14.5 -34
q0 -25 -17.5 -41t-40.5 -16z" />
    <glyph glyph-name="uni1E20" unicode="&#x1e20;" horiz-adv-x="588" 
d="M300 -12q-118 0 -180.5 72.5t-62.5 192.5q0 78 24 152t69.5 133.5t110 94.5t145.5 35q59 0 99.5 -27.5t65.5 -69.5l-55 -41q-19 32 -46.5 51.5t-67.5 19.5q-62 0 -111 -30.5t-83.5 -80.5t-52.5 -110t-18 -120q0 -58 17.5 -105t55.5 -74t101 -27q36 0 64.5 12t47.5 28
l37 181h-136l13 64h206l-57 -284q-36 -30 -83 -48.5t-103 -18.5zM288 729l11 54h256l-11 -54h-256z" />
    <glyph glyph-name="uni1E21" unicode="&#x1e21;" horiz-adv-x="531" 
d="M171 -220q-49 0 -92 19t-78 48l36 53q28 -23 62.5 -40t74.5 -17q62 0 99 38t51 102l25 104q-38 -38 -80 -60t-89 -22q-61 0 -101 43t-40 128q0 67 21.5 125t58 102.5t82.5 69.5t95 25q38 0 69 -20t48 -53h3l19 61h63l-102 -509q-19 -95 -76.5 -146t-148.5 -51zM205 69
q35 0 75.5 21.5t74.5 63.5l43 208q-22 38 -46.5 55t-52.5 17q-35 0 -67.5 -20.5t-58 -55.5t-40.5 -79t-15 -92q0 -59 23.5 -88.5t63.5 -29.5zM200 601l10 54h254l-9 -54h-255z" />
    <glyph glyph-name="uni1E24" unicode="&#x1e24;" horiz-adv-x="622" 
d="M35 0l131 656h78l-56 -277h296l56 277h77l-131 -656h-78l63 312h-296l-62 -312h-78zM242 -212q-19 0 -34 11.5t-15 33.5q0 25 17.5 41.5t40.5 16.5q20 0 34.5 -12t14.5 -34q0 -25 -17.5 -41t-40.5 -16z" />
    <glyph glyph-name="uni1E25" unicode="&#x1e25;" horiz-adv-x="523" 
d="M31 0l142 712h77l-48 -235l-16 -61h4q41 35 82 58.5t85 23.5q62 0 88.5 -32.5t26.5 -88.5q0 -31 -8 -67l-62 -310h-76l60 300q4 20 6 32t2 25q0 75 -72 75q-28 0 -64 -21t-82 -67l-69 -344h-76zM190 -212q-19 0 -34 11.5t-15 33.5q0 25 17.5 41.5t40.5 16.5
q20 0 34.5 -12t14.5 -34q0 -25 -17.5 -41t-40.5 -16z" />
    <glyph glyph-name="uni1E2A" unicode="&#x1e2a;" horiz-adv-x="622" 
d="M35 0l131 656h78l-56 -277h296l56 277h77l-131 -656h-78l63 312h-296l-62 -312h-78zM233 -225q-52 0 -81.5 22.5t-40 57t-7.5 71.5l54 8q-2 -25 6 -49t28 -39.5t52 -15.5t56.5 15.5t41 39.5t25.5 49l50 -8q-9 -37 -31.5 -71.5t-60.5 -57t-92 -22.5z" />
    <glyph glyph-name="uni1E2B" unicode="&#x1e2b;" horiz-adv-x="523" 
d="M31 0l142 712h77l-48 -235l-16 -61h4q41 35 82 58.5t85 23.5q62 0 88.5 -32.5t26.5 -88.5q0 -31 -8 -67l-62 -310h-76l60 300q4 20 6 32t2 25q0 75 -72 75q-28 0 -64 -21t-82 -67l-69 -344h-76zM181 -225q-52 0 -81.5 22.5t-40 57t-7.5 71.5l54 8q-2 -25 6 -49t28 -39.5
t52 -15.5t56.5 15.5t41 39.5t25.5 49l50 -8q-9 -37 -31.5 -71.5t-60.5 -57t-92 -22.5z" />
    <glyph glyph-name="uni1E32" unicode="&#x1e32;" horiz-adv-x="559" 
d="M35 0l131 656h78l-65 -324h3l329 324h88l-246 -252l149 -404h-81l-126 354l-137 -134l-45 -220h-78zM243 -212q-19 0 -34 11.5t-15 33.5q0 25 17.5 41.5t40.5 16.5q20 0 34.5 -12t14.5 -34q0 -25 -17.5 -41t-40.5 -16z" />
    <glyph glyph-name="uni1E33" unicode="&#x1e33;" horiz-adv-x="476" 
d="M31 0l142 712h77l-96 -483h2l249 257h88l-194 -203l117 -283h-78l-93 237l-112 -114l-26 -123h-76zM187 -212q-19 0 -34 11.5t-15 33.5q0 25 17.5 41.5t40.5 16.5q20 0 34.5 -12t14.5 -34q0 -25 -17.5 -41t-40.5 -16z" />
    <glyph glyph-name="uni1E34" unicode="&#x1e34;" horiz-adv-x="559" 
d="M35 0l131 656h78l-65 -324h3l329 324h88l-246 -252l149 -404h-81l-126 354l-137 -134l-45 -220h-78zM121 -160l10 54h254l-9 -54h-255z" />
    <glyph glyph-name="uni1E35" unicode="&#x1e35;" horiz-adv-x="476" 
d="M31 0l142 712h77l-96 -483h2l249 257h88l-194 -203l117 -283h-78l-93 237l-112 -114l-26 -123h-76zM65 -160l10 54h254l-9 -54h-255z" />
    <glyph glyph-name="uni1E36" unicode="&#x1e36;" horiz-adv-x="462" 
d="M35 0l131 656h78l-118 -590h276l-13 -66h-354zM186 -212q-19 0 -34 11.5t-15 33.5q0 25 17.5 41.5t40.5 16.5q20 0 34.5 -12t14.5 -34q0 -25 -17.5 -41t-40.5 -16z" />
    <glyph glyph-name="uni1E37" unicode="&#x1e37;" horiz-adv-x="248" 
d="M109 -12q-65 0 -65 63q0 17 6 42l123 619h77l-125 -623q-1 -7 -1.5 -11.5t-0.5 -7.5q0 -18 17 -18q3 0 6 0.5t10 2.5l1 -59q-10 -4 -21 -6t-27 -2zM53 -212q-19 0 -34 11.5t-15 33.5q0 25 17.5 41.5t40.5 16.5q20 0 34.5 -12t14.5 -34q0 -25 -17.5 -41t-40.5 -16z" />
    <glyph glyph-name="uni1E38" unicode="&#x1e38;" horiz-adv-x="462" 
d="M35 0l131 656h78l-118 -590h276l-13 -66h-354zM104 729l11 54h256l-11 -54h-256zM186 -212q-19 0 -34 11.5t-15 33.5q0 25 17.5 41.5t40.5 16.5q20 0 34.5 -12t14.5 -34q0 -25 -17.5 -41t-40.5 -16z" />
    <glyph glyph-name="uni1E39" unicode="&#x1e39;" horiz-adv-x="248" 
d="M109 -12q-65 0 -65 63q0 17 6 42l123 619h77l-125 -623q-1 -7 -1.5 -11.5t-0.5 -7.5q0 -18 17 -18q3 0 6 0.5t10 2.5l1 -59q-10 -4 -21 -6t-27 -2zM85 767l11 54h256l-11 -54h-256zM53 -217q-19 0 -34 11.5t-15 33.5q0 25 17.5 41.5t40.5 16.5q20 0 34.5 -12t14.5 -34
q0 -25 -17.5 -41t-40.5 -16z" />
    <glyph glyph-name="uni1E3A" unicode="&#x1e3a;" horiz-adv-x="462" 
d="M35 0l131 656h78l-118 -590h276l-13 -66h-354zM64 -160l10 54h254l-9 -54h-255z" />
    <glyph glyph-name="uni1E3B" unicode="&#x1e3b;" horiz-adv-x="248" 
d="M109 -12q-65 0 -65 63q0 17 6 42l123 619h77l-125 -623q-1 -7 -1.5 -11.5t-0.5 -7.5q0 -18 17 -18q3 0 6 0.5t10 2.5l1 -59q-10 -4 -21 -6t-27 -2zM-69 -160l10 54h254l-9 -54h-255z" />
    <glyph glyph-name="uni1E3E" unicode="&#x1e3e;" horiz-adv-x="705" 
d="M35 0l131 656h93l57 -354l22 -136h4l70 136l195 354h93l-131 -656h-75l76 370q9 44 22 97t25 96h-4l-79 -146l-193 -348h-44l-61 348l-22 146h-4q-6 -44 -13 -96.5t-15 -96.5l-74 -370h-73zM404 703l-30 44l165 116l37 -60z" />
    <glyph glyph-name="uni1E3F" unicode="&#x1e3f;" horiz-adv-x="799" 
d="M31 0l97 486h63l-7 -73h4q38 36 79.5 60.5t79.5 24.5q58 0 82.5 -27.5t29.5 -67.5q47 44 91 69.5t81 25.5q61 0 88 -32.5t27 -88.5q0 -17 -2 -32t-6 -35l-62 -310h-77l61 300q4 20 6 32t2 25q0 75 -71 75q-21 0 -57 -21t-80 -67l-69 -344h-76l60 300q4 20 6 32t2 25
q0 75 -70 75q-22 0 -58 -21t-79 -67l-69 -344h-76zM457 579l-35 45l168 153l47 -60z" />
    <glyph glyph-name="uni1E40" unicode="&#x1e40;" horiz-adv-x="705" 
d="M35 0l131 656h93l57 -354l22 -136h4l70 136l195 354h93l-131 -656h-75l76 370q9 44 22 97t25 96h-4l-79 -146l-193 -348h-44l-61 348l-22 146h-4q-6 -44 -13 -96.5t-15 -96.5l-74 -370h-73zM442 716q-19 0 -34 11.5t-15 33.5q0 24 17.5 41t40.5 17q20 0 34.5 -12
t14.5 -34q0 -25 -17.5 -41t-40.5 -16z" />
    <glyph glyph-name="uni1E41" unicode="&#x1e41;" horiz-adv-x="799" 
d="M31 0l97 486h63l-7 -73h4q38 36 79.5 60.5t79.5 24.5q58 0 82.5 -27.5t29.5 -67.5q47 44 91 69.5t81 25.5q61 0 88 -32.5t27 -88.5q0 -17 -2 -32t-6 -35l-62 -310h-77l61 300q4 20 6 32t2 25q0 75 -71 75q-21 0 -57 -21t-80 -67l-69 -344h-76l60 300q4 20 6 32t2 25
q0 75 -70 75q-22 0 -58 -21t-79 -67l-69 -344h-76zM489 587q-19 0 -34 11.5t-15 33.5q0 25 17.5 41.5t40.5 16.5q20 0 34.5 -12t14.5 -34q0 -25 -17.5 -41t-40.5 -16z" />
    <glyph glyph-name="uni1E42" unicode="&#x1e42;" horiz-adv-x="705" 
d="M35 0l131 656h93l57 -354l22 -136h4l70 136l195 354h93l-131 -656h-75l76 370q9 44 22 97t25 96h-4l-79 -146l-193 -348h-44l-61 348l-22 146h-4q-6 -44 -13 -96.5t-15 -96.5l-74 -370h-73zM273 -220q-19 0 -34 11.5t-15 33.5q0 25 17.5 41.5t40.5 16.5q20 0 34.5 -12
t14.5 -34q0 -25 -17.5 -41t-40.5 -16z" />
    <glyph glyph-name="uni1E43" unicode="&#x1e43;" horiz-adv-x="799" 
d="M31 0l97 486h63l-7 -73h4q38 36 79.5 60.5t79.5 24.5q58 0 82.5 -27.5t29.5 -67.5q47 44 91 69.5t81 25.5q61 0 88 -32.5t27 -88.5q0 -17 -2 -32t-6 -35l-62 -310h-77l61 300q4 20 6 32t2 25q0 75 -71 75q-21 0 -57 -21t-80 -67l-69 -344h-76l60 300q4 20 6 32t2 25
q0 75 -70 75q-22 0 -58 -21t-79 -67l-69 -344h-76zM327 -212q-19 0 -34 11.5t-15 33.5q0 25 17.5 41.5t40.5 16.5q20 0 34.5 -12t14.5 -34q0 -25 -17.5 -41t-40.5 -16z" />
    <glyph glyph-name="uni1E44" unicode="&#x1e44;" horiz-adv-x="619" 
d="M35 0l131 656h78l150 -420l42 -137h4q6 49 13 103.5t17 105.5l69 348h75l-131 -656h-77l-148 419l-43 141h-4q-6 -51 -13.5 -104t-17.5 -103l-70 -353h-75zM412 716q-19 0 -34 11.5t-15 33.5q0 24 17.5 41t40.5 17q20 0 34.5 -12t14.5 -34q0 -25 -17.5 -41t-40.5 -16z
" />
    <glyph glyph-name="uni1E45" unicode="&#x1e45;" horiz-adv-x="525" 
d="M31 0l97 486h63l-7 -73h4q41 36 82 60.5t87 24.5q62 0 88.5 -32.5t26.5 -88.5q0 -31 -8 -67l-62 -310h-76l60 300q4 20 6 32t2 25q0 75 -72 75q-28 0 -64 -21t-82 -67l-69 -344h-76zM352 587q-19 0 -34 11.5t-15 33.5q0 25 17.5 41.5t40.5 16.5q20 0 34.5 -12t14.5 -34
q0 -25 -17.5 -41t-40.5 -16z" />
    <glyph glyph-name="uni1E46" unicode="&#x1e46;" horiz-adv-x="619" 
d="M35 0l131 656h78l150 -420l42 -137h4q6 49 13 103.5t17 105.5l69 348h75l-131 -656h-77l-148 419l-43 141h-4q-6 -51 -13.5 -104t-17.5 -103l-70 -353h-75zM232 -220q-19 0 -34 11.5t-15 33.5q0 25 17.5 41.5t40.5 16.5q20 0 34.5 -12t14.5 -34q0 -25 -17.5 -41
t-40.5 -16z" />
    <glyph glyph-name="uni1E47" unicode="&#x1e47;" horiz-adv-x="525" 
d="M31 0l97 486h63l-7 -73h4q41 36 82 60.5t87 24.5q62 0 88.5 -32.5t26.5 -88.5q0 -31 -8 -67l-62 -310h-76l60 300q4 20 6 32t2 25q0 75 -72 75q-28 0 -64 -21t-82 -67l-69 -344h-76zM191 -212q-19 0 -34 11.5t-15 33.5q0 25 17.5 41.5t40.5 16.5q20 0 34.5 -12t14.5 -34
q0 -25 -17.5 -41t-40.5 -16z" />
    <glyph glyph-name="uni1E48" unicode="&#x1e48;" horiz-adv-x="619" 
d="M35 0l131 656h78l150 -420l42 -137h4q6 49 13 103.5t17 105.5l69 348h75l-131 -656h-77l-148 419l-43 141h-4q-6 -51 -13.5 -104t-17.5 -103l-70 -353h-75zM110 -168l10 54h254l-9 -54h-255z" />
    <glyph glyph-name="uni1E49" unicode="&#x1e49;" horiz-adv-x="525" 
d="M31 0l97 486h63l-7 -73h4q41 36 82 60.5t87 24.5q62 0 88.5 -32.5t26.5 -88.5q0 -31 -8 -67l-62 -310h-76l60 300q4 20 6 32t2 25q0 75 -72 75q-28 0 -64 -21t-82 -67l-69 -344h-76zM69 -160l10 54h254l-9 -54h-255z" />
    <glyph glyph-name="uni1E52" unicode="&#x1e52;" horiz-adv-x="633" 
d="M287 -12q-110 0 -168.5 75.5t-58.5 199.5q0 75 23 147t66 130.5t101.5 93t128.5 34.5q74 0 124.5 -34t76.5 -95.5t26 -144.5q0 -75 -23 -147.5t-66 -131t-101 -93t-129 -34.5zM291 55q53 0 96.5 30t74.5 79t48 107.5t17 115.5q0 97 -37 155.5t-115 58.5
q-53 0 -96.5 -29.5t-74.5 -78.5t-48 -107.5t-17 -116.5q0 -96 36.5 -155t115.5 -59zM287 729l11 54h256l-11 -54h-256zM435 827l-33 29l116 109l46 -40z" />
    <glyph glyph-name="uni1E53" unicode="&#x1e53;" horiz-adv-x="515" 
d="M212 -12q-79 0 -126 52t-47 143q0 69 22 126.5t59 100t84 65.5t97 23q79 0 126.5 -52t47.5 -143q0 -69 -22 -126.5t-59.5 -100t-84.5 -65.5t-97 -23zM220 52q45 0 85.5 33t66 89t25.5 124q0 66 -27 101.5t-77 35.5q-45 0 -85.5 -33.5t-66 -89.5t-25.5 -124q0 -66 27 -101
t77 -35zM207 601l10 54h254l-9 -54h-255zM356 708l-30 28l102 106l42 -38z" />
    <glyph glyph-name="uni1E56" unicode="&#x1e56;" horiz-adv-x="550" 
d="M35 0l131 656h185q92 0 149 -37t57 -123q0 -80 -37 -131.5t-101.5 -76t-148.5 -24.5h-105l-52 -264h-78zM178 327h95q101 0 154 40t53 119q0 57 -38 82.5t-110 25.5h-101zM391 716q-19 0 -34 11.5t-15 33.5q0 24 17.5 41t40.5 17q20 0 34.5 -12t14.5 -34q0 -25 -17.5 -41
t-40.5 -16z" />
    <glyph glyph-name="uni1E57" unicode="&#x1e57;" horiz-adv-x="535" 
d="M-10 -205l138 691h63l-6 -64h3q37 31 79.5 53.5t88.5 22.5q64 0 102 -45.5t38 -130.5q0 -70 -22 -130.5t-59 -106.5t-84 -71.5t-97 -25.5q-38 0 -68 19.5t-49 50.5h-2l-18 -104l-31 -159h-76zM231 52q36 0 69.5 21t60 57.5t41.5 83t15 97.5q0 62 -24 92.5t-65 30.5
q-34 0 -74.5 -21t-75.5 -59l-46 -232q20 -37 45.5 -53.5t53.5 -16.5zM351 587q-19 0 -34 11.5t-15 33.5q0 25 17.5 41.5t40.5 16.5q20 0 34.5 -12t14.5 -34q0 -25 -17.5 -41t-40.5 -16z" />
    <glyph glyph-name="uni1E58" unicode="&#x1e58;" horiz-adv-x="555" 
d="M35 0l131 656h180q92 0 148.5 -35t56.5 -118q0 -91 -55 -146t-138 -72l115 -285h-83l-108 278h-114l-55 -278h-78zM181 341h99q94 0 144 41t50 111q0 54 -37.5 77.5t-109.5 23.5h-96zM385 716q-19 0 -34 11.5t-15 33.5q0 24 17.5 41t40.5 17q20 0 34.5 -12t14.5 -34
q0 -25 -17.5 -41t-40.5 -16z" />
    <glyph glyph-name="uni1E59" unicode="&#x1e59;" horiz-adv-x="342" 
d="M31 0l97 486h63l-11 -93h4q29 44 67 74.5t83 30.5q25 0 46 -9l-27 -68q-16 8 -42 8q-36 0 -74 -31.5t-69 -90.5l-61 -307h-76zM273 587q-19 0 -34 11.5t-15 33.5q0 25 17.5 41.5t40.5 16.5q20 0 34.5 -12t14.5 -34q0 -25 -17.5 -41t-40.5 -16z" />
    <glyph glyph-name="uni1E5A" unicode="&#x1e5a;" horiz-adv-x="555" 
d="M35 0l131 656h180q92 0 148.5 -35t56.5 -118q0 -91 -55 -146t-138 -72l115 -285h-83l-108 278h-114l-55 -278h-78zM181 341h99q94 0 144 41t50 111q0 54 -37.5 77.5t-109.5 23.5h-96zM225 -220q-19 0 -34 11.5t-15 33.5q0 25 17.5 41.5t40.5 16.5q20 0 34.5 -12t14.5 -34
q0 -25 -17.5 -41t-40.5 -16z" />
    <glyph glyph-name="uni1E5B" unicode="&#x1e5b;" horiz-adv-x="342" 
d="M31 0l97 486h63l-11 -93h4q29 44 67 74.5t83 30.5q25 0 46 -9l-27 -68q-16 8 -42 8q-36 0 -74 -31.5t-69 -90.5l-61 -307h-76zM38 -212q-19 0 -34 11.5t-15 33.5q0 25 17.5 41.5t40.5 16.5q20 0 34.5 -12t14.5 -34q0 -25 -17.5 -41t-40.5 -16z" />
    <glyph glyph-name="uni1E5C" unicode="&#x1e5c;" horiz-adv-x="555" 
d="M35 0l131 656h180q92 0 148.5 -35t56.5 -118q0 -91 -55 -146t-138 -72l115 -285h-83l-108 278h-114l-55 -278h-78zM181 341h99q94 0 144 41t50 111q0 54 -37.5 77.5t-109.5 23.5h-96zM253 729l11 54h256l-11 -54h-256zM225 -220q-19 0 -34 11.5t-15 33.5q0 25 17.5 41.5
t40.5 16.5q20 0 34.5 -12t14.5 -34q0 -25 -17.5 -41t-40.5 -16z" />
    <glyph glyph-name="uni1E5D" unicode="&#x1e5d;" horiz-adv-x="342" 
d="M31 0l97 486h63l-11 -93h4q29 44 67 74.5t83 30.5q25 0 46 -9l-27 -68q-16 8 -42 8q-36 0 -74 -31.5t-69 -90.5l-61 -307h-76zM144 601l10 54h254l-9 -54h-255zM38 -212q-19 0 -34 11.5t-15 33.5q0 25 17.5 41.5t40.5 16.5q20 0 34.5 -12t14.5 -34q0 -25 -17.5 -41
t-40.5 -16z" />
    <glyph glyph-name="uni1E5E" unicode="&#x1e5e;" horiz-adv-x="555" 
d="M35 0l131 656h180q92 0 148.5 -35t56.5 -118q0 -91 -55 -146t-138 -72l115 -285h-83l-108 278h-114l-55 -278h-78zM181 341h99q94 0 144 41t50 111q0 54 -37.5 77.5t-109.5 23.5h-96zM103 -168l10 54h254l-9 -54h-255z" />
    <glyph glyph-name="uni1E5F" unicode="&#x1e5f;" horiz-adv-x="342" 
d="M31 0l97 486h63l-11 -93h4q29 44 67 74.5t83 30.5q25 0 46 -9l-27 -68q-16 8 -42 8q-36 0 -74 -31.5t-69 -90.5l-61 -307h-76zM-84 -160l10 54h254l-9 -54h-255z" />
    <glyph glyph-name="uni1E60" unicode="&#x1e60;" horiz-adv-x="506" 
d="M231 -12q-67 0 -123 29t-96 87l57 43q29 -43 71.5 -68t97.5 -25q60 0 100.5 34t40.5 90q0 36 -22.5 61t-59.5 47l-76 46q-42 26 -71.5 62.5t-29.5 91.5q0 50 26.5 91t72.5 66t105 25t107 -26t79 -66l-51 -46q-25 30 -60 50.5t-81 20.5q-37 0 -63.5 -15.5t-41 -39.5
t-14.5 -51q0 -38 24.5 -61.5t60.5 -45.5l76 -45q47 -28 73 -63.5t26 -90.5q0 -58 -29.5 -103.5t-80.5 -71.5t-118 -26zM365 718q-19 0 -34 11.5t-15 33.5q0 24 17.5 41t40.5 17q20 0 34.5 -12t14.5 -34q0 -25 -17.5 -41t-40.5 -16z" />
    <glyph glyph-name="uni1E61" unicode="&#x1e61;" horiz-adv-x="402" 
d="M163 -12q-49 0 -95.5 26t-71.5 66l48 38q23 -31 55 -51t70 -20q42 0 72.5 23t30.5 58q0 26 -20.5 45.5t-76.5 50.5q-46 26 -74.5 57t-28.5 72q0 43 22 75.5t58.5 51t80.5 18.5q46 0 83 -18t65 -48l-46 -40q-19 20 -44.5 33t-58.5 13q-38 0 -62.5 -22.5t-24.5 -53.5
q0 -30 27 -49t59 -37q62 -34 88 -64t26 -74q0 -45 -24 -79t-65 -52.5t-93 -18.5zM274 587q-19 0 -34 11.5t-15 33.5q0 25 17.5 41.5t40.5 16.5q20 0 34.5 -12t14.5 -34q0 -25 -17.5 -41t-40.5 -16z" />
    <glyph glyph-name="uni1E62" unicode="&#x1e62;" horiz-adv-x="506" 
d="M231 -12q-67 0 -123 29t-96 87l57 43q29 -43 71.5 -68t97.5 -25q60 0 100.5 34t40.5 90q0 36 -22.5 61t-59.5 47l-76 46q-42 26 -71.5 62.5t-29.5 91.5q0 50 26.5 91t72.5 66t105 25t107 -26t79 -66l-51 -46q-25 30 -60 50.5t-81 20.5q-37 0 -63.5 -15.5t-41 -39.5
t-14.5 -51q0 -38 24.5 -61.5t60.5 -45.5l76 -45q47 -28 73 -63.5t26 -90.5q0 -58 -29.5 -103.5t-80.5 -71.5t-118 -26zM184 -220q-19 0 -34 11.5t-15 33.5q0 25 17.5 41.5t40.5 16.5q20 0 34.5 -12t14.5 -34q0 -25 -17.5 -41t-40.5 -16z" />
    <glyph glyph-name="uni1E63" unicode="&#x1e63;" horiz-adv-x="402" 
d="M163 -12q-49 0 -95.5 26t-71.5 66l48 38q23 -31 55 -51t70 -20q42 0 72.5 23t30.5 58q0 26 -20.5 45.5t-76.5 50.5q-46 26 -74.5 57t-28.5 72q0 43 22 75.5t58.5 51t80.5 18.5q46 0 83 -18t65 -48l-46 -40q-19 20 -44.5 33t-58.5 13q-38 0 -62.5 -22.5t-24.5 -53.5
q0 -30 27 -49t59 -37q62 -34 88 -64t26 -74q0 -45 -24 -79t-65 -52.5t-93 -18.5zM132 -212q-19 0 -34 11.5t-15 33.5q0 25 17.5 41.5t40.5 16.5q20 0 34.5 -12t14.5 -34q0 -25 -17.5 -41t-40.5 -16z" />
    <glyph glyph-name="uni1E6A" unicode="&#x1e6a;" horiz-adv-x="510" 
d="M166 0l117 589h-190l13 67h459l-13 -67h-191l-117 -589h-78zM354 716q-19 0 -34 11.5t-15 33.5q0 24 17.5 41t40.5 17q20 0 34.5 -12t14.5 -34q0 -25 -17.5 -41t-40.5 -16z" />
    <glyph glyph-name="uni1E6B" unicode="&#x1e6b;" horiz-adv-x="325" 
d="M185 -12q-64 0 -90 31.5t-26 76.5q0 15 2 28t3 26l57 274h-71l11 57l76 5l36 134h65l-27 -134h123l-12 -62h-125l-57 -278q-3 -18 -3 -36q0 -30 14 -45t48 -15q14 0 27 5t24 10l17 -55q-16 -7 -39.5 -14.5t-52.5 -7.5zM236 723q-19 0 -34 11.5t-15 33.5q0 25 17.5 41.5
t40.5 16.5q20 0 34.5 -12t14.5 -34q0 -25 -17.5 -41t-40.5 -16z" />
    <glyph glyph-name="uni1E6C" unicode="&#x1e6c;" horiz-adv-x="510" 
d="M166 0l117 589h-190l13 67h459l-13 -67h-191l-117 -589h-78zM174 -212q-19 0 -34 11.5t-15 33.5q0 25 17.5 41.5t40.5 16.5q20 0 34.5 -12t14.5 -34q0 -25 -17.5 -41t-40.5 -16z" />
    <glyph glyph-name="uni1E6D" unicode="&#x1e6d;" horiz-adv-x="325" 
d="M185 -12q-64 0 -90 31.5t-26 76.5q0 15 2 28t3 26l57 274h-71l11 57l76 5l36 134h65l-27 -134h123l-12 -62h-125l-57 -278q-3 -18 -3 -36q0 -30 14 -45t48 -15q14 0 27 5t24 10l17 -55q-16 -7 -39.5 -14.5t-52.5 -7.5zM128 -212q-19 0 -34 11.5t-15 33.5q0 25 17.5 41.5
t40.5 16.5q20 0 34.5 -12t14.5 -34q0 -25 -17.5 -41t-40.5 -16z" />
    <glyph glyph-name="uni1E6E" unicode="&#x1e6e;" horiz-adv-x="510" 
d="M166 0l117 589h-190l13 67h459l-13 -67h-191l-117 -589h-78zM52 -160l10 54h254l-9 -54h-255z" />
    <glyph glyph-name="uni1E6F" unicode="&#x1e6f;" horiz-adv-x="325" 
d="M185 -12q-64 0 -90 31.5t-26 76.5q0 15 2 28t3 26l57 274h-71l11 57l76 5l36 134h65l-27 -134h123l-12 -62h-125l-57 -278q-3 -18 -3 -36q0 -30 14 -45t48 -15q14 0 27 5t24 10l17 -55q-16 -7 -39.5 -14.5t-52.5 -7.5zM6 -160l10 54h254l-9 -54h-255z" />
    <glyph glyph-name="Wgrave" unicode="&#x1e80;" horiz-adv-x="756" 
d="M95 0l9 656h80l-10 -361q-3 -52 -4.5 -106t-5.5 -107h4q23 53 47 107t46 106l164 361h71l9 -361q1 -52 1 -105.5v-107.5h4q20 54 41.5 107.5t41.5 105.5l142 361h77l-270 -656h-99l-7 401q0 36 1 75.5t2 78.5h-4q-14 -39 -30.5 -77t-33.5 -77l-179 -401h-97zM492 693
l-134 127l55 50l122 -140z" />
    <glyph glyph-name="wgrave" unicode="&#x1e81;" horiz-adv-x="707" 
d="M105 0l-35 486h76l16 -286q1 -34 1.5 -68t1.5 -68h4q15 34 28.5 68t29.5 68l128 286h75l17 -286q2 -34 3 -68l2 -68h4q14 34 27 68t29 68l127 286h72l-221 -486h-95l-14 266q-1 35 -1.5 71t-1.5 72h-4q-15 -36 -29.5 -72t-29.5 -71l-118 -266h-92zM445 570l-132 164
l66 49l114 -177z" />
    <glyph glyph-name="Wacute" unicode="&#x1e82;" horiz-adv-x="756" 
d="M95 0l9 656h80l-10 -361q-3 -52 -4.5 -106t-5.5 -107h4q23 53 47 107t46 106l164 361h71l9 -361q1 -52 1 -105.5v-107.5h4q20 54 41.5 107.5t41.5 105.5l142 361h77l-270 -656h-99l-7 401q0 36 1 75.5t2 78.5h-4q-14 -39 -30.5 -77t-33.5 -77l-179 -401h-97zM442 703
l-30 44l165 116l37 -60z" />
    <glyph glyph-name="wacute" unicode="&#x1e83;" horiz-adv-x="707" 
d="M105 0l-35 486h76l16 -286q1 -34 1.5 -68t1.5 -68h4q15 34 28.5 68t29.5 68l128 286h75l17 -286q2 -34 3 -68l2 -68h4q14 34 27 68t29 68l127 286h72l-221 -486h-95l-14 266q-1 35 -1.5 71t-1.5 72h-4q-15 -36 -29.5 -72t-29.5 -71l-118 -266h-92zM384 579l-35 45
l168 153l47 -60z" />
    <glyph glyph-name="Wdieresis" unicode="&#x1e84;" horiz-adv-x="756" 
d="M95 0l9 656h80l-10 -361q-3 -52 -4.5 -106t-5.5 -107h4q23 53 47 107t46 106l164 361h71l9 -361q1 -52 1 -105.5v-107.5h4q20 54 41.5 107.5t41.5 105.5l142 361h77l-270 -656h-99l-7 401q0 36 1 75.5t2 78.5h-4q-14 -39 -30.5 -77t-33.5 -77l-179 -401h-97zM385 715
q-17 0 -28.5 10.5t-11.5 29.5q0 22 15 38.5t36 16.5q17 0 28.5 -10.5t11.5 -30.5q0 -21 -15 -37.5t-36 -16.5zM571 715q-17 0 -28.5 10.5t-11.5 29.5q0 22 15 38.5t36 16.5q17 0 28 -10.5t11 -30.5q0 -21 -14.5 -37.5t-35.5 -16.5z" />
    <glyph glyph-name="wdieresis" unicode="&#x1e85;" horiz-adv-x="707" 
d="M105 0l-35 486h76l16 -286q1 -34 1.5 -68t1.5 -68h4q15 34 28.5 68t29.5 68l128 286h75l17 -286q2 -34 3 -68l2 -68h4q14 34 27 68t29 68l127 286h72l-221 -486h-95l-14 266q-1 35 -1.5 71t-1.5 72h-4q-15 -36 -29.5 -72t-29.5 -71l-118 -266h-92zM323 589
q-17 0 -28.5 10.5t-11.5 29.5q0 23 15 39t36 16q18 0 29.5 -11t11.5 -31q0 -22 -15.5 -37.5t-36.5 -15.5zM509 589q-17 0 -28.5 10.5t-11.5 29.5q0 23 15 39t36 16q18 0 29 -11t11 -31q0 -22 -15 -37.5t-36 -15.5z" />
    <glyph glyph-name="uni1E8E" unicode="&#x1e8e;" horiz-adv-x="461" 
d="M139 0l51 256l-107 400h80l45 -189q9 -36 16.5 -70.5t16.5 -72.5h3q23 37 45 72.5t46 71.5l124 188h83l-274 -400l-52 -256h-77zM330 716q-19 0 -34 11.5t-15 33.5q0 24 17.5 41t40.5 17q20 0 34.5 -12t14.5 -34q0 -25 -17.5 -41t-40.5 -16z" />
    <glyph glyph-name="uni1E8F" unicode="&#x1e8f;" horiz-adv-x="448" 
d="M-6 -209q-10 0 -26 3.5t-30 10.5l25 57q18 -9 36 -9q37 0 69.5 30.5t57.5 80.5l18 35l-83 487h76l38 -273q5 -33 9 -71.5t7 -73.5h4q17 35 35.5 73t36.5 72l140 273h76l-286 -527q-25 -47 -54.5 -85.5t-65.5 -60.5t-83 -22zM288 587q-19 0 -34 11.5t-15 33.5
q0 25 17.5 41.5t40.5 16.5q20 0 34.5 -12t14.5 -34q0 -25 -17.5 -41t-40.5 -16z" />
    <glyph glyph-name="uni1E92" unicode="&#x1e92;" horiz-adv-x="512" 
d="M-1 0l10 47l425 544h-300l14 65h393l-10 -46l-422 -544h331l-15 -66h-426zM182 -220q-19 0 -34 11.5t-15 33.5q0 25 17.5 41.5t40.5 16.5q20 0 34.5 -12t14.5 -34q0 -25 -17.5 -41t-40.5 -16z" />
    <glyph glyph-name="uni1E93" unicode="&#x1e93;" horiz-adv-x="410" 
d="M-10 0l8 44l323 380h-221l13 62h317l-8 -45l-323 -379h254l-12 -62h-351zM142 -212q-19 0 -34 11.5t-15 33.5q0 25 17.5 41.5t40.5 16.5q20 0 34.5 -12t14.5 -34q0 -25 -17.5 -41t-40.5 -16z" />
    <glyph glyph-name="uni1E94" unicode="&#x1e94;" horiz-adv-x="512" 
d="M-1 0l10 47l425 544h-300l14 65h393l-10 -46l-422 -544h331l-15 -66h-426zM61 -168l10 54h254l-9 -54h-255z" />
    <glyph glyph-name="uni1E95" unicode="&#x1e95;" horiz-adv-x="410" 
d="M-10 0l8 44l323 380h-221l13 62h317l-8 -45l-323 -379h254l-12 -62h-351zM20 -160l10 54h254l-9 -54h-255z" />
    <glyph glyph-name="uni1E96" unicode="&#x1e96;" horiz-adv-x="523" 
d="M31 0l142 712h77l-48 -235l-16 -61h4q41 35 82 58.5t85 23.5q62 0 88.5 -32.5t26.5 -88.5q0 -31 -8 -67l-62 -310h-76l60 300q4 20 6 32t2 25q0 75 -72 75q-28 0 -64 -21t-82 -67l-69 -344h-76zM68 -160l10 54h254l-9 -54h-255z" />
    <glyph glyph-name="uni1E97" unicode="&#x1e97;" horiz-adv-x="325" 
d="M185 -12q-64 0 -90 31.5t-26 76.5q0 15 2 28t3 26l57 274h-71l11 57l76 5l36 134h65l-27 -134h123l-12 -62h-125l-57 -278q-3 -18 -3 -36q0 -30 14 -45t48 -15q14 0 27 5t24 10l17 -55q-16 -7 -39.5 -14.5t-52.5 -7.5zM143 725q-17 0 -28.5 10.5t-11.5 29.5q0 23 15 39
t36 16q18 0 29.5 -11t11.5 -31q0 -22 -15.5 -37.5t-36.5 -15.5zM329 725q-17 0 -28.5 10.5t-11.5 29.5q0 23 15 39t36 16q18 0 29 -11t11 -31q0 -22 -15 -37.5t-36 -15.5z" />
    <glyph glyph-name="uni1E9E" unicode="&#x1e9e;" horiz-adv-x="633" 
d="M391 -12q-113 0 -177 87l48 47q22 -32 52 -51t74 -19q34 0 61 17t43.5 46t16.5 63q0 39 -36.5 77.5t-128.5 62.5l6 49l165 146q-16 49 -50.5 72t-85.5 23q-67 0 -116 -48t-69 -146l-81 -414h-78l87 436q14 68 47 121.5t87 84t128 30.5q83 0 137.5 -39.5t71.5 -131.5
l-165 -143q78 -25 119 -71.5t41 -101.5t-25 -100t-69 -71t-103 -26z" />
    <glyph glyph-name="uni1EA0" unicode="&#x1ea0;" horiz-adv-x="510" 
d="M227 377l-58 -112h195l-10 112q-4 52 -9 105t-9 109h-4q-26 -57 -51.5 -108.5t-53.5 -105.5zM-53 0l356 656h90l76 -656h-81l-18 205h-232l-105 -205h-86zM185 -212q-19 0 -34 11.5t-15 33.5q0 25 17.5 41.5t40.5 16.5q20 0 34.5 -12t14.5 -34q0 -25 -17.5 -41t-40.5 -16
z" />
    <glyph glyph-name="uni1EA1" unicode="&#x1ea1;" horiz-adv-x="537" 
d="M179 -12q-64 0 -102 45.5t-38 130.5q0 70 22 130.5t59 106.5t84 71.5t98 25.5q39 0 69.5 -20t47.5 -53h4l19 61h62l-97 -486h-63l8 72h-4q-35 -37 -79 -60.5t-90 -23.5zM207 52q38 0 77.5 23t75.5 70l44 217q-21 38 -46 55t-53 17q-36 0 -69.5 -21t-60 -57.5t-42 -83
t-15.5 -96.5q0 -63 24.5 -93.5t64.5 -30.5zM197 -212q-19 0 -34 11.5t-15 33.5q0 25 17.5 41.5t40.5 16.5q20 0 34.5 -12t14.5 -34q0 -25 -17.5 -41t-40.5 -16z" />
    <glyph glyph-name="uni1EA2" unicode="&#x1ea2;" horiz-adv-x="510" 
d="M227 377l-58 -112h195l-10 112q-4 52 -9 105t-9 109h-4q-26 -57 -51.5 -108.5t-53.5 -105.5zM-53 0l356 656h90l76 -656h-81l-18 205h-232l-105 -205h-86zM305 697l-2 38q64 16 65 52q3 34 -76 39l18 46q128 -5 122 -75q-4 -40 -38 -65t-89 -35z" />
    </font>
</defs>
</svg>
