<?xml version="1.0" standalone="no"?>
<!DOCTYPE svg PUBLIC "-//W3C//DTD SVG 1.1//EN" "http://www.w3.org/Graphics/SVG/1.1/DTD/svg11.dtd" >
<svg xmlns="http://www.w3.org/2000/svg" xmlns:xlink="http://www.w3.org/1999/xlink" version="1.1">
<metadata>
Created by FontForge 20170731 at Tue Sep 14 13:51:35 2021
 By Aleksey,,,
(c) 2010 - 2018 Adobe Systems Incorporated (http://www.adobe.com/), with Reserved Font Name `Source'.
</metadata>
<defs>
<font id="SourceSansPro-BoldItalic" horiz-adv-x="0" >
  <font-face 
    font-family="Source Sans Pro"
    font-weight="700"
    font-style="italic"
    font-stretch="normal"
    units-per-em="1000"
    panose-1="2 11 7 3 3 4 3 9 2 4"
    ascent="800"
    descent="-200"
    x-height="496"
    cap-height="652"
    bbox="-321 -274 2078 1007"
    underline-thickness="50"
    underline-position="-125"
    slope="-11"
    unicode-range="U+0021-1F16B"
  />
<missing-glyph horiz-adv-x="663" 
d="M29 0l130 660h505l-130 -660h-505zM361 408h4l61 96l45 70h-152l20 -70zM216 86h163l-22 86l-20 97h-4l-59 -97zM150 146l132 194l-54 193zM470 146l79 387l-133 -193z" />
    <glyph glyph-name="f_f" unicode="ff" horiz-adv-x="625" 
d="M336 0l79 389h-164l-78 -389h-137l79 389h-64l21 101l64 5l5 24q11 51 34.5 92.5t63 66.5t96.5 25q29 0 56.5 -7t51.5 -20l-44 -97q-9 5 -22.5 10t-27.5 5q-28 0 -45.5 -14.5t-25.5 -55.5l-6 -28h164l7 33q10 51 33.5 92.5t62.5 66.5t96 25q29 0 55.5 -7t50.5 -20
l-44 -97q-8 5 -21 10t-27 5q-28 0 -44.5 -14.5t-24.5 -55.5l-8 -38h87l-21 -107h-87l-78 -389h-137z" />
    <glyph glyph-name="f_t" unicode="ft" horiz-adv-x="650" 
d="M36 0l79 389h-64l21 101l64 5l7 34q10 51 33.5 92.5t62.5 66.5t96 25t106 -27l-44 -97q-8 5 -21 10t-27 5q-27 0 -44 -14.5t-25 -55.5l-8 -38h151l42 130h114l-24 -130h112l-21 -107h-115l-44 -213q-1 -9 -1.5 -17t-0.5 -16q0 -48 52 -48q11 0 20.5 3.5t19.5 7.5l25 -96
q-19 -7 -49 -14.5t-68 -7.5q-75 0 -107.5 37t-32.5 94q0 16 2 31.5t5 31.5l43 207h-144l-78 -389h-137z" />
    <glyph glyph-name="f_f_t" unicode="fft" horiz-adv-x="950" 
d="M336 0l79 389h-164l-78 -389h-137l79 389h-64l21 101l64 5l5 24q11 51 34.5 92.5t63 66.5t96.5 25q29 0 56.5 -7t51.5 -20l-44 -97q-9 5 -22.5 10t-27.5 5q-28 0 -45.5 -14.5t-25.5 -55.5l-6 -28h164l7 33q10 51 33.5 92.5t62.5 66.5t96 25q29 0 55.5 -7t50.5 -20
l-44 -97q-8 5 -21 10t-27 5q-28 0 -44.5 -14.5t-24.5 -55.5l-8 -38h151l41 130h115l-25 -130h113l-21 -107h-116l-43 -213q-1 -9 -1.5 -17t-0.5 -16q0 -48 51 -48q11 0 21 3.5t20 7.5l25 -96q-20 -7 -49.5 -14.5t-67.5 -7.5q-75 0 -107.5 37t-32.5 94q0 16 1.5 31.5
t5.5 31.5l43 207h-144l-78 -389h-137z" />
    <glyph glyph-name=".notdef" horiz-adv-x="663" 
d="M29 0l130 660h505l-130 -660h-505zM361 408h4l61 96l45 70h-152l20 -70zM216 86h163l-22 86l-20 97h-4l-59 -97zM150 146l132 194l-54 193zM470 146l79 387l-133 -193z" />
    <glyph glyph-name=".null" 
 />
    <glyph glyph-name="nonmarkingreturn" horiz-adv-x="333" 
 />
    <glyph glyph-name="space" unicode="&#xa0;" horiz-adv-x="200" 
 />
    <glyph glyph-name="space" unicode=" " horiz-adv-x="200" 
 />
    <glyph glyph-name="exclam" unicode="!" horiz-adv-x="331" 
d="M115 226l65 444h137l-29 -126l-83 -318h-90zM116 -12q-32 0 -51.5 20.5t-19.5 53.5q0 25 12.5 48t34.5 38t51 15q32 0 51.5 -21.5t19.5 -53.5q0 -25 -12.5 -48t-34.5 -37.5t-51 -14.5z" />
    <glyph glyph-name="quotedbl" unicode="&#x22;" horiz-adv-x="510" 
d="M121 363l21 181l18 126h135l-28 -126l-57 -181h-89zM340 363l21 181l18 126h135l-28 -126l-57 -181h-89z" />
    <glyph glyph-name="numbersign" unicode="#" horiz-adv-x="506" 
d="M34 0l60 188h-76l21 89h82l36 116h-76l22 89h82l54 168h81l-54 -168h100l54 168h80l-53 -168h75l-21 -89h-82l-36 -116h76l-21 -89h-83l-60 -188h-81l60 188h-100l-60 -188h-80zM202 277h100l36 116h-100z" />
    <glyph glyph-name="dollar" unicode="$" horiz-adv-x="509" 
d="M135 -110l21 105q-43 10 -82 34t-68 59l84 83q23 -29 55 -51t70 -22q41 0 64 20.5t23 55.5q0 33 -20.5 57.5t-50.5 47t-60 47.5t-50.5 57.5t-20.5 77.5q0 79 51.5 132t135.5 61l19 99h91l-21 -107q68 -19 121 -83l-86 -77q-19 26 -45.5 42.5t-55.5 16.5
q-34 0 -54.5 -19.5t-20.5 -48.5t20.5 -51.5t50.5 -44t60 -47t50.5 -60t20.5 -83.5q0 -81 -51.5 -136t-139.5 -65l-21 -100h-90z" />
    <glyph glyph-name="percent" unicode="%" horiz-adv-x="829" 
d="M191 258q-38 0 -69.5 20t-50 55.5t-18.5 83.5q0 70 24 128t67.5 92.5t101.5 34.5q39 0 70 -20t49.5 -55.5t18.5 -83.5q0 -70 -24 -128t-67.5 -92.5t-101.5 -34.5zM200 340q38 0 62 48.5t24 121.5q0 37 -11.5 58.5t-37.5 21.5q-37 0 -61.5 -48.5t-24.5 -121.5
q0 -37 12 -58.5t37 -21.5zM141 -12l474 684h80l-474 -684h-80zM601 -12q-38 0 -69.5 20t-50 55.5t-18.5 83.5q0 70 24 128t67.5 92.5t101.5 34.5q39 0 70 -20t49.5 -55.5t18.5 -83.5q0 -70 -24 -128t-67.5 -92.5t-101.5 -34.5zM610 70q38 0 62 48.5t24 121.5
q0 37 -11.5 58.5t-37.5 21.5q-37 0 -61.5 -48.5t-24.5 -121.5q0 -37 12 -58.5t37 -21.5z" />
    <glyph glyph-name="ampersand" unicode="&#x26;" horiz-adv-x="633" 
d="M260 473q0 -27 8 -59q44 24 74 52t30 68q0 39 -36 39q-30 0 -53 -26.5t-23 -73.5zM200 -12q-88 0 -137 45t-49 117q0 54 21.5 92.5t55.5 67t74 50.5q-9 28 -14 55.5t-5 53.5q0 54 26.5 98t71.5 70.5t100 26.5q65 0 99.5 -36t34.5 -95q0 -49 -25 -86t-64 -66t-82 -55
q20 -35 47 -67.5t57 -60.5q33 38 58.5 79.5t44.5 89.5h124q-28 -61 -64 -119.5t-83 -110.5q26 -16 51 -26t45 -15l-54 -108q-34 8 -68.5 24t-67.5 38q-43 -30 -92 -46t-105 -16zM147 165q0 -32 20.5 -53t56.5 -21q47 0 94 26q-31 32 -59 69t-50 77q-28 -22 -45 -45.5
t-17 -52.5z" />
    <glyph glyph-name="quotesingle" unicode="'" horiz-adv-x="291" 
d="M121 363l21 181l18 126h135l-28 -126l-57 -181h-89z" />
    <glyph glyph-name="parenleft" unicode="(" horiz-adv-x="329" 
d="M115 -179q-23 63 -41 145.5t-18 164.5q0 116 27 217t79.5 195t128.5 190l79 -40q-106 -140 -155 -283t-49 -289q0 -42 4 -90t12 -93t20 -81z" />
    <glyph glyph-name="parenright" unicode=")" horiz-adv-x="331" 
d="M46 -179l-79 40q106 140 155 283.5t49 288.5q0 43 -4 90.5t-11.5 93t-20.5 81.5l87 35q23 -63 41.5 -145.5t18.5 -163.5q0 -116 -27 -217.5t-79.5 -195.5t-129.5 -190z" />
    <glyph glyph-name="asterisk" unicode="*" horiz-adv-x="438" 
d="M173 366l-52 49l75 98l-95 55l31 65l107 -34l32 115l71 -6l-8 -117l114 14l10 -70l-110 -38l38 -106l-65 -37l-61 94z" />
    <glyph glyph-name="plus" unicode="+" horiz-adv-x="509" 
d="M215 95v187h-167v97h168v185h101v-185h168v-97h-170v-187h-100z" />
    <glyph glyph-name="comma" unicode="," horiz-adv-x="291" 
d="M-13 -187l-14 75q57 17 89 47.5t40 64.5q-33 1 -54.5 20t-21.5 51q0 36 25 64t68 28q40 0 61.5 -25.5t21.5 -71.5q0 -94 -57.5 -163t-157.5 -90z" />
    <glyph glyph-name="hyphen" unicode="&#x2011;" horiz-adv-x="320" 
d="M33 205l21 97h234l-21 -97h-234z" />
    <glyph glyph-name="hyphen" unicode="&#x2010;" horiz-adv-x="320" 
d="M33 205l21 97h234l-21 -97h-234z" />
    <glyph glyph-name="hyphen" unicode="&#xad;" horiz-adv-x="320" 
d="M33 205l21 97h234l-21 -97h-234z" />
    <glyph glyph-name="hyphen" unicode="-" horiz-adv-x="320" 
d="M33 205l21 97h234l-21 -97h-234z" />
    <glyph glyph-name="period" unicode="." horiz-adv-x="291" 
d="M94 -12q-31 0 -50.5 20.5t-19.5 53.5q0 25 12 48t34.5 38t51.5 15q32 0 51 -21.5t19 -53.5q0 -37 -27 -68.5t-71 -31.5z" />
    <glyph glyph-name="slash" unicode="/" horiz-adv-x="329" 
d="M-69 -160l372 870h91l-374 -870h-89z" />
    <glyph glyph-name="zero" unicode="0" horiz-adv-x="509" 
d="M217 -12q-77 0 -128 58t-51 170q0 105 24 185.5t64.5 135t90 82.5t100.5 28q77 0 127.5 -58t50.5 -172q0 -105 -24 -185.5t-64 -134.5t-89.5 -81.5t-100.5 -27.5zM226 93q27 0 52.5 26t46.5 72.5t33 108t12 131.5q0 59 -16 85t-45 26q-27 0 -52.5 -26.5t-46.5 -73.5
t-33 -108.5t-12 -131.5q0 -58 16 -83.5t45 -25.5z" />
    <glyph glyph-name="one" unicode="1" horiz-adv-x="509" 
d="M19 0l22 110h131l78 383h-116l17 86q53 8 90.5 21.5t71.5 34.5h102l-106 -525h117l-22 -110h-385z" />
    <glyph glyph-name="two" unicode="2" horiz-adv-x="509" 
d="M-13 0l15 78q104 85 181 151t120 122t43 111q0 34 -19.5 55.5t-57.5 21.5q-27 0 -51.5 -14t-52.5 -37l-66 79q46 39 92.5 59.5t94.5 20.5q90 0 141.5 -47t51.5 -124q0 -64 -32 -119.5t-90.5 -113t-136.5 -128.5h215l-22 -115h-426z" />
    <glyph glyph-name="three" unicode="3" horiz-adv-x="509" 
d="M202 -12q-59 0 -117.5 28t-100.5 86l87 71q25 -34 59.5 -54.5t68.5 -20.5q52 0 82.5 24t30.5 65q0 28 -13.5 47.5t-47.5 30.5t-96 11l19 97q67 0 104 13.5t52 36t15 48.5q0 31 -20 49.5t-57 18.5q-23 0 -47.5 -10.5t-53.5 -30.5l-66 88q48 34 95.5 47.5t96.5 13.5
q86 0 139 -42t53 -111q0 -60 -31 -102.5t-105 -67.5v-4q51 -19 75.5 -54.5t24.5 -79.5q0 -64 -32.5 -108t-88.5 -67t-126 -23z" />
    <glyph glyph-name="four" unicode="4" horiz-adv-x="509" 
d="M373 0h-125l31 154h-271l19 96l309 385h164l-75 -375h73l-21 -106h-73zM163 260h137l22 114q8 34 17 70t16 71h-4q-18 -29 -37.5 -58t-40.5 -58z" />
    <glyph glyph-name="five" unicode="5" horiz-adv-x="509" 
d="M205 -12q-59 0 -112.5 27.5t-95.5 86.5l86 70q25 -34 55.5 -54t69.5 -20q46 0 80.5 32t34.5 88q0 44 -23 66t-64 22q-25 0 -43 -5.5t-50 -23.5l-51 42l78 316h342l-23 -115h-223l-35 -125q29 13 61 13q72 0 120.5 -42.5t48.5 -125.5q0 -78 -36.5 -134.5t-95 -87
t-124.5 -30.5z" />
    <glyph glyph-name="six" unicode="6" horiz-adv-x="509" 
d="M177 201q0 -53 22 -82t56 -29q30 0 50.5 20t31 50t10.5 58q0 40 -17.5 62t-51.5 22q-20 0 -45.5 -13t-54.5 -49q-1 -10 -1 -19.5v-19.5zM248 -12q-60 0 -104.5 28.5t-69 79.5t-24.5 118q0 130 41 227.5t113.5 151.5t164.5 54q40 0 70.5 -13.5t52 -33.5t34.5 -40l-86 -73
q-14 23 -33.5 36.5t-46.5 13.5q-57 0 -104 -50.5t-67 -150.5q28 29 63.5 44.5t62.5 15.5q68 0 112.5 -40.5t44.5 -125.5q0 -61 -28.5 -116.5t-79 -90.5t-116.5 -35z" />
    <glyph glyph-name="seven" unicode="7" horiz-adv-x="509" 
d="M100 0q30 111 66.5 203.5t87 171t119.5 145.5h-279l23 115h431l-17 -86q-73 -66 -122.5 -134t-81 -137t-51.5 -138.5t-35 -139.5h-141z" />
    <glyph glyph-name="eight" unicode="8" horiz-adv-x="509" 
d="M233 -12q-46 0 -92.5 17t-77.5 53.5t-31 93.5q0 67 41.5 112t98.5 68v4q-28 29 -43 60t-15 69q0 57 29 97.5t77.5 62.5t104.5 22q44 0 84.5 -15.5t67 -48t26.5 -84.5q0 -59 -32 -101.5t-85 -71.5v-4q35 -23 58.5 -59.5t23.5 -85.5q0 -58 -32.5 -100.5t-86 -65.5
t-116.5 -23zM324 365q24 20 43 48t19 66q0 32 -17 51.5t-54 19.5q-32 0 -56 -21t-24 -59q0 -36 23 -59t66 -46zM243 83q39 0 69.5 23.5t30.5 69.5q0 38 -32 62.5t-83 52.5q-31 -21 -52.5 -51.5t-21.5 -71.5q0 -35 23.5 -60t65.5 -25z" />
    <glyph glyph-name="nine" unicode="9" horiz-adv-x="509" 
d="M189 417q0 -40 18 -62t51 -22q20 0 46 13t54 49q1 10 1 19.5v19.5q0 53 -21.5 82t-56.5 29q-30 0 -50.5 -20t-31 -49.5t-10.5 -58.5zM168 -12q-40 0 -70.5 13.5t-52 34t-35.5 40.5l87 72q14 -22 33 -36t46 -14q57 0 104 50t67 150q-28 -28 -64 -43.5t-62 -15.5
q-67 0 -112 40.5t-45 125.5q0 62 28.5 117t79.5 90t116 35q61 0 105.5 -28.5t68.5 -79.5t24 -118q0 -130 -41 -227.5t-113 -151.5t-164 -54z" />
    <glyph glyph-name="colon" unicode=":" horiz-adv-x="291" 
d="M151 322q-31 0 -50.5 20.5t-19.5 53.5q0 25 12 48t34.5 38t51.5 15q32 0 51 -21.5t19 -53.5q0 -37 -27 -68.5t-71 -31.5zM94 -12q-31 0 -50.5 20.5t-19.5 53.5q0 25 12 48t34.5 38t51.5 15q32 0 51 -21.5t19 -53.5q0 -37 -27 -68.5t-71 -31.5z" />
    <glyph glyph-name="semicolon" unicode=";" horiz-adv-x="291" 
d="M151 322q-31 0 -50.5 20.5t-19.5 53.5q0 25 12 48t34.5 38t51.5 15q32 0 51 -21.5t19 -53.5q0 -37 -27 -68.5t-71 -31.5zM-13 -187l-14 75q57 17 89 47.5t40 64.5q-33 1 -54.5 20t-21.5 51q0 36 25 64t68 28q40 0 61.5 -25.5t21.5 -71.5q0 -94 -57.5 -163t-157.5 -90z
" />
    <glyph glyph-name="less" unicode="&#x3c;" horiz-adv-x="509" 
d="M485 108l-439 175v96l439 174v-112l-170 -61l-129 -46v-4l129 -47l170 -61v-114z" />
    <glyph glyph-name="equal" unicode="=" horiz-adv-x="509" 
d="M48 398v97h437v-97h-437zM48 166v97h437v-97h-437z" />
    <glyph glyph-name="greater" unicode="&#x3e;" horiz-adv-x="509" 
d="M48 108v114l171 61l128 47v4l-128 46l-171 61v112l439 -174v-96z" />
    <glyph glyph-name="question" unicode="?" horiz-adv-x="444" 
d="M146 232q5 48 24 81.5t45 58t50.5 45.5t41 43t16.5 50q0 29 -17 45.5t-47 16.5q-38 0 -77 -39l-69 78q73 71 163 71q81 0 131 -40t50 -111q0 -47 -18 -79.5t-45 -57.5t-55 -49t-49.5 -53t-27.5 -70zM161 -12q-32 0 -51.5 20.5t-19.5 53.5q0 25 12.5 48t34.5 38t51 15
q32 0 51 -21.5t19 -53.5q0 -37 -26.5 -68.5t-70.5 -31.5z" />
    <glyph glyph-name="at" unicode="@" horiz-adv-x="866" 
d="M379 -170q-67 0 -127.5 21t-107.5 62.5t-74 103.5t-27 145q0 107 37 198.5t101.5 160t147.5 107t174 38.5q104 0 177 -41t111.5 -111t38.5 -156q0 -106 -33 -177t-87.5 -106.5t-118.5 -35.5q-35 0 -62.5 19t-36.5 56h-4q-19 -28 -50 -46.5t-62 -18.5q-53 0 -89 39.5
t-36 104.5q0 47 16 91t44 79.5t64.5 56t78.5 20.5q46 0 70 -49h2l15 41h83l-51 -222q-20 -86 43 -86q27 0 56 25t49.5 74t20.5 121q0 63 -24 118t-79.5 89t-148.5 34q-63 0 -125.5 -31t-114 -86t-82.5 -129t-31 -161q0 -89 37 -147.5t95.5 -87.5t121.5 -29q28 0 61 9t58 25
l36 -74q-42 -22 -83 -33t-84 -11zM404 134q16 0 31.5 11.5t34.5 37.5l31 139q-15 31 -44 31t-53 -24.5t-37.5 -59.5t-13.5 -68q0 -67 51 -67z" />
    <glyph glyph-name="A" unicode="A" horiz-adv-x="548" 
d="M255 353l-40 -86h140l-4 86q-2 48 -4 95t-4 99h-4q-21 -50 -41 -97.5t-43 -96.5zM-62 0l344 652h164l65 -652h-143l-8 164h-194l-77 -164h-151z" />
    <glyph glyph-name="B" unicode="B" horiz-adv-x="604" 
d="M28 0l131 652h199q98 0 158.5 -36t60.5 -113q0 -56 -38.5 -100t-102.5 -63l-2 -4q54 -13 83.5 -43.5t29.5 -78.5q0 -76 -38.5 -123.5t-102.5 -69t-141 -21.5h-237zM243 385h65q68 0 98.5 26t30.5 69q0 32 -25.5 49.5t-78.5 17.5h-58zM186 105h85q70 0 107 27t37 77
q0 40 -26.5 61.5t-79.5 21.5h-85z" />
    <glyph glyph-name="C" unicode="C" horiz-adv-x="567" 
d="M304 -12q-75 0 -131 32.5t-86.5 94t-30.5 146.5q0 84 26.5 157.5t74 128.5t110.5 86t136 31q57 0 101.5 -27.5t72.5 -76.5l-94 -72q-36 57 -87 57q-42 0 -78 -22.5t-63 -61t-42.5 -88t-15.5 -103.5q0 -76 32 -120t104 -44q29 0 57.5 14t53.5 36l57 -88
q-29 -27 -79.5 -53.5t-117.5 -26.5z" />
    <glyph glyph-name="D" unicode="D" horiz-adv-x="616" 
d="M28 0l131 652h143q137 0 212.5 -63.5t75.5 -192.5q0 -128 -46 -216.5t-126.5 -134t-185.5 -45.5h-204zM188 110h41q63 0 113 29.5t79 91t29 156.5q0 81 -41.5 118t-109.5 37h-26z" />
    <glyph glyph-name="E" unicode="E" horiz-adv-x="527" 
d="M28 0l131 652h386l-22 -115h-251l-28 -142h213l-22 -115h-213l-34 -165h259l-22 -115h-397z" />
    <glyph glyph-name="F" unicode="F" horiz-adv-x="504" 
d="M28 0l131 652h386l-22 -115h-251l-31 -160h212l-22 -115h-213l-52 -262h-138z" />
    <glyph glyph-name="G" unicode="G" horiz-adv-x="611" 
d="M314 -12q-121 0 -189.5 72t-68.5 201q0 84 26.5 157.5t75 128.5t113.5 86t142 31q63 0 108.5 -27.5t73.5 -76.5l-93 -72q-19 29 -41.5 43t-54.5 14q-60 0 -107.5 -38.5t-74.5 -101t-27 -135.5q0 -75 32.5 -120t108.5 -45q20 0 39 6t32 16l28 128h-107l21 112h227
l-60 -311q-37 -29 -89.5 -48.5t-114.5 -19.5z" />
    <glyph glyph-name="H" unicode="H" horiz-adv-x="652" 
d="M28 0l131 652h137l-52 -253h223l50 253h137l-130 -652h-138l57 279h-223l-54 -279h-138z" />
    <glyph glyph-name="I" unicode="I" horiz-adv-x="294" 
d="M28 0l131 652h137l-130 -652h-138z" />
    <glyph glyph-name="J" unicode="J" horiz-adv-x="491" 
d="M176 -12q-56 0 -105.5 26t-78.5 73l84 83q14 -25 40 -44.5t60 -19.5q76 0 100 121l85 425h137l-90 -449q-11 -58 -39.5 -107t-76 -78.5t-116.5 -29.5z" />
    <glyph glyph-name="K" unicode="K" horiz-adv-x="604" 
d="M28 0l131 652h137l-53 -268h3l245 268h150l-237 -268l146 -384h-143l-104 298l-99 -107l-38 -191h-138z" />
    <glyph glyph-name="L" unicode="L" horiz-adv-x="500" 
d="M28 0l131 652h137l-108 -537h247l-22 -115h-385z" />
    <glyph glyph-name="M" unicode="M" horiz-adv-x="740" 
d="M28 0l131 652h145l47 -301l17 -117h4l60 117l164 301h146l-131 -652h-128l54 259q7 33 17 71.5t21 77t21 69.5h-3l-81 -150l-153 -267h-55l-48 267l-20 150h-4q-4 -48 -10 -109t-16 -109l-52 -259h-126z" />
    <glyph glyph-name="N" unicode="N" horiz-adv-x="643" 
d="M28 0l131 652h133l106 -340l35 -143h4q5 51 10.5 115.5t16.5 120.5l50 247h130l-130 -652h-132l-107 339l-33 145h-4q-5 -55 -11.5 -116.5t-17.5 -117.5l-50 -250h-131z" />
    <glyph glyph-name="O" unicode="O" horiz-adv-x="660" 
d="M302 -12q-112 0 -178.5 73t-66.5 203q0 86 26.5 159t73 127t106 84t125.5 30q75 0 130 -33t85 -94.5t30 -148.5q0 -86 -26.5 -159t-72.5 -127t-106 -84t-126 -30zM309 106q35 0 68 21t59 58.5t41.5 87t15.5 106.5q0 78 -28.5 122t-82.5 44q-35 0 -68 -21t-59.5 -58.5
t-42 -86.5t-15.5 -106q0 -78 29 -122.5t83 -44.5z" />
    <glyph glyph-name="P" unicode="P" horiz-adv-x="583" 
d="M28 0l131 652h206q64 0 114 -17t79.5 -55t29.5 -101q0 -91 -41 -146.5t-109 -81t-151 -25.5h-77l-44 -226h-138zM233 335h69q73 0 112 31.5t39 92.5q0 44 -28.5 64t-81.5 20h-70z" />
    <glyph glyph-name="Q" unicode="Q" horiz-adv-x="660" 
d="M309 101q47 0 89 37t68.5 100t26.5 141t-28.5 122t-82.5 44q-35 0 -68 -21t-59.5 -58.5t-42 -86.5t-15.5 -106q0 -83 29 -127.5t83 -44.5zM483 -176q-100 0 -169 44t-104 135q-71 26 -112 93t-41 168q0 86 26.5 159t73 127t106 84t125.5 30q75 0 130 -33t85 -94.5
t30 -148.5q0 -103 -37.5 -187t-100.5 -138.5t-140 -69.5q20 -31 57.5 -45t78.5 -14q20 0 35 2.5t31 6.5l6 -103q-17 -7 -40 -11.5t-40 -4.5z" />
    <glyph glyph-name="R" unicode="R" horiz-adv-x="596" 
d="M28 0l131 652h204q64 0 114.5 -16.5t79.5 -53t29 -97.5q0 -91 -47 -147t-119 -80l101 -258h-144l-84 239h-80l-47 -239h-138zM235 348h69q73 0 110 32t37 85q0 41 -28 59.5t-81 18.5h-69z" />
    <glyph glyph-name="S" unicode="S" horiz-adv-x="529" 
d="M238 -12q-64 0 -124.5 28.5t-108.5 93.5l98 77q26 -37 64.5 -59.5t80.5 -22.5t68 20t26 55q0 26 -20.5 42.5t-55.5 38.5l-62 38q-44 28 -70.5 65.5t-26.5 97.5q0 56 30.5 101.5t82.5 73t116 27.5q58 0 109.5 -27t88.5 -72l-87 -81q-25 26 -53 43.5t-64 17.5
q-40 0 -61.5 -20.5t-21.5 -49.5q0 -25 22 -41t60 -40l64 -39q47 -28 69 -63.5t22 -91.5q0 -59 -30.5 -107.5t-85.5 -76.5t-130 -28z" />
    <glyph glyph-name="T" unicode="T" horiz-adv-x="532" 
d="M149 0l106 536h-171l22 116h480l-23 -116h-171l-106 -536h-137z" />
    <glyph glyph-name="U" unicode="U" horiz-adv-x="643" 
d="M308 -12q-115 0 -174 56t-59 171q0 22 4.5 51t8.5 54l67 332h137l-71 -357q-4 -20 -6 -39t-2 -37q0 -55 22 -84t77 -29q47 0 78 38.5t49 129.5l76 378h134l-76 -376q-30 -150 -95.5 -219t-169.5 -69z" />
    <glyph glyph-name="V" unicode="V" horiz-adv-x="554" 
d="M134 0l-55 652h143l17 -321l4 -104t3 -105h4q23 53 45.5 105t45.5 104l145 321h151l-337 -652h-166z" />
    <glyph glyph-name="W" unicode="W" horiz-adv-x="794" 
d="M77 0l23 652h140l-21 -313q-4 -52 -9 -104.5t-11 -104.5h4q20 52 43 105t42 104l134 313h116l2 -313q-1 -50 -3 -103l-4 -106h4q18 53 37.5 105.5t35.5 103.5l110 313h131l-253 -652h-173l4 312q0 32 2.5 73.5t6.5 78.5h-4q-13 -37 -29 -75.5t-30 -76.5l-128 -312h-170z
" />
    <glyph glyph-name="X" unicode="X" horiz-adv-x="553" 
d="M-36 0l242 336l-101 316h152l33 -131q5 -22 10.5 -47.5t12.5 -54.5h4q17 29 33 55t29 48l79 130h146l-229 -322l109 -330h-152l-37 142q-7 26 -13 51.5t-13 53.5h-4q-17 -28 -33 -54l-32 -52l-90 -141h-146z" />
    <glyph glyph-name="Y" unicode="Y" horiz-adv-x="509" 
d="M138 0l46 236l-104 416h142l28 -157q7 -37 12.5 -71t12.5 -73h4q20 39 39 74t41 72l91 155h147l-276 -416l-47 -236h-136z" />
    <glyph glyph-name="Z" unicode="Z" horiz-adv-x="525" 
d="M-5 0l18 82l356 455h-257l23 115h421l-17 -83l-353 -454h283l-24 -115h-450z" />
    <glyph glyph-name="bracketleft" unicode="[" horiz-adv-x="330" 
d="M-3 -152l172 860h200l-14 -73h-99l-142 -714h98l-15 -73h-200z" />
    <glyph glyph-name="backslash" unicode="\" horiz-adv-x="329" 
d="M161 -160l-76 870h88l77 -870h-89z" />
    <glyph glyph-name="bracketright" unicode="]" horiz-adv-x="330" 
d="M-29 -152l15 73h97l143 714h-97l14 73h200l-172 -860h-200z" />
    <glyph glyph-name="asciicircum" unicode="^" horiz-adv-x="506" 
d="M72 275l149 395h108l149 -395h-112l-45 135l-43 135h-4l-44 -135l-46 -135h-112z" />
    <glyph glyph-name="underscore" unicode="_" horiz-adv-x="481" 
d="M-47 -138l15 77h457l-16 -77h-456z" />
    <glyph glyph-name="grave" unicode="`" horiz-adv-x="534" 
d="M366 569l-154 171l117 87l121 -193z" />
    <glyph glyph-name="a" unicode="a" horiz-adv-x="552" 
d="M171 -12q-65 0 -102.5 47t-37.5 135q0 71 22 132.5t59.5 107.5t85 72t98.5 26q34 0 64 -17.5t44 -47.5h2l22 53h109l-99 -496h-111l2 65h-3q-34 -35 -75 -56t-80 -21zM231 100q25 0 53.5 15.5t52.5 57.5l35 176q-12 25 -30.5 36t-35.5 11q-34 0 -64.5 -27.5t-49.5 -74.5
t-19 -107q0 -45 15.5 -66t42.5 -21z" />
    <glyph glyph-name="b" unicode="b" horiz-adv-x="553" 
d="M256 -12q-34 0 -62.5 17.5t-42.5 47.5h-2l-22 -53h-113l141 701h137l-33 -159l-25 -93h2q33 27 70 43t74 16q66 0 103 -47t37 -135q0 -71 -22 -132.5t-59 -107.5t-84.5 -72t-98.5 -26zM246 100q35 0 65 27.5t49 74.5t19 107q0 45 -16 66t-42 21q-23 0 -51.5 -13.5
t-50.5 -48.5l-38 -187q11 -25 28.5 -36t36.5 -11z" />
    <glyph glyph-name="c" unicode="c" horiz-adv-x="443" 
d="M223 -12q-55 0 -99 24t-69.5 70t-25.5 110q0 65 22.5 122t62.5 100.5t93 68.5t114 25q47 0 80.5 -19t52.5 -42l-76 -81q-15 16 -30 24t-36 8q-39 0 -71.5 -27.5t-52 -73.5t-19.5 -102q0 -45 21 -71t63 -26q26 0 44.5 10t34.5 22l57 -84q-28 -21 -67.5 -39.5t-98.5 -18.5z
" />
    <glyph glyph-name="d" unicode="d" horiz-adv-x="546" 
d="M171 -12q-65 0 -102.5 47t-37.5 135q0 71 22 132.5t59.5 107.5t85 72t98.5 26q34 0 60.5 -16.5t40.5 -43.5h3l12 94l30 159h137l-141 -701h-111l2 65h-3q-34 -35 -75 -56t-80 -21zM231 100q25 0 53 15.5t53 57.5l35 176q-12 25 -30.5 36t-35.5 11q-34 0 -64.5 -27.5
t-49.5 -74.5t-19 -107q0 -45 15.5 -66t42.5 -21z" />
    <glyph glyph-name="e" unicode="e" horiz-adv-x="496" 
d="M232 -12q-90 0 -146.5 56.5t-56.5 155.5q0 69 24 125.5t64.5 97.5t89.5 63t98 22q59 0 94.5 -25t51.5 -67t16 -94q0 -34 -9 -66.5t-15 -43.5h-284q-4 -64 29 -92.5t82 -28.5q23 0 48 11t44 24l48 -86q-30 -21 -75 -36.5t-103 -15.5zM170 296h180q5 15 5 34
q0 30 -14.5 51.5t-52.5 21.5q-35 0 -68 -27t-50 -80z" />
    <glyph glyph-name="f" unicode="f" horiz-adv-x="327" 
d="M36 0l79 389h-64l21 101l65 6l6 33q10 51 33.5 92.5t62.5 66.5t96 25t106 -27l-44 -97q-8 5 -21 10t-27 5q-27 0 -44 -14.5t-25 -55.5l-7 -38h86l-21 -107h-88l-77 -389h-137z" />
    <glyph glyph-name="g" unicode="g" horiz-adv-x="546" 
d="M178 -203q-44 0 -92.5 18t-91.5 52l60 91q28 -22 60 -37t67 -15q47 0 77.5 24.5t43.5 69.5l26 88q-33 -34 -72 -53t-80 -19q-63 0 -104 42.5t-41 130.5q0 67 21 125t57.5 101.5t83 68t97.5 24.5q34 0 63 -17.5t43 -47.5h3l21 53h111l-97 -488q-22 -108 -88 -159.5
t-168 -51.5zM229 127q25 0 53 14t52 51l31 157q-13 25 -30.5 36t-34.5 11q-34 0 -63 -25t-46.5 -67.5t-17.5 -96.5q0 -40 15.5 -60t40.5 -20z" />
    <glyph glyph-name="h" unicode="h" horiz-adv-x="547" 
d="M14 0l141 701h137l-38 -183l-22 -80h4q33 29 72.5 49.5t83.5 20.5q62 0 90 -32.5t28 -94.5q0 -17 -1.5 -34.5t-6.5 -36.5l-62 -310h-137l59 293q3 15 5.5 26t2.5 21q0 51 -51 51q-23 0 -47.5 -15.5t-56.5 -48.5l-64 -327h-137z" />
    <glyph glyph-name="i" unicode="i" horiz-adv-x="265" 
d="M14 0l100 496h136l-99 -496h-137zM205 570q-28 0 -51 16.5t-23 49.5t25 57t60 24q29 0 51.5 -17t22.5 -49q0 -35 -24.5 -58t-60.5 -23z" />
    <glyph glyph-name="j" unicode="j" horiz-adv-x="267" 
d="M-35 -196q-26 0 -49 5t-47 17l41 99q11 -6 21 -9.5t23 -3.5q25 0 37.5 19t22.5 59l101 506h137l-103 -512q-10 -50 -32 -91t-59 -65t-93 -24zM204 570q-28 0 -51 16.5t-23 49.5t25 57t60 24q29 0 51.5 -17t22.5 -49q0 -35 -24.5 -58t-60.5 -23z" />
    <glyph glyph-name="k" unicode="k" horiz-adv-x="525" 
d="M14 0l141 701h137l-82 -406h4l187 201h152l-203 -217l118 -279h-137l-75 200l-81 -81l-24 -119h-137z" />
    <glyph glyph-name="l" unicode="l" horiz-adv-x="275" 
d="M137 -12q-53 0 -76.5 26t-23.5 71q0 26 7 61l111 555h137l-113 -561q-1 -7 -1.5 -11t-0.5 -8q0 -13 6 -18t13 -5q5 0 8 0.5t10 1.5l-4 -101q-13 -4 -31 -7.5t-42 -3.5z" />
    <glyph glyph-name="m" unicode="m" horiz-adv-x="827" 
d="M14 0l100 496h111l-2 -66h4q35 32 75.5 55t82.5 23q56 0 80.5 -24t34.5 -63q41 38 83.5 62.5t84.5 24.5q62 0 89.5 -32.5t27.5 -94.5q0 -17 -2 -34.5t-6 -36.5l-62 -310h-137l59 293q3 15 5.5 26t2.5 21q0 51 -50 51q-16 0 -40.5 -15.5t-56.5 -48.5l-66 -327h-137l59 293
q3 15 5.5 26t2.5 21q0 51 -48 51q-18 0 -42.5 -15.5t-56.5 -48.5l-64 -327h-137z" />
    <glyph glyph-name="n" unicode="n" horiz-adv-x="552" 
d="M14 0l100 496h111l-2 -66h4q36 32 77 55t88 23q62 0 90 -32.5t28 -94.5q0 -17 -2 -34.5t-6 -36.5l-62 -310h-137l59 293q3 15 5.5 26t2.5 21q0 51 -51 51q-23 0 -47.5 -15.5t-56.5 -48.5l-64 -327h-137z" />
    <glyph glyph-name="o" unicode="o" horiz-adv-x="533" 
d="M222 -12q-87 0 -139.5 56t-52.5 148q0 72 24 130t64 100t89.5 64t100.5 22q58 0 101 -25.5t67 -71t24 -107.5q0 -72 -24 -130t-64 -100t-89.5 -64t-100.5 -22zM237 98q34 0 62 26.5t45.5 72.5t17.5 104q0 46 -17.5 71.5t-52.5 25.5q-33 0 -61.5 -26.5t-45.5 -72.5
t-17 -104q0 -45 17.5 -71t51.5 -26z" />
    <glyph glyph-name="p" unicode="p" horiz-adv-x="553" 
d="M-23 -184l137 680h111l1 -57h3q34 31 73.5 50t77.5 19q66 0 103 -47t37 -135q0 -71 -22 -132.5t-59 -107.5t-84.5 -72t-98.5 -26q-31 0 -57.5 15.5t-43.5 43.5h-2l-14 -97l-25 -134h-137zM246 100q35 0 65 27.5t49 74.5t19 107q0 45 -16 66t-42 21q-23 0 -51.5 -13.5
t-50.5 -48.5l-38 -188q11 -24 28.5 -35t36.5 -11z" />
    <glyph glyph-name="q" unicode="q" horiz-adv-x="552" 
d="M264 -184l28 134l37 115h-2q-34 -35 -75.5 -56t-80.5 -21q-65 0 -102.5 47t-37.5 135q0 71 22 132.5t59.5 107.5t85 72t98.5 26q34 0 64 -17.5t44 -47.5h2l22 53h109l-136 -680h-137zM231 100q25 0 53 15.5t53 57.5l35 176q-12 25 -30.5 36t-35.5 11q-34 0 -64.5 -27.5
t-49.5 -74.5t-19 -107q0 -45 15.5 -66t42.5 -21z" />
    <glyph glyph-name="r" unicode="r" horiz-adv-x="384" 
d="M14 0l100 496h111l-6 -96h4q29 47 68 77.5t82 30.5q19 0 31.5 -2.5t20.5 -7.5l-45 -118q-10 5 -23.5 6.5t-25.5 1.5q-33 0 -64 -24t-60 -77l-56 -287h-137z" />
    <glyph glyph-name="s" unicode="s" horiz-adv-x="424" 
d="M170 -12q-46 0 -96.5 25t-81.5 71l79 66q52 -62 107 -62q29 0 49.5 13.5t20.5 33.5q0 22 -22 36t-66 39q-39 22 -68.5 56t-29.5 80q0 47 25.5 83.5t69 57.5t96.5 21q51 0 92 -22t71 -54l-74 -70q-19 18 -41.5 31t-48.5 13q-28 0 -45 -13.5t-17 -33.5q0 -23 26.5 -37.5
t55.5 -31.5q44 -23 74 -54.5t30 -84.5q0 -48 -26.5 -85t-73 -57.5t-106.5 -20.5z" />
    <glyph glyph-name="t" unicode="t" horiz-adv-x="367" 
d="M203 -12q-75 0 -108 37t-33 94q0 16 2.5 31.5t5.5 31.5l43 207h-66l20 101l73 6l42 130h115l-25 -130h113l-21 -107h-116l-43 -213q-1 -9 -1.5 -17t-0.5 -16q0 -48 51 -48q11 0 21 3.5t20 7.5l24 -96q-19 -7 -48.5 -14.5t-67.5 -7.5z" />
    <glyph glyph-name="u" unicode="u" horiz-adv-x="545" 
d="M156 -12q-61 0 -89 33t-28 95q0 17 2 34t6 36l62 310h136l-58 -293q-4 -15 -6 -26t-2 -21q0 -51 50 -51q42 0 99 64l64 327h137l-98 -496h-111l2 67h-4q-34 -31 -75.5 -55t-86.5 -24z" />
    <glyph glyph-name="v" unicode="v" horiz-adv-x="499" 
d="M123 0l-63 496h136l17 -243q3 -37 4 -75l2 -76h4q17 38 33 75.5t33 75.5l111 243h134l-253 -496h-158z" />
    <glyph glyph-name="w" unicode="w" horiz-adv-x="748" 
d="M96 0l-24 496h135l1 -240q-1 -36 -2.5 -72.5t-3.5 -73.5h4q14 37 27 74t29 72l102 240h119l8 -240q1 -36 0.5 -72.5t-0.5 -73.5h4q14 37 26 73.5t26 72.5l93 240h127l-212 -496h-161l-4 208q1 35 1 70.5t1 74.5h-4q-14 -39 -26 -74.5t-26 -70.5l-85 -208h-155z" />
    <glyph glyph-name="x" unicode="x" horiz-adv-x="490" 
d="M-40 0l210 265l-86 231h138l30 -86q6 -22 12 -42.5t12 -41.5h4q13 21 26.5 42t24.5 42l51 86h146l-194 -262l92 -234h-140l-31 87q-7 21 -14 43l-14 44h-4q-13 -22 -27.5 -43.5t-28.5 -43.5l-60 -87h-147z" />
    <glyph glyph-name="y" unicode="y" horiz-adv-x="499" 
d="M36 -194q-13 0 -34.5 6t-36.5 14l42 98q17 -10 37 -10q27 0 52.5 19.5t41.5 52.5l12 25l-86 485h136l23 -224q4 -32 6 -73t3 -76h4q16 35 33 75t33 74l104 224h133l-268 -507q-52 -89 -105 -136t-130 -47z" />
    <glyph glyph-name="z" unicode="z" horiz-adv-x="443" 
d="M-10 0l15 77l263 312h-179l20 107h351l-15 -79l-263 -310h208l-21 -107h-379z" />
    <glyph glyph-name="braceleft" unicode="{" horiz-adv-x="328" 
d="M142 -152q-53 0 -75 22t-22 65q0 29 7.5 63.5t18 69t18 64t7.5 47.5q0 22 -14.5 40t-55.5 19l18 80q50 2 71 26.5t27 50.5q6 31 8.5 56.5t5.5 52.5t10 61q17 81 48.5 112t97.5 31h64l-16 -73h-19q-31 0 -44.5 -17t-21.5 -58q-8 -40 -14 -79.5t-14 -83.5
q-12 -57 -35.5 -84.5t-63.5 -36.5v-4q28 -7 42 -23t14 -47q0 -25 -7 -58t-16 -67.5t-16 -65.5t-7 -52q0 -20 8.5 -29t33.5 -9h17l-14 -73h-61z" />
    <glyph glyph-name="bar" unicode="|" horiz-adv-x="255" 
d="M88 -250v1000h86v-1000h-86z" />
    <glyph glyph-name="braceright" unicode="}" horiz-adv-x="331" 
d="M-38 -152l16 73h19q31 0 45 17t21 58q8 40 14 79.5t14 83.5q12 57 35.5 84.5t63.5 36.5v4q-28 7 -42 23t-14 47q0 25 7 58t16 67.5t16 65t7 51.5t-8.5 30t-33.5 9h-17l14 73h62q53 0 74.5 -22t21.5 -65q0 -29 -7.5 -64t-18 -69.5t-18 -63.5t-7.5 -47q0 -22 14.5 -39.5
t55.5 -19.5l-18 -80q-49 -1 -70.5 -26t-27.5 -51q-6 -31 -8.5 -56.5t-5.5 -52.5t-10 -62q-11 -54 -28.5 -85t-45.5 -44t-72 -13h-64z" />
    <glyph glyph-name="asciitilde" unicode="~" horiz-adv-x="509" 
d="M342 246q-28 0 -50 11.5t-41 27t-37 27t-38 11.5q-40 0 -68 -56l-70 47q32 56 70 79t73 23q29 0 51 -11.5t41 -27t37 -27t37 -11.5q40 0 68 56l70 -47q-32 -56 -69.5 -79t-73.5 -23z" />
    <glyph glyph-name="exclamdown" unicode="&#xa1;" horiz-adv-x="331" 
d="M17 -174l29 126l83 318h90l-65 -444h-137zM191 333q-32 0 -51.5 21.5t-19.5 53.5q0 25 12.5 48t34.5 37.5t51 14.5q32 0 51.5 -20.5t19.5 -53.5q0 -24 -12.5 -47.5t-34.5 -38.5t-51 -15z" />
    <glyph glyph-name="cent" unicode="&#xa2;" horiz-adv-x="509" 
d="M212 -18l19 97q-72 11 -115.5 65t-43.5 142q0 63 22 114.5t59 89t83 60.5t95 30l19 96h76l-19 -97q36 -7 62 -26.5t48 -43.5l-79 -75q-13 13 -26 22t-27 13l-56 -281q44 6 80 33l42 -88q-34 -22 -69.5 -36t-74.5 -19l-19 -96h-76zM206 307q0 -80 49 -109l53 267
q-45 -16 -73.5 -58t-28.5 -100z" />
    <glyph glyph-name="sterling" unicode="&#xa3;" horiz-adv-x="509" 
d="M-2 0l17 84q62 27 99 74.5t39 109.5h-96l18 93l70 5q-3 26 -3 48q0 70 31 122.5t84.5 81.5t118.5 29q53 0 91.5 -23.5t65.5 -61.5l-88 -72q-16 23 -33.5 35t-42.5 12q-41 0 -70.5 -34t-29.5 -108q0 -7 0.5 -14t1.5 -15h147l-20 -98h-122q-3 -45 -18.5 -80.5t-45.5 -68.5
v-4h235l-20 -115h-429z" />
    <glyph glyph-name="currency" unicode="&#xa4;" horiz-adv-x="509" 
d="M66 94l-59 70l66 56q-17 32 -17 76q0 45 16 83t42 67l-45 57l72 62l51 -63q53 28 109 28q29 0 54 -7t45 -19l71 62l59 -70l-66 -57q8 -16 12 -34.5t4 -39.5q0 -45 -15.5 -82.5t-41.5 -66.5l49 -60l-73 -63l-53 66q-52 -28 -111 -28q-57 0 -97 25zM250 228q27 0 51 16.5
t39 45t15 64.5q0 38 -18.5 58.5t-50.5 20.5q-26 0 -50.5 -16.5t-39.5 -44.5t-15 -65t19 -58t50 -21z" />
    <glyph glyph-name="yen" unicode="&#xa5;" horiz-adv-x="509" 
d="M136 0l30 149h-148l13 66h148l11 57h-148l13 66h119l-82 298h139l23 -141l10 -66t12 -66h3q20 34 38.5 67t37.5 65l78 141h136l-200 -298h118l-13 -66h-148l-12 -57h148l-13 -66h-148l-30 -149h-135z" />
    <glyph glyph-name="brokenbar" unicode="&#xa6;" horiz-adv-x="255" 
d="M88 309v441h86v-441h-86zM88 -250v455h86v-455h-86z" />
    <glyph glyph-name="section" unicode="&#xa7;" horiz-adv-x="505" 
d="M192 -80q-48 0 -99 22t-92 62l68 85q25 -25 59.5 -46t70.5 -21q28 0 43.5 13.5t15.5 35.5t-21 39t-52 35t-62.5 40.5t-52.5 54.5t-21 78q0 51 29.5 88.5t74.5 59.5q-16 27 -16 60q0 47 22 84t62 58.5t92 21.5q47 0 91 -21t79 -59l-69 -76q-20 20 -46 36t-56 16
q-21 0 -36.5 -11.5t-15.5 -34.5q0 -20 22 -37.5t54 -36t64 -42.5t54 -56t22 -76q0 -55 -28 -92.5t-76 -62.5q5 -10 7.5 -23t2.5 -27q0 -75 -52.5 -121t-137.5 -46zM166 334q0 -28 23.5 -48.5t58 -39t65.5 -42.5q21 11 32.5 28t11.5 44t-23 47.5t-56.5 39.5t-65.5 42
q-20 -10 -33 -27.5t-13 -43.5z" />
    <glyph glyph-name="dieresis" unicode="&#xa8;" horiz-adv-x="534" 
d="M231 572q-25 0 -42 15.5t-17 43.5q0 30 22 52.5t53 22.5q25 0 42 -16t17 -44q0 -31 -21.5 -52.5t-53.5 -21.5zM441 572q-25 0 -41.5 15.5t-16.5 43.5q0 30 21.5 52.5t52.5 22.5q26 0 42.5 -16t16.5 -44q0 -31 -21.5 -52.5t-53.5 -21.5z" />
    <glyph glyph-name="copyright" unicode="&#xa9;" horiz-adv-x="672" 
d="M298 -9q-78 0 -138.5 36t-95 99t-34.5 143q0 79 27.5 149t77.5 123t118.5 83.5t150.5 30.5q78 0 138.5 -36t95 -98.5t34.5 -142.5q0 -79 -27.5 -149t-77.5 -123.5t-118.5 -84t-150.5 -30.5zM303 52q65 0 120.5 25.5t97 70t64.5 102t23 122.5q0 61 -23.5 111.5t-70 81
t-115.5 30.5q-65 0 -120.5 -25.5t-97 -70t-64.5 -102t-23 -122.5q0 -61 23.5 -111.5t70 -81t115.5 -30.5zM330 127q-70 0 -113 41t-43 114q0 54 19.5 97t52 73.5t71.5 46.5t78 16q35 0 61 -16.5t41 -35.5l-57 -56q-13 15 -27 21.5t-30 6.5q-25 0 -50.5 -18t-42.5 -49.5
t-17 -73.5q0 -40 21 -63t58 -23q21 0 37 7.5t37 20.5l38 -60q-61 -49 -134 -49z" />
    <glyph glyph-name="ordfeminine" unicode="&#xaa;" horiz-adv-x="365" 
d="M171 367q-43 0 -68.5 31.5t-25.5 89.5q0 63 25.5 114t66 81t86.5 30q22 0 39.5 -12t27.5 -32h4l15 36h78l-66 -330h-78l2 43h-4q-46 -51 -102 -51zM211 446q17 0 35.5 10.5t34.5 36.5l20 111q-7 16 -18 23t-22 7q-21 0 -40.5 -17.5t-32 -47.5t-12.5 -68q0 -28 10 -41.5
t25 -13.5z" />
    <glyph glyph-name="guillemotleft" unicode="&#xab;" horiz-adv-x="461" 
d="M144 58l-104 149l18 98l153 139l42 -45l-133 -152l78 -154zM333 58l-104 149l18 98l153 139l42 -45l-133 -152l78 -154z" />
    <glyph glyph-name="logicalnot" unicode="&#xac;" horiz-adv-x="509" 
d="M387 95v187h-339v97h437v-284h-98z" />
    <glyph glyph-name="registered" unicode="&#xae;" horiz-adv-x="444" 
d="M255 312q-47 0 -86.5 23t-63.5 63t-24 91q0 58 26 109t73 83.5t109 32.5q47 0 86 -23t63 -62.5t25 -91.5q0 -57 -26.5 -108.5t-73.5 -84t-108 -32.5zM258 359q45 0 80 24t54.5 64t19.5 86q0 57 -34.5 95.5t-91.5 38.5q-45 0 -79.5 -24t-54.5 -63.5t-20 -86.5
q0 -56 34 -95t92 -39zM177 416l40 196h82q30 0 48.5 -15t18.5 -43q0 -20 -12.5 -37.5t-36.5 -26.5l25 -74h-54l-18 62h-26l-13 -62h-54zM251 516h16q20 0 30 10t10 23q0 23 -27 23h-18z" />
    <glyph glyph-name="macron" unicode="&#xaf;" horiz-adv-x="534" 
d="M193 593l18 87h283l-18 -87h-283z" />
    <glyph glyph-name="degree" unicode="&#xb0;" horiz-adv-x="348" 
d="M219 403q-55 0 -90 34.5t-35 91.5q0 44 21.5 79.5t56 56.5t74.5 21q56 0 90.5 -34.5t34.5 -91.5q0 -43 -21 -79t-55.5 -57t-75.5 -21zM225 470q32 0 52.5 27t20.5 62q0 24 -14.5 42t-42.5 18q-33 0 -53 -27t-20 -62q0 -24 14.5 -42t42.5 -18z" />
    <glyph glyph-name="plusminus" unicode="&#xb1;" horiz-adv-x="509" 
d="M215 154v157h-167v97h168v156h101v-156h168v-97h-170v-157h-100zM48 0v97h437v-97h-437z" />
    <glyph glyph-name="two.sups" unicode="&#xb2;" horiz-adv-x="364" 
d="M63 375l11 55q104 68 156.5 120.5t52.5 95.5q0 20 -12 32t-36 12q-16 0 -30.5 -10t-31.5 -26l-56 59q34 31 65 47.5t71 16.5q60 0 95 -30t35 -83q0 -54 -39 -102.5t-104 -101.5h117l-17 -85h-277z" />
    <glyph glyph-name="three.sups" unicode="&#xb3;" horiz-adv-x="360" 
d="M213 363q-53 0 -89.5 22.5t-57.5 57.5l65 47q28 -47 73 -47q29 0 46.5 14.5t17.5 34.5q0 23 -17.5 37.5t-68.5 14.5l12 61q56 0 74.5 18t18.5 39q0 17 -11.5 27t-31.5 10q-18 0 -32.5 -5.5t-34.5 -19.5l-42 66q35 21 65.5 29t65.5 8q53 0 87 -26.5t34 -70.5
q0 -76 -80 -107q28 -14 43 -36.5t15 -48.5q0 -39 -20.5 -67t-55 -43t-76.5 -15z" />
    <glyph glyph-name="acute" unicode="&#xb4;" horiz-adv-x="534" 
d="M313 578l-60 78l185 166l82 -104z" />
    <glyph glyph-name="mu" unicode="&#x3bc;" horiz-adv-x="546" 
d="M-23 -180l134 676h137l-59 -293q-3 -15 -5.5 -26t-2.5 -21q0 -51 51 -51q41 0 99 64l64 327h135l-96 -496h-111l2 67h-4q-23 -31 -52 -51.5t-59 -20.5q-20 0 -36.5 5.5t-24.5 21.5l-9 -61l-27 -141h-136z" />
    <glyph glyph-name="mu" unicode="&#xb5;" horiz-adv-x="546" 
d="M-23 -180l134 676h137l-59 -293q-3 -15 -5.5 -26t-2.5 -21q0 -51 51 -51q41 0 99 64l64 327h135l-96 -496h-111l2 67h-4q-23 -31 -52 -51.5t-59 -20.5q-20 0 -36.5 5.5t-24.5 21.5l-9 -61l-27 -141h-136z" />
    <glyph glyph-name="paragraph" unicode="&#xb6;" horiz-adv-x="608" 
d="M314 -80l145 732h137l-145 -732h-137zM285 200q-57 0 -106.5 21t-79.5 62t-30 100q0 71 24 121.5t65 83.5t94 48.5t110 15.5h44l-91 -452h-30z" />
    <glyph glyph-name="periodcentered" unicode="&#xb7;" horiz-adv-x="291" 
d="M146 239q-31 0 -50.5 20.5t-19.5 53.5q0 25 12 48t34.5 38t51.5 15q32 0 51 -21.5t19 -53.5q0 -37 -27 -68.5t-71 -31.5z" />
    <glyph glyph-name="cedilla" unicode="&#xb8;" horiz-adv-x="534" 
d="M74 -239v59q58 2 82 12.5t28 32.5q2 15 -12 25t-57 16l66 98h85l-40 -65q37 -9 52.5 -26t11.5 -47q-8 -52 -64.5 -77t-151.5 -28z" />
    <glyph glyph-name="one.sups" unicode="&#xb9;" horiz-adv-x="376" 
d="M186 375l58 285h-87l12 62q41 6 65.5 16t51.5 27h78l-76 -390h-102z" />
    <glyph glyph-name="ordmasculine" unicode="&#xba;" horiz-adv-x="358" 
d="M210 367q-56 0 -93.5 36.5t-37.5 100.5t27 110.5t70 72.5t90 26q56 0 93.5 -36t37.5 -101q0 -63 -27 -110t-70 -73t-90 -26zM218 444q36 0 59 38t23 93q0 29 -10.5 45t-32.5 16q-36 0 -58.5 -38t-22.5 -93q0 -28 10 -44.5t32 -16.5z" />
    <glyph glyph-name="guillemotright" unicode="&#xbb;" horiz-adv-x="461" 
d="M69 58l-42 45l133 152l-79 154l55 35l104 -149l-18 -98zM258 58l-42 45l133 152l-79 154l55 35l104 -149l-18 -98z" />
    <glyph glyph-name="onequarter" unicode="&#xbc;" horiz-adv-x="777" 
d="M135 270l58 285h-87l12 62q41 6 65.5 16t51.5 27h78l-76 -390h-102zM123 -12l474 684h80l-474 -684h-80zM510 156h93l10 48l27 120h-4l-60 -86zM572 0l18 89h-184l11 52l195 249h123l-46 -234h57l-14 -67h-56l-17 -89h-87z" />
    <glyph glyph-name="onehalf" unicode="&#xbd;" horiz-adv-x="813" 
d="M131 270l58 285h-87l12 62q41 6 65.5 16t51.5 27h78l-76 -390h-102zM109 -12l474 684h80l-474 -684h-80zM443 0l11 55q104 68 156.5 120.5t52.5 95.5q0 20 -12 32t-36 12q-16 0 -30.5 -10t-31.5 -26l-56 59q34 31 65 47.5t71 16.5q60 0 95 -30t35 -83q0 -54 -39 -102.5
t-104 -101.5h117l-17 -85h-277z" />
    <glyph glyph-name="threequarters" unicode="&#xbe;" horiz-adv-x="788" 
d="M186 258q-53 0 -89.5 22.5t-57.5 57.5l65 47q28 -47 73 -47q29 0 46.5 14.5t17.5 34.5q0 23 -17.5 37.5t-68.5 14.5l12 61q56 0 74.5 18t18.5 39q0 17 -11.5 27t-31.5 10q-18 0 -32.5 -5.5t-34.5 -19.5l-42 66q35 21 65.5 29t65.5 8q53 0 87 -26.5t34 -70.5
q0 -76 -80 -107q28 -14 43 -36.5t15 -48.5q0 -39 -20.5 -67t-55 -43t-76.5 -15zM147 -12l474 684h80l-474 -684h-80zM522 156h93l10 48l27 120h-4l-60 -86zM584 0l18 89h-184l11 52l195 249h123l-46 -234h57l-14 -67h-56l-17 -89h-87z" />
    <glyph glyph-name="questiondown" unicode="&#xbf;" horiz-adv-x="444" 
d="M180 -186q-81 0 -131 40.5t-50 111.5q0 47 18 79.5t45 57.5t55 49t49.5 53t27.5 70l116 -11q-5 -48 -24.5 -81.5t-45 -58t-50.5 -45.5t-41.5 -42.5t-16.5 -50.5q0 -28 17.5 -44.5t47.5 -16.5q39 0 76 38l70 -77q-35 -34 -76.5 -53t-86.5 -19zM268 334q-32 0 -51 21.5
t-19 52.5q0 38 27 69t70 31q32 0 51.5 -20.5t19.5 -53.5q0 -24 -12.5 -47t-34.5 -38t-51 -15z" />
    <glyph glyph-name="Agrave" unicode="&#xc0;" horiz-adv-x="548" 
d="M255 353l-40 -86h140l-4 86q-2 48 -4 95t-4 99h-4q-21 -50 -41 -97.5t-43 -96.5zM-62 0l344 652h164l65 -652h-143l-8 164h-194l-77 -164h-151zM392 676l-164 134l94 87l147 -154z" />
    <glyph glyph-name="Aacute" unicode="&#xc1;" horiz-adv-x="548" 
d="M255 353l-40 -86h140l-4 86q-2 48 -4 95t-4 99h-4q-21 -50 -41 -97.5t-43 -96.5zM-62 0l344 652h164l65 -652h-143l-8 164h-194l-77 -164h-151zM330 686l-52 79l195 124l61 -101z" />
    <glyph glyph-name="Acircumflex" unicode="&#xc2;" horiz-adv-x="548" 
d="M255 353l-40 -86h140l-4 86q-2 48 -4 95t-4 99h-4q-21 -50 -41 -97.5t-43 -96.5zM-62 0l344 652h164l65 -652h-143l-8 164h-194l-77 -164h-151zM258 685l-57 44l110 106h160l69 -111l-67 -38l-86 83h-4z" />
    <glyph glyph-name="Atilde" unicode="&#xc3;" horiz-adv-x="548" 
d="M255 353l-40 -86h140l-4 86q-2 48 -4 95t-4 99h-4q-21 -50 -41 -97.5t-43 -96.5zM-62 0l344 652h164l65 -652h-143l-8 164h-194l-77 -164h-151zM442 692q-35 0 -57 14.5t-38 29t-33 14.5q-13 0 -25 -10.5t-20 -38.5l-93 7q17 76 58 110t93 34q35 0 57 -14.5t38 -29
t32 -14.5q14 0 26 11t20 38l93 -7q-17 -76 -58 -110t-93 -34z" />
    <glyph glyph-name="Adieresis" unicode="&#xc4;" horiz-adv-x="548" 
d="M255 353l-40 -86h140l-4 86q-2 48 -4 95t-4 99h-4q-21 -50 -41 -97.5t-43 -96.5zM-62 0l344 652h164l65 -652h-143l-8 164h-194l-77 -164h-151zM270 701q-25 0 -41.5 15.5t-16.5 42.5t21 51t53 24q23 0 40 -15t17 -42q0 -28 -20.5 -52t-52.5 -24zM480 701
q-24 0 -40.5 15.5t-16.5 42.5t21 51t52 24q23 0 40 -15t17 -42q0 -28 -20.5 -52t-52.5 -24z" />
    <glyph glyph-name="Aring" unicode="&#xc5;" horiz-adv-x="548" 
d="M255 353l-40 -86h140l-4 86q-2 48 -4 95t-4 99h-4q-21 -50 -41 -97.5t-43 -96.5zM-62 0l344 652h164l65 -652h-143l-8 164h-194l-77 -164h-151zM379 697q-43 0 -74.5 20.5t-31.5 65.5q0 30 16.5 54.5t44.5 39.5t62 15q41 0 74 -20.5t33 -64.5q0 -46 -36 -78t-88 -32z
M381 750q19 0 33.5 15t14.5 37q0 15 -9 26t-26 11q-20 0 -34 -15.5t-14 -35.5q0 -16 9.5 -27t25.5 -11z" />
    <glyph glyph-name="AE" unicode="&#xc6;" horiz-adv-x="838" 
d="M340 366l-63 -104h124l58 291h-3q-30 -49 -58.5 -94.5t-57.5 -92.5zM-35 0l422 652h470l-23 -115h-242l-27 -142h204l-23 -115h-203l-35 -165h251l-23 -115h-387l31 155h-167l-94 -155h-154z" />
    <glyph glyph-name="Ccedilla" unicode="&#xc7;" horiz-adv-x="567" 
d="M304 -12q-75 0 -131 32.5t-86.5 94t-30.5 146.5q0 84 26.5 157.5t74 128.5t110.5 86t136 31q57 0 101.5 -27.5t72.5 -76.5l-94 -72q-36 57 -87 57q-42 0 -78 -22.5t-63 -61t-42.5 -88t-15.5 -103.5q0 -76 32 -120t104 -44q29 0 57.5 14t53.5 36l57 -88
q-29 -27 -79.5 -53.5t-117.5 -26.5zM134 -239v59q58 2 82 12.5t28 32.5q2 15 -12 25t-57 16l66 98h85l-40 -65q37 -9 52.5 -26t11.5 -47q-8 -52 -64.5 -77t-151.5 -28z" />
    <glyph glyph-name="Egrave" unicode="&#xc8;" horiz-adv-x="527" 
d="M28 0l131 652h386l-22 -115h-251l-28 -142h213l-22 -115h-213l-34 -165h259l-22 -115h-397zM387 676l-164 134l94 87l147 -154z" />
    <glyph glyph-name="Eacute" unicode="&#xc9;" horiz-adv-x="527" 
d="M28 0l131 652h386l-22 -115h-251l-28 -142h213l-22 -115h-213l-34 -165h259l-22 -115h-397zM325 686l-52 79l195 124l61 -101z" />
    <glyph glyph-name="Ecircumflex" unicode="&#xca;" horiz-adv-x="527" 
d="M28 0l131 652h386l-22 -115h-251l-28 -142h213l-22 -115h-213l-34 -165h259l-22 -115h-397zM253 685l-57 44l110 106h160l69 -111l-67 -38l-86 83h-4z" />
    <glyph glyph-name="Edieresis" unicode="&#xcb;" horiz-adv-x="527" 
d="M28 0l131 652h386l-22 -115h-251l-28 -142h213l-22 -115h-213l-34 -165h259l-22 -115h-397zM265 701q-25 0 -41.5 15.5t-16.5 42.5t21 51t53 24q23 0 40 -15t17 -42q0 -28 -20.5 -52t-52.5 -24zM475 701q-24 0 -40.5 15.5t-16.5 42.5t21 51t52 24q23 0 40 -15t17 -42
q0 -28 -20.5 -52t-52.5 -24z" />
    <glyph glyph-name="Igrave" unicode="&#xcc;" horiz-adv-x="294" 
d="M28 0l131 652h137l-130 -652h-138zM260 676l-164 134l94 87l147 -154z" />
    <glyph glyph-name="Iacute" unicode="&#xcd;" horiz-adv-x="294" 
d="M28 0l131 652h137l-130 -652h-138zM198 686l-52 79l195 124l61 -101z" />
    <glyph glyph-name="Icircumflex" unicode="&#xce;" horiz-adv-x="294" 
d="M28 0l131 652h137l-130 -652h-138zM126 685l-57 44l110 106h160l69 -111l-67 -38l-86 83h-4z" />
    <glyph glyph-name="Idieresis" unicode="&#xcf;" horiz-adv-x="294" 
d="M28 0l131 652h137l-130 -652h-138zM138 701q-25 0 -41.5 15.5t-16.5 42.5t21 51t53 24q23 0 40 -15t17 -42q0 -28 -20.5 -52t-52.5 -24zM348 701q-24 0 -40.5 15.5t-16.5 42.5t21 51t52 24q23 0 40 -15t17 -42q0 -28 -20.5 -52t-52.5 -24z" />
    <glyph glyph-name="Eth" unicode="&#xd0;" horiz-adv-x="634" 
d="M46 0l62 307h-70l12 62l71 5l56 278h143q137 0 212.5 -63.5t75.5 -192.5q0 -128 -46 -216.5t-126.5 -134t-185.5 -45.5h-204zM206 110h41q63 0 113 29.5t79 91t29 156.5q0 81 -41.5 118t-109.5 37h-26l-33 -168h125l-15 -67h-123z" />
    <glyph glyph-name="Ntilde" unicode="&#xd1;" horiz-adv-x="643" 
d="M28 0l131 652h133l106 -340l35 -143h4q5 51 10.5 115.5t16.5 120.5l50 247h130l-130 -652h-132l-107 339l-33 145h-4q-5 -55 -11.5 -116.5t-17.5 -117.5l-50 -250h-131zM484 692q-35 0 -57 14.5t-38 29t-33 14.5q-13 0 -25 -10.5t-20 -38.5l-93 7q17 76 58 110t93 34
q35 0 57 -14.5t38 -29t32 -14.5q14 0 26 11t20 38l93 -7q-17 -76 -58 -110t-93 -34z" />
    <glyph glyph-name="Ograve" unicode="&#xd2;" horiz-adv-x="660" 
d="M302 -12q-112 0 -178.5 73t-66.5 203q0 86 26.5 159t73 127t106 84t125.5 30q75 0 130 -33t85 -94.5t30 -148.5q0 -86 -26.5 -159t-72.5 -127t-106 -84t-126 -30zM309 106q35 0 68 21t59 58.5t41.5 87t15.5 106.5q0 78 -28.5 122t-82.5 44q-35 0 -68 -21t-59.5 -58.5
t-42 -86.5t-15.5 -106q0 -78 29 -122.5t83 -44.5zM436 676l-164 134l94 87l147 -154z" />
    <glyph glyph-name="Oacute" unicode="&#xd3;" horiz-adv-x="660" 
d="M302 -12q-112 0 -178.5 73t-66.5 203q0 86 26.5 159t73 127t106 84t125.5 30q75 0 130 -33t85 -94.5t30 -148.5q0 -86 -26.5 -159t-72.5 -127t-106 -84t-126 -30zM309 106q35 0 68 21t59 58.5t41.5 87t15.5 106.5q0 78 -28.5 122t-82.5 44q-35 0 -68 -21t-59.5 -58.5
t-42 -86.5t-15.5 -106q0 -78 29 -122.5t83 -44.5zM374 686l-52 79l195 124l61 -101z" />
    <glyph glyph-name="Ocircumflex" unicode="&#xd4;" horiz-adv-x="660" 
d="M302 -12q-112 0 -178.5 73t-66.5 203q0 86 26.5 159t73 127t106 84t125.5 30q75 0 130 -33t85 -94.5t30 -148.5q0 -86 -26.5 -159t-72.5 -127t-106 -84t-126 -30zM309 106q35 0 68 21t59 58.5t41.5 87t15.5 106.5q0 78 -28.5 122t-82.5 44q-35 0 -68 -21t-59.5 -58.5
t-42 -86.5t-15.5 -106q0 -78 29 -122.5t83 -44.5zM302 685l-57 44l110 106h160l69 -111l-67 -38l-86 83h-4z" />
    <glyph glyph-name="Otilde" unicode="&#xd5;" horiz-adv-x="660" 
d="M302 -12q-112 0 -178.5 73t-66.5 203q0 86 26.5 159t73 127t106 84t125.5 30q75 0 130 -33t85 -94.5t30 -148.5q0 -86 -26.5 -159t-72.5 -127t-106 -84t-126 -30zM309 106q35 0 68 21t59 58.5t41.5 87t15.5 106.5q0 78 -28.5 122t-82.5 44q-35 0 -68 -21t-59.5 -58.5
t-42 -86.5t-15.5 -106q0 -78 29 -122.5t83 -44.5zM486 692q-35 0 -57 14.5t-38 29t-33 14.5q-13 0 -25 -10.5t-20 -38.5l-93 7q17 76 58 110t93 34q35 0 57 -14.5t38 -29t32 -14.5q14 0 26 11t20 38l93 -7q-17 -76 -58 -110t-93 -34z" />
    <glyph glyph-name="Odieresis" unicode="&#xd6;" horiz-adv-x="660" 
d="M302 -12q-112 0 -178.5 73t-66.5 203q0 86 26.5 159t73 127t106 84t125.5 30q75 0 130 -33t85 -94.5t30 -148.5q0 -86 -26.5 -159t-72.5 -127t-106 -84t-126 -30zM309 106q35 0 68 21t59 58.5t41.5 87t15.5 106.5q0 78 -28.5 122t-82.5 44q-35 0 -68 -21t-59.5 -58.5
t-42 -86.5t-15.5 -106q0 -78 29 -122.5t83 -44.5zM314 701q-25 0 -41.5 15.5t-16.5 42.5t21 51t53 24q23 0 40 -15t17 -42q0 -28 -20.5 -52t-52.5 -24zM524 701q-24 0 -40.5 15.5t-16.5 42.5t21 51t52 24q23 0 40 -15t17 -42q0 -28 -20.5 -52t-52.5 -24z" />
    <glyph glyph-name="multiply" unicode="&#xd7;" horiz-adv-x="509" 
d="M130 120l-67 67l136 143l-136 143l67 67l137 -142l136 142l68 -67l-137 -143l137 -143l-68 -67l-136 143z" />
    <glyph glyph-name="Oslash" unicode="&#xd8;" horiz-adv-x="660" 
d="M52 -40l-62 56l97 100q-14 31 -22 68t-8 80q0 86 26.5 159t73 127t106 84t125.5 30q104 0 169 -63l94 97l60 -56l-106 -110q14 -30 21 -66t7 -78q0 -86 -26.5 -159t-72.5 -127t-106 -84t-126 -30q-102 0 -165 60zM197 273q0 -11 0.5 -21t1.5 -20l264 272q-30 41 -81 41
q-35 0 -68 -21t-59.5 -58.5t-42 -86.5t-15.5 -106zM309 106q35 0 68 21t59 58.5t41.5 87t15.5 106.5q0 10 -0.5 18.5t-1.5 17.5l-261 -271q30 -38 79 -38z" />
    <glyph glyph-name="Ugrave" unicode="&#xd9;" horiz-adv-x="643" 
d="M308 -12q-115 0 -174 56t-59 171q0 22 4.5 51t8.5 54l67 332h137l-71 -357q-4 -20 -6 -39t-2 -37q0 -55 22 -84t77 -29q47 0 78 38.5t49 129.5l76 378h134l-76 -376q-30 -150 -95.5 -219t-169.5 -69zM442 676l-164 134l94 87l147 -154z" />
    <glyph glyph-name="Uacute" unicode="&#xda;" horiz-adv-x="643" 
d="M308 -12q-115 0 -174 56t-59 171q0 22 4.5 51t8.5 54l67 332h137l-71 -357q-4 -20 -6 -39t-2 -37q0 -55 22 -84t77 -29q47 0 78 38.5t49 129.5l76 378h134l-76 -376q-30 -150 -95.5 -219t-169.5 -69zM380 686l-52 79l195 124l61 -101z" />
    <glyph glyph-name="Ucircumflex" unicode="&#xdb;" horiz-adv-x="643" 
d="M308 -12q-115 0 -174 56t-59 171q0 22 4.5 51t8.5 54l67 332h137l-71 -357q-4 -20 -6 -39t-2 -37q0 -55 22 -84t77 -29q47 0 78 38.5t49 129.5l76 378h134l-76 -376q-30 -150 -95.5 -219t-169.5 -69zM308 685l-57 44l110 106h160l69 -111l-67 -38l-86 83h-4z" />
    <glyph glyph-name="Udieresis" unicode="&#xdc;" horiz-adv-x="643" 
d="M308 -12q-115 0 -174 56t-59 171q0 22 4.5 51t8.5 54l67 332h137l-71 -357q-4 -20 -6 -39t-2 -37q0 -55 22 -84t77 -29q47 0 78 38.5t49 129.5l76 378h134l-76 -376q-30 -150 -95.5 -219t-169.5 -69zM320 701q-25 0 -41.5 15.5t-16.5 42.5t21 51t53 24q23 0 40 -15
t17 -42q0 -28 -20.5 -52t-52.5 -24zM530 701q-24 0 -40.5 15.5t-16.5 42.5t21 51t52 24q23 0 40 -15t17 -42q0 -28 -20.5 -52t-52.5 -24z" />
    <glyph glyph-name="Yacute" unicode="&#xdd;" horiz-adv-x="509" 
d="M138 0l46 236l-104 416h142l28 -157q7 -37 12.5 -71t12.5 -73h4q20 39 39 74t41 72l91 155h147l-276 -416l-47 -236h-136zM306 686l-52 79l195 124l61 -101z" />
    <glyph glyph-name="Thorn" unicode="&#xde;" horiz-adv-x="595" 
d="M28 0l131 660h137l-21 -104h88q60 0 107 -17t74.5 -55t27.5 -101q0 -91 -41.5 -146.5t-110 -81t-150.5 -25.5h-80l-26 -130h-136zM212 239h71q74 0 113.5 31.5t39.5 92.5q0 44 -26.5 64t-75.5 20h-81z" />
    <glyph glyph-name="germandbls" unicode="&#xdf;" horiz-adv-x="609" 
d="M374 -12q-38 0 -75.5 10.5t-71.5 33.5l56 91q20 -13 42.5 -23t47.5 -10q27 0 44 16.5t17 42.5q0 20 -13.5 36t-34 31t-41 32.5t-34 39.5t-13.5 53q0 34 17.5 58t40 44.5t40 43.5t17.5 56q0 29 -13.5 45t-45.5 16q-41 0 -68.5 -36.5t-38.5 -88.5l-96 -479h-137l102 505
q12 59 43.5 106t82 74.5t117.5 27.5q47 0 89.5 -16t69.5 -49t27 -85q0 -43 -17 -72.5t-40 -51t-40 -40t-17 -39.5q0 -16 13 -30t32.5 -29t39 -34t32.5 -44t13 -60q0 -49 -25 -88.5t-67 -63t-95 -23.5z" />
    <glyph glyph-name="agrave" unicode="&#xe0;" horiz-adv-x="552" 
d="M171 -12q-65 0 -102.5 47t-37.5 135q0 71 22 132.5t59.5 107.5t85 72t98.5 26q34 0 64 -17.5t44 -47.5h2l22 53h109l-99 -496h-111l2 65h-3q-34 -35 -75 -56t-80 -21zM231 100q25 0 53.5 15.5t52.5 57.5l35 176q-12 25 -30.5 36t-35.5 11q-34 0 -64.5 -27.5t-49.5 -74.5
t-19 -107q0 -45 15.5 -66t42.5 -21zM365 569l-154 171l117 87l121 -193z" />
    <glyph glyph-name="aacute" unicode="&#xe1;" horiz-adv-x="552" 
d="M171 -12q-65 0 -102.5 47t-37.5 135q0 71 22 132.5t59.5 107.5t85 72t98.5 26q34 0 64 -17.5t44 -47.5h2l22 53h109l-99 -496h-111l2 65h-3q-34 -35 -75 -56t-80 -21zM231 100q25 0 53.5 15.5t52.5 57.5l35 176q-12 25 -30.5 36t-35.5 11q-34 0 -64.5 -27.5t-49.5 -74.5
t-19 -107q0 -45 15.5 -66t42.5 -21zM312 578l-60 78l185 166l82 -104z" />
    <glyph glyph-name="acircumflex" unicode="&#xe2;" horiz-adv-x="552" 
d="M171 -12q-65 0 -102.5 47t-37.5 135q0 71 22 132.5t59.5 107.5t85 72t98.5 26q34 0 64 -17.5t44 -47.5h2l22 53h109l-99 -496h-111l2 65h-3q-34 -35 -75 -56t-80 -21zM231 100q25 0 53.5 15.5t52.5 57.5l35 176q-12 25 -30.5 36t-35.5 11q-34 0 -64.5 -27.5t-49.5 -74.5
t-19 -107q0 -45 15.5 -66t42.5 -21zM199 561l-48 55l131 128h150l85 -131l-61 -52l-106 96h-4z" />
    <glyph glyph-name="atilde" unicode="&#xe3;" horiz-adv-x="552" 
d="M171 -12q-65 0 -102.5 47t-37.5 135q0 71 22 132.5t59.5 107.5t85 72t98.5 26q34 0 64 -17.5t44 -47.5h2l22 53h109l-99 -496h-111l2 65h-3q-34 -35 -75 -56t-80 -21zM231 100q25 0 53.5 15.5t52.5 57.5l35 176q-12 25 -30.5 36t-35.5 11q-34 0 -64.5 -27.5t-49.5 -74.5
t-19 -107q0 -45 15.5 -66t42.5 -21zM406 573q-25 0 -42 10t-30 22.5t-25.5 22.5t-27.5 10t-27 -13.5t-17 -42.5l-91 5q14 78 50.5 115t91.5 37q25 0 42 -9.5t30 -22.5t25.5 -22.5t27.5 -9.5t27 13t17 42l91 -5q-13 -77 -50 -114.5t-92 -37.5z" />
    <glyph glyph-name="adieresis" unicode="&#xe4;" horiz-adv-x="552" 
d="M171 -12q-65 0 -102.5 47t-37.5 135q0 71 22 132.5t59.5 107.5t85 72t98.5 26q34 0 64 -17.5t44 -47.5h2l22 53h109l-99 -496h-111l2 65h-3q-34 -35 -75 -56t-80 -21zM231 100q25 0 53.5 15.5t52.5 57.5l35 176q-12 25 -30.5 36t-35.5 11q-34 0 -64.5 -27.5t-49.5 -74.5
t-19 -107q0 -45 15.5 -66t42.5 -21zM230 572q-25 0 -42 15.5t-17 43.5q0 30 22 52.5t53 22.5q25 0 42 -16t17 -44q0 -31 -21.5 -52.5t-53.5 -21.5zM440 572q-25 0 -41.5 15.5t-16.5 43.5q0 30 21.5 52.5t52.5 22.5q26 0 42.5 -16t16.5 -44q0 -31 -21.5 -52.5t-53.5 -21.5z
" />
    <glyph glyph-name="aring" unicode="&#xe5;" horiz-adv-x="552" 
d="M171 -12q-65 0 -102.5 47t-37.5 135q0 71 22 132.5t59.5 107.5t85 72t98.5 26q34 0 64 -17.5t44 -47.5h2l22 53h109l-99 -496h-111l2 65h-3q-34 -35 -75 -56t-80 -21zM231 100q25 0 53.5 15.5t52.5 57.5l35 176q-12 25 -30.5 36t-35.5 11q-34 0 -64.5 -27.5t-49.5 -74.5
t-19 -107q0 -45 15.5 -66t42.5 -21zM334 566q-49 0 -81.5 23.5t-32.5 65.5q0 49 40.5 82t103.5 33q50 0 82 -23.5t32 -65.5q0 -49 -40.5 -82t-103.5 -33zM343 619q20 0 34.5 17.5t14.5 40.5q0 16 -9 28t-28 12t-34 -17.5t-15 -40.5q0 -17 9 -28.5t28 -11.5z" />
    <glyph glyph-name="ae" unicode="&#xe6;" horiz-adv-x="754" 
d="M155 -12q-56 0 -94.5 33.5t-38.5 90.5q0 73 41 115.5t110 61.5t153 21q1 6 1 11v10q0 37 -17 53.5t-50 16.5q-28 0 -60 -10.5t-67 -27.5l-30 95q44 22 93 36t98 14q44 0 75 -16t47 -51q67 67 147 67q60 0 95.5 -25t51 -67t15.5 -94q0 -34 -9 -66.5t-14 -43.5h-274
q-4 -63 25 -92t77 -29q23 0 47.5 11t42.5 24l49 -86q-28 -21 -71.5 -36.5t-97.5 -15.5q-52 0 -94.5 23.5t-62.5 57.5q-44 -38 -89 -59.5t-99 -21.5zM210 93q22 0 48 14.5t51 44.5q-2 18 -2.5 35.5t1.5 39.5q-78 -2 -115.5 -26t-37.5 -62q0 -22 15.5 -34t39.5 -12zM439 296
h170q2 9 3 17t1 17q0 30 -14.5 51.5t-52.5 21.5q-31 0 -61 -27t-46 -80z" />
    <glyph glyph-name="ccedilla" unicode="&#xe7;" horiz-adv-x="443" 
d="M223 -12q-55 0 -99 24t-69.5 70t-25.5 110q0 65 22.5 122t62.5 100.5t93 68.5t114 25q47 0 80.5 -19t52.5 -42l-76 -81q-15 16 -30 24t-36 8q-39 0 -71.5 -27.5t-52 -73.5t-19.5 -102q0 -45 21 -71t63 -26q26 0 44.5 10t34.5 22l57 -84q-28 -21 -67.5 -39.5t-98.5 -18.5z
M64 -239v59q58 2 82 12.5t28 32.5q2 15 -12 25t-57 16l66 98h85l-40 -65q37 -9 52.5 -26t11.5 -47q-8 -52 -64.5 -77t-151.5 -28z" />
    <glyph glyph-name="egrave" unicode="&#xe8;" horiz-adv-x="496" 
d="M232 -12q-90 0 -146.5 56.5t-56.5 155.5q0 69 24 125.5t64.5 97.5t89.5 63t98 22q59 0 94.5 -25t51.5 -67t16 -94q0 -34 -9 -66.5t-15 -43.5h-284q-4 -64 29 -92.5t82 -28.5q23 0 48 11t44 24l48 -86q-30 -21 -75 -36.5t-103 -15.5zM170 296h180q5 15 5 34
q0 30 -14.5 51.5t-52.5 21.5q-35 0 -68 -27t-50 -80zM362 569l-154 171l117 87l121 -193z" />
    <glyph glyph-name="eacute" unicode="&#xe9;" horiz-adv-x="496" 
d="M232 -12q-90 0 -146.5 56.5t-56.5 155.5q0 69 24 125.5t64.5 97.5t89.5 63t98 22q59 0 94.5 -25t51.5 -67t16 -94q0 -34 -9 -66.5t-15 -43.5h-284q-4 -64 29 -92.5t82 -28.5q23 0 48 11t44 24l48 -86q-30 -21 -75 -36.5t-103 -15.5zM170 296h180q5 15 5 34
q0 30 -14.5 51.5t-52.5 21.5q-35 0 -68 -27t-50 -80zM309 578l-60 78l185 166l82 -104z" />
    <glyph glyph-name="ecircumflex" unicode="&#xea;" horiz-adv-x="496" 
d="M232 -12q-90 0 -146.5 56.5t-56.5 155.5q0 69 24 125.5t64.5 97.5t89.5 63t98 22q59 0 94.5 -25t51.5 -67t16 -94q0 -34 -9 -66.5t-15 -43.5h-284q-4 -64 29 -92.5t82 -28.5q23 0 48 11t44 24l48 -86q-30 -21 -75 -36.5t-103 -15.5zM170 296h180q5 15 5 34
q0 30 -14.5 51.5t-52.5 21.5q-35 0 -68 -27t-50 -80zM196 561l-48 55l131 128h150l85 -131l-61 -52l-106 96h-4z" />
    <glyph glyph-name="edieresis" unicode="&#xeb;" horiz-adv-x="496" 
d="M232 -12q-90 0 -146.5 56.5t-56.5 155.5q0 69 24 125.5t64.5 97.5t89.5 63t98 22q59 0 94.5 -25t51.5 -67t16 -94q0 -34 -9 -66.5t-15 -43.5h-284q-4 -64 29 -92.5t82 -28.5q23 0 48 11t44 24l48 -86q-30 -21 -75 -36.5t-103 -15.5zM170 296h180q5 15 5 34
q0 30 -14.5 51.5t-52.5 21.5q-35 0 -68 -27t-50 -80zM227 572q-25 0 -42 15.5t-17 43.5q0 30 22 52.5t53 22.5q25 0 42 -16t17 -44q0 -31 -21.5 -52.5t-53.5 -21.5zM437 572q-25 0 -41.5 15.5t-16.5 43.5q0 30 21.5 52.5t52.5 22.5q26 0 42.5 -16t16.5 -44
q0 -31 -21.5 -52.5t-53.5 -21.5z" />
    <glyph glyph-name="igrave" unicode="&#xec;" horiz-adv-x="265" 
d="M14 0l100 496h136l-99 -496h-137zM232 569l-154 171l117 87l121 -193z" />
    <glyph glyph-name="iacute" unicode="&#xed;" horiz-adv-x="265" 
d="M14 0l100 496h136l-99 -496h-137zM179 578l-60 78l185 166l82 -104z" />
    <glyph glyph-name="icircumflex" unicode="&#xee;" horiz-adv-x="265" 
d="M14 0l100 496h136l-99 -496h-137zM66 561l-48 55l131 128h150l85 -131l-61 -52l-106 96h-4z" />
    <glyph glyph-name="idieresis" unicode="&#xef;" horiz-adv-x="265" 
d="M14 0l100 496h136l-99 -496h-137zM97 572q-25 0 -42 15.5t-17 43.5q0 30 22 52.5t53 22.5q25 0 42 -16t17 -44q0 -31 -21.5 -52.5t-53.5 -21.5zM307 572q-25 0 -41.5 15.5t-16.5 43.5q0 30 21.5 52.5t52.5 22.5q26 0 42.5 -16t16.5 -44q0 -31 -21.5 -52.5t-53.5 -21.5z
" />
    <glyph glyph-name="eth" unicode="&#xf0;" horiz-adv-x="537" 
d="M157 193q0 -40 20 -67.5t59 -27.5q36 0 63 26t44 71.5t22 103.5q-14 21 -35 36.5t-50 15.5q-40 0 -67.5 -23.5t-41.5 -60t-14 -74.5zM223 -12q-52 0 -95 23.5t-68.5 67.5t-25.5 103q0 50 15 98t44.5 88t72 63.5t97.5 23.5q30 0 57.5 -13.5t43.5 -40.5q-7 81 -46 142
l-145 -58l-26 65l124 50q-16 16 -36.5 31.5t-43.5 29.5l63 79q37 -20 69.5 -43.5t58.5 -52.5l145 58l26 -65l-125 -50q32 -48 49 -105.5t17 -125.5t-16.5 -133.5t-50 -118.5t-84.5 -84.5t-120 -31.5z" />
    <glyph glyph-name="ntilde" unicode="&#xf1;" horiz-adv-x="552" 
d="M14 0l100 496h111l-2 -66h4q36 32 77 55t88 23q62 0 90 -32.5t28 -94.5q0 -17 -2 -34.5t-6 -36.5l-62 -310h-137l59 293q3 15 5.5 26t2.5 21q0 51 -51 51q-23 0 -47.5 -15.5t-56.5 -48.5l-64 -327h-137zM440 573q-25 0 -42 10t-30 22.5t-25.5 22.5t-27.5 10t-27 -13.5
t-17 -42.5l-91 5q14 78 50.5 115t91.5 37q25 0 42 -9.5t30 -22.5t25.5 -22.5t27.5 -9.5t27 13t17 42l91 -5q-13 -77 -50 -114.5t-92 -37.5z" />
    <glyph glyph-name="ograve" unicode="&#xf2;" horiz-adv-x="533" 
d="M222 -12q-87 0 -139.5 56t-52.5 148q0 72 24 130t64 100t89.5 64t100.5 22q58 0 101 -25.5t67 -71t24 -107.5q0 -72 -24 -130t-64 -100t-89.5 -64t-100.5 -22zM237 98q34 0 62 26.5t45.5 72.5t17.5 104q0 46 -17.5 71.5t-52.5 25.5q-33 0 -61.5 -26.5t-45.5 -72.5
t-17 -104q0 -45 17.5 -71t51.5 -26zM366 569l-154 171l117 87l121 -193z" />
    <glyph glyph-name="oacute" unicode="&#xf3;" horiz-adv-x="533" 
d="M222 -12q-87 0 -139.5 56t-52.5 148q0 72 24 130t64 100t89.5 64t100.5 22q58 0 101 -25.5t67 -71t24 -107.5q0 -72 -24 -130t-64 -100t-89.5 -64t-100.5 -22zM237 98q34 0 62 26.5t45.5 72.5t17.5 104q0 46 -17.5 71.5t-52.5 25.5q-33 0 -61.5 -26.5t-45.5 -72.5
t-17 -104q0 -45 17.5 -71t51.5 -26zM313 578l-60 78l185 166l82 -104z" />
    <glyph glyph-name="ocircumflex" unicode="&#xf4;" horiz-adv-x="533" 
d="M222 -12q-87 0 -139.5 56t-52.5 148q0 72 24 130t64 100t89.5 64t100.5 22q58 0 101 -25.5t67 -71t24 -107.5q0 -72 -24 -130t-64 -100t-89.5 -64t-100.5 -22zM237 98q34 0 62 26.5t45.5 72.5t17.5 104q0 46 -17.5 71.5t-52.5 25.5q-33 0 -61.5 -26.5t-45.5 -72.5
t-17 -104q0 -45 17.5 -71t51.5 -26zM200 561l-48 55l131 128h150l85 -131l-61 -52l-106 96h-4z" />
    <glyph glyph-name="otilde" unicode="&#xf5;" horiz-adv-x="533" 
d="M222 -12q-87 0 -139.5 56t-52.5 148q0 72 24 130t64 100t89.5 64t100.5 22q58 0 101 -25.5t67 -71t24 -107.5q0 -72 -24 -130t-64 -100t-89.5 -64t-100.5 -22zM237 98q34 0 62 26.5t45.5 72.5t17.5 104q0 46 -17.5 71.5t-52.5 25.5q-33 0 -61.5 -26.5t-45.5 -72.5
t-17 -104q0 -45 17.5 -71t51.5 -26zM407 573q-25 0 -42 10t-30 22.5t-25.5 22.5t-27.5 10t-27 -13.5t-17 -42.5l-91 5q14 78 50.5 115t91.5 37q25 0 42 -9.5t30 -22.5t25.5 -22.5t27.5 -9.5t27 13t17 42l91 -5q-13 -77 -50 -114.5t-92 -37.5z" />
    <glyph glyph-name="odieresis" unicode="&#xf6;" horiz-adv-x="533" 
d="M222 -12q-87 0 -139.5 56t-52.5 148q0 72 24 130t64 100t89.5 64t100.5 22q58 0 101 -25.5t67 -71t24 -107.5q0 -72 -24 -130t-64 -100t-89.5 -64t-100.5 -22zM237 98q34 0 62 26.5t45.5 72.5t17.5 104q0 46 -17.5 71.5t-52.5 25.5q-33 0 -61.5 -26.5t-45.5 -72.5
t-17 -104q0 -45 17.5 -71t51.5 -26zM231 572q-25 0 -42 15.5t-17 43.5q0 30 22 52.5t53 22.5q25 0 42 -16t17 -44q0 -31 -21.5 -52.5t-53.5 -21.5zM441 572q-25 0 -41.5 15.5t-16.5 43.5q0 30 21.5 52.5t52.5 22.5q26 0 42.5 -16t16.5 -44q0 -31 -21.5 -52.5t-53.5 -21.5z
" />
    <glyph glyph-name="divide" unicode="&#xf7;" horiz-adv-x="509" 
d="M48 282v97h437v-97h-437zM267 76q-32 0 -54 20t-22 52q0 31 22 52t54 21t54 -21t22 -52q0 -32 -22 -52t-54 -20zM267 438q-32 0 -54 21t-22 53q0 31 22 51.5t54 20.5t54 -20.5t22 -51.5q0 -32 -22 -53t-54 -21z" />
    <glyph glyph-name="oslash" unicode="&#xf8;" horiz-adv-x="533" 
d="M158 195v-8t1 -8l191 197q-19 25 -53 25q-45 0 -76 -31.5t-47 -79t-16 -95.5zM43 -25l-43 41l59 60q-29 47 -29 116q0 72 24 130t64 100t89.5 64t100.5 22q77 0 128 -45l54 56l44 -39l-61 -63q13 -22 20 -50.5t7 -62.5q0 -72 -24 -130.5t-64 -100t-89.5 -63.5t-100.5 -22
q-74 0 -125 43zM232 95q46 0 77 31.5t47 78.5t16 94v7.5t-1 6.5l-190 -196q19 -22 51 -22z" />
    <glyph glyph-name="ugrave" unicode="&#xf9;" horiz-adv-x="545" 
d="M156 -12q-61 0 -89 33t-28 95q0 17 2 34t6 36l62 310h136l-58 -293q-4 -15 -6 -26t-2 -21q0 -51 50 -51q42 0 99 64l64 327h137l-98 -496h-111l2 67h-4q-34 -31 -75.5 -55t-86.5 -24zM364 569l-154 171l117 87l121 -193z" />
    <glyph glyph-name="uacute" unicode="&#xfa;" horiz-adv-x="545" 
d="M156 -12q-61 0 -89 33t-28 95q0 17 2 34t6 36l62 310h136l-58 -293q-4 -15 -6 -26t-2 -21q0 -51 50 -51q42 0 99 64l64 327h137l-98 -496h-111l2 67h-4q-34 -31 -75.5 -55t-86.5 -24zM311 578l-60 78l185 166l82 -104z" />
    <glyph glyph-name="ucircumflex" unicode="&#xfb;" horiz-adv-x="545" 
d="M156 -12q-61 0 -89 33t-28 95q0 17 2 34t6 36l62 310h136l-58 -293q-4 -15 -6 -26t-2 -21q0 -51 50 -51q42 0 99 64l64 327h137l-98 -496h-111l2 67h-4q-34 -31 -75.5 -55t-86.5 -24zM198 561l-48 55l131 128h150l85 -131l-61 -52l-106 96h-4z" />
    <glyph glyph-name="udieresis" unicode="&#xfc;" horiz-adv-x="545" 
d="M156 -12q-61 0 -89 33t-28 95q0 17 2 34t6 36l62 310h136l-58 -293q-4 -15 -6 -26t-2 -21q0 -51 50 -51q42 0 99 64l64 327h137l-98 -496h-111l2 67h-4q-34 -31 -75.5 -55t-86.5 -24zM229 572q-25 0 -42 15.5t-17 43.5q0 30 22 52.5t53 22.5q25 0 42 -16t17 -44
q0 -31 -21.5 -52.5t-53.5 -21.5zM439 572q-25 0 -41.5 15.5t-16.5 43.5q0 30 21.5 52.5t52.5 22.5q26 0 42.5 -16t16.5 -44q0 -31 -21.5 -52.5t-53.5 -21.5z" />
    <glyph glyph-name="yacute" unicode="&#xfd;" horiz-adv-x="499" 
d="M36 -194q-13 0 -34.5 6t-36.5 14l42 98q17 -10 37 -10q27 0 52.5 19.5t41.5 52.5l12 25l-86 485h136l23 -224q4 -32 6 -73t3 -76h4q16 35 33 75t33 74l104 224h133l-268 -507q-52 -89 -105 -136t-130 -47zM292 578l-60 78l185 166l82 -104z" />
    <glyph glyph-name="thorn" unicode="&#xfe;" horiz-adv-x="553" 
d="M-23 -184l178 885h137l-33 -159l-25 -93h2q33 27 70 43t74 16q66 0 103 -47t37 -135q0 -71 -22 -132.5t-59 -107.5t-84.5 -72t-98.5 -26q-31 0 -57.5 15.5t-43.5 43.5h-2l-14 -97l-25 -134h-137zM246 100q35 0 65 27.5t49 74.5t19 107q0 45 -16 66t-42 21
q-23 0 -51.5 -13.5t-50.5 -48.5l-38 -188q11 -24 28.5 -35t36.5 -11z" />
    <glyph glyph-name="ydieresis" unicode="&#xff;" horiz-adv-x="499" 
d="M36 -194q-13 0 -34.5 6t-36.5 14l42 98q17 -10 37 -10q27 0 52.5 19.5t41.5 52.5l12 25l-86 485h136l23 -224q4 -32 6 -73t3 -76h4q16 35 33 75t33 74l104 224h133l-268 -507q-52 -89 -105 -136t-130 -47zM210 572q-25 0 -42 15.5t-17 43.5q0 30 22 52.5t53 22.5
q25 0 42 -16t17 -44q0 -31 -21.5 -52.5t-53.5 -21.5zM420 572q-25 0 -41.5 15.5t-16.5 43.5q0 30 21.5 52.5t52.5 22.5q26 0 42.5 -16t16.5 -44q0 -31 -21.5 -52.5t-53.5 -21.5z" />
    <glyph glyph-name="Amacron" unicode="&#x100;" horiz-adv-x="548" 
d="M255 353l-40 -86h140l-4 86q-2 48 -4 95t-4 99h-4q-21 -50 -41 -97.5t-43 -96.5zM-62 0l344 652h164l65 -652h-143l-8 164h-194l-77 -164h-151zM231 720l17 88h288l-18 -88h-287z" />
    <glyph glyph-name="amacron" unicode="&#x101;" horiz-adv-x="552" 
d="M171 -12q-65 0 -102.5 47t-37.5 135q0 71 22 132.5t59.5 107.5t85 72t98.5 26q34 0 64 -17.5t44 -47.5h2l22 53h109l-99 -496h-111l2 65h-3q-34 -35 -75 -56t-80 -21zM231 100q25 0 53.5 15.5t52.5 57.5l35 176q-12 25 -30.5 36t-35.5 11q-34 0 -64.5 -27.5t-49.5 -74.5
t-19 -107q0 -45 15.5 -66t42.5 -21zM192 593l18 87h283l-18 -87h-283z" />
    <glyph glyph-name="Abreve" unicode="&#x102;" horiz-adv-x="548" 
d="M255 353l-40 -86h140l-4 86q-2 48 -4 95t-4 99h-4q-21 -50 -41 -97.5t-43 -96.5zM-62 0l344 652h164l65 -652h-143l-8 164h-194l-77 -164h-151zM373 697q-74 0 -108.5 35t-30.5 102l84 14q0 -31 18.5 -48.5t52.5 -17.5t58 17.5t37 48.5l77 -14q-19 -67 -66 -102t-122 -35
z" />
    <glyph glyph-name="abreve" unicode="&#x103;" horiz-adv-x="552" 
d="M171 -12q-65 0 -102.5 47t-37.5 135q0 71 22 132.5t59.5 107.5t85 72t98.5 26q34 0 64 -17.5t44 -47.5h2l22 53h109l-99 -496h-111l2 65h-3q-34 -35 -75 -56t-80 -21zM231 100q25 0 53.5 15.5t52.5 57.5l35 176q-12 25 -30.5 36t-35.5 11q-34 0 -64.5 -27.5t-49.5 -74.5
t-19 -107q0 -45 15.5 -66t42.5 -21zM333 572q-57 0 -90 21t-45 56.5t-6 79.5l87 14q-2 -32 14.5 -55.5t56.5 -23.5t64 23.5t35 55.5l81 -14q-13 -66 -62 -111.5t-135 -45.5z" />
    <glyph glyph-name="Aogonek" unicode="&#x104;" horiz-adv-x="548" 
d="M255 353l-40 -86h140l-4 86q-2 48 -4 95t-4 99h-4q-21 -50 -41 -97.5t-43 -96.5zM391 -222q-40 0 -66 20t-26 57q0 33 16.5 61t38.5 49.5t40 34.5h-26l-8 164h-194l-77 -164h-151l344 652h164l65 -652q-58 -22 -81.5 -50t-23.5 -51q0 -16 10.5 -24t24.5 -8q13 0 27 9
l27 -67q-21 -13 -50 -22t-54 -9z" />
    <glyph glyph-name="aogonek" unicode="&#x105;" horiz-adv-x="552" 
d="M319 -210q-37 0 -61.5 18.5t-24.5 54.5q0 33 16.5 60t39 47.5t38.5 31.5l2 63h-3q-34 -35 -75 -56t-80 -21q-65 0 -102.5 47t-37.5 135q0 71 22 132.5t59.5 107.5t85 72t98.5 26q34 0 64 -17.5t44 -47.5h2l22 53h109l-99 -496q-49 -15 -77.5 -41t-28.5 -57
q0 -14 10.5 -22t24.5 -8q8 0 16 3t16 7l23 -56q-21 -15 -50 -25.5t-53 -10.5zM231 100q25 0 53.5 15.5t52.5 57.5l35 176q-12 25 -30.5 36t-35.5 11q-34 0 -64.5 -27.5t-49.5 -74.5t-19 -107q0 -45 15.5 -66t42.5 -21z" />
    <glyph glyph-name="Cacute" unicode="&#x106;" horiz-adv-x="567" 
d="M304 -12q-75 0 -131 32.5t-86.5 94t-30.5 146.5q0 84 26.5 157.5t74 128.5t110.5 86t136 31q57 0 101.5 -27.5t72.5 -76.5l-94 -72q-36 57 -87 57q-42 0 -78 -22.5t-63 -61t-42.5 -88t-15.5 -103.5q0 -76 32 -120t104 -44q29 0 57.5 14t53.5 36l57 -88
q-29 -27 -79.5 -53.5t-117.5 -26.5zM374 686l-52 79l195 124l61 -101z" />
    <glyph glyph-name="cacute" unicode="&#x107;" horiz-adv-x="443" 
d="M223 -12q-55 0 -99 24t-69.5 70t-25.5 110q0 65 22.5 122t62.5 100.5t93 68.5t114 25q47 0 80.5 -19t52.5 -42l-76 -81q-15 16 -30 24t-36 8q-39 0 -71.5 -27.5t-52 -73.5t-19.5 -102q0 -45 21 -71t63 -26q26 0 44.5 10t34.5 22l57 -84q-28 -21 -67.5 -39.5t-98.5 -18.5z
M294 578l-60 78l185 166l82 -104z" />
    <glyph glyph-name="Ccircumflex" unicode="&#x108;" horiz-adv-x="567" 
d="M304 -12q-75 0 -131 32.5t-86.5 94t-30.5 146.5q0 84 26.5 157.5t74 128.5t110.5 86t136 31q57 0 101.5 -27.5t72.5 -76.5l-94 -72q-36 57 -87 57q-42 0 -78 -22.5t-63 -61t-42.5 -88t-15.5 -103.5q0 -76 32 -120t104 -44q29 0 57.5 14t53.5 36l57 -88
q-29 -27 -79.5 -53.5t-117.5 -26.5zM302 685l-57 44l110 106h160l69 -111l-67 -38l-86 83h-4z" />
    <glyph glyph-name="ccircumflex" unicode="&#x109;" horiz-adv-x="443" 
d="M223 -12q-55 0 -99 24t-69.5 70t-25.5 110q0 65 22.5 122t62.5 100.5t93 68.5t114 25q47 0 80.5 -19t52.5 -42l-76 -81q-15 16 -30 24t-36 8q-39 0 -71.5 -27.5t-52 -73.5t-19.5 -102q0 -45 21 -71t63 -26q26 0 44.5 10t34.5 22l57 -84q-28 -21 -67.5 -39.5t-98.5 -18.5z
M181 561l-48 55l131 128h150l85 -131l-61 -52l-106 96h-4z" />
    <glyph glyph-name="Cdotaccent" unicode="&#x10a;" horiz-adv-x="567" 
d="M304 -12q-75 0 -131 32.5t-86.5 94t-30.5 146.5q0 84 26.5 157.5t74 128.5t110.5 86t136 31q57 0 101.5 -27.5t72.5 -76.5l-94 -72q-36 57 -87 57q-42 0 -78 -22.5t-63 -61t-42.5 -88t-15.5 -103.5q0 -76 32 -120t104 -44q29 0 57.5 14t53.5 36l57 -88
q-29 -27 -79.5 -53.5t-117.5 -26.5zM424 703q-28 0 -51 16.5t-23 49.5t24.5 57t60.5 24q28 0 51 -17t23 -49q0 -35 -25 -58t-60 -23z" />
    <glyph glyph-name="cdotaccent" unicode="&#x10b;" horiz-adv-x="443" 
d="M223 -12q-55 0 -99 24t-69.5 70t-25.5 110q0 65 22.5 122t62.5 100.5t93 68.5t114 25q47 0 80.5 -19t52.5 -42l-76 -81q-15 16 -30 24t-36 8q-39 0 -71.5 -27.5t-52 -73.5t-19.5 -102q0 -45 21 -71t63 -26q26 0 44.5 10t34.5 22l57 -84q-28 -21 -67.5 -39.5t-98.5 -18.5z
M320 570q-28 0 -51 16.5t-23 49.5t25 57t60 24q29 0 51.5 -17t22.5 -49q0 -35 -24.5 -58t-60.5 -23z" />
    <glyph glyph-name="Ccaron" unicode="&#x10c;" horiz-adv-x="567" 
d="M304 -12q-75 0 -131 32.5t-86.5 94t-30.5 146.5q0 84 26.5 157.5t74 128.5t110.5 86t136 31q57 0 101.5 -27.5t72.5 -76.5l-94 -72q-36 57 -87 57q-42 0 -78 -22.5t-63 -61t-42.5 -88t-15.5 -103.5q0 -76 32 -120t104 -44q29 0 57.5 14t53.5 36l57 -88
q-29 -27 -79.5 -53.5t-117.5 -26.5zM340 702l-70 110l68 39l85 -83h4l126 84l57 -44l-110 -106h-160z" />
    <glyph glyph-name="ccaron" unicode="&#x10d;" horiz-adv-x="443" 
d="M223 -12q-55 0 -99 24t-69.5 70t-25.5 110q0 65 22.5 122t62.5 100.5t93 68.5t114 25q47 0 80.5 -19t52.5 -42l-76 -81q-15 16 -30 24t-36 8q-39 0 -71.5 -27.5t-52 -73.5t-19.5 -102q0 -45 21 -71t63 -26q26 0 44.5 10t34.5 22l57 -84q-28 -21 -67.5 -39.5t-98.5 -18.5z
M244 579l-86 131l61 52l106 -96h4l148 96l47 -56l-130 -127h-150z" />
    <glyph glyph-name="Dcaron" unicode="&#x10e;" horiz-adv-x="616" 
d="M28 0l131 652h143q137 0 212.5 -63.5t75.5 -192.5q0 -128 -46 -216.5t-126.5 -134t-185.5 -45.5h-204zM188 110h41q63 0 113 29.5t79 91t29 156.5q0 81 -41.5 118t-109.5 37h-26zM317 702l-70 110l68 39l85 -83h4l126 84l57 -44l-110 -106h-160z" />
    <glyph glyph-name="dcaron" unicode="&#x10f;" horiz-adv-x="569" 
d="M171 -12q-65 0 -102.5 47t-37.5 135q0 71 22 132.5t59.5 107.5t85 72t98.5 26q34 0 60.5 -16.5t40.5 -43.5h3l12 94l30 159h137l-141 -701h-111l2 65h-3q-34 -35 -75 -56t-80 -21zM231 100q25 0 53 15.5t53 57.5l35 176q-12 25 -30.5 36t-35.5 11q-34 0 -64.5 -27.5
t-49.5 -74.5t-19 -107q0 -45 15.5 -66t42.5 -21zM587 548l40 222h87l-14 -69l-53 -153h-60z" />
    <glyph glyph-name="Dcroat" unicode="&#x110;" horiz-adv-x="634" 
d="M46 0l62 307h-70l12 62l71 5l56 278h143q137 0 212.5 -63.5t75.5 -192.5q0 -128 -46 -216.5t-126.5 -134t-185.5 -45.5h-204zM206 110h41q63 0 113 29.5t79 91t29 156.5q0 81 -41.5 118t-109.5 37h-26l-33 -168h125l-15 -67h-123z" />
    <glyph glyph-name="dcroat" unicode="&#x111;" horiz-adv-x="550" 
d="M171 -12q-65 0 -102.5 47t-37.5 135q0 63 22 120t59.5 101.5t85 70.5t98.5 26q34 0 59 -16.5t38 -43.5h3l12 94l7 36h-144l13 67h144l14 76h137l-15 -76h67l-14 -62l-67 -5l-112 -558h-111l2 65h-3q-34 -35 -75 -56t-80 -21zM231 100q25 0 53 15.5t53 57.5l31 156
q-10 25 -27.5 36t-35.5 11q-34 0 -64.5 -27t-49 -70t-18.5 -92q0 -45 15.5 -66t42.5 -21z" />
    <glyph glyph-name="Emacron" unicode="&#x112;" horiz-adv-x="527" 
d="M28 0l131 652h386l-22 -115h-251l-28 -142h213l-22 -115h-213l-34 -165h259l-22 -115h-397zM226 720l17 88h288l-18 -88h-287z" />
    <glyph glyph-name="emacron" unicode="&#x113;" horiz-adv-x="496" 
d="M232 -12q-90 0 -146.5 56.5t-56.5 155.5q0 69 24 125.5t64.5 97.5t89.5 63t98 22q59 0 94.5 -25t51.5 -67t16 -94q0 -34 -9 -66.5t-15 -43.5h-284q-4 -64 29 -92.5t82 -28.5q23 0 48 11t44 24l48 -86q-30 -21 -75 -36.5t-103 -15.5zM170 296h180q5 15 5 34
q0 30 -14.5 51.5t-52.5 21.5q-35 0 -68 -27t-50 -80zM189 593l18 87h283l-18 -87h-283z" />
    <glyph glyph-name="Ebreve" unicode="&#x114;" horiz-adv-x="527" 
d="M28 0l131 652h386l-22 -115h-251l-28 -142h213l-22 -115h-213l-34 -165h259l-22 -115h-397zM368 697q-74 0 -108.5 35t-30.5 102l84 14q0 -31 18.5 -48.5t52.5 -17.5t58 17.5t37 48.5l77 -14q-19 -67 -66 -102t-122 -35z" />
    <glyph glyph-name="ebreve" unicode="&#x115;" horiz-adv-x="496" 
d="M232 -12q-90 0 -146.5 56.5t-56.5 155.5q0 69 24 125.5t64.5 97.5t89.5 63t98 22q59 0 94.5 -25t51.5 -67t16 -94q0 -34 -9 -66.5t-15 -43.5h-284q-4 -64 29 -92.5t82 -28.5q23 0 48 11t44 24l48 -86q-30 -21 -75 -36.5t-103 -15.5zM170 296h180q5 15 5 34
q0 30 -14.5 51.5t-52.5 21.5q-35 0 -68 -27t-50 -80zM330 572q-57 0 -90 21t-45 56.5t-6 79.5l87 14q-2 -32 14.5 -55.5t56.5 -23.5t64 23.5t35 55.5l81 -14q-13 -66 -62 -111.5t-135 -45.5z" />
    <glyph glyph-name="Edotaccent" unicode="&#x116;" horiz-adv-x="527" 
d="M28 0l131 652h386l-22 -115h-251l-28 -142h213l-22 -115h-213l-34 -165h259l-22 -115h-397zM375 703q-28 0 -51 16.5t-23 49.5t24.5 57t60.5 24q28 0 51 -17t23 -49q0 -35 -25 -58t-60 -23z" />
    <glyph glyph-name="edotaccent" unicode="&#x117;" horiz-adv-x="496" 
d="M232 -12q-90 0 -146.5 56.5t-56.5 155.5q0 69 24 125.5t64.5 97.5t89.5 63t98 22q59 0 94.5 -25t51.5 -67t16 -94q0 -34 -9 -66.5t-15 -43.5h-284q-4 -64 29 -92.5t82 -28.5q23 0 48 11t44 24l48 -86q-30 -21 -75 -36.5t-103 -15.5zM170 296h180q5 15 5 34
q0 30 -14.5 51.5t-52.5 21.5q-35 0 -68 -27t-50 -80zM335 570q-28 0 -51 16.5t-23 49.5t25 57t60 24q29 0 51.5 -17t22.5 -49q0 -35 -24.5 -58t-60.5 -23z" />
    <glyph glyph-name="Eogonek" unicode="&#x118;" horiz-adv-x="527" 
d="M309 -222q-41 0 -66.5 20t-25.5 57q0 34 17.5 63t40 50.5t37.5 31.5h-284l131 652h386l-22 -115h-251l-28 -142h213l-22 -115h-213l-34 -165h259l-22 -115q-30 -4 -53 -22.5t-35.5 -40.5t-12.5 -38t10.5 -24t24.5 -8q13 0 27 9l26 -67q-21 -13 -50 -22t-53 -9z" />
    <glyph glyph-name="eogonek" unicode="&#x119;" horiz-adv-x="496" 
d="M255 -210q-37 0 -61 18.5t-24 54.5q0 39 24.5 70t49.5 55h-5h-5q-91 0 -148 56.5t-57 155.5q0 69 24 125.5t64.5 97.5t89.5 63t98 22q59 0 94.5 -25t51.5 -67t16 -94q0 -35 -10 -68.5t-16 -44.5h-282q-3 -62 29.5 -90t81.5 -28q23 0 48 11t44 24l48 -86
q-59 -29 -89.5 -55t-41 -46.5t-10.5 -36.5q0 -14 10.5 -22t23.5 -8q15 0 33 10l23 -56q-21 -15 -50 -25.5t-54 -10.5zM170 293h180q5 17 5 37q0 30 -14.5 51.5t-52.5 21.5q-35 0 -68 -27.5t-50 -82.5z" />
    <glyph glyph-name="Ecaron" unicode="&#x11a;" horiz-adv-x="527" 
d="M28 0l131 652h386l-22 -115h-251l-28 -142h213l-22 -115h-213l-34 -165h259l-22 -115h-397zM291 702l-70 110l68 39l85 -83h4l126 84l57 -44l-110 -106h-160z" />
    <glyph glyph-name="ecaron" unicode="&#x11b;" horiz-adv-x="496" 
d="M232 -12q-90 0 -146.5 56.5t-56.5 155.5q0 69 24 125.5t64.5 97.5t89.5 63t98 22q59 0 94.5 -25t51.5 -67t16 -94q0 -34 -9 -66.5t-15 -43.5h-284q-4 -64 29 -92.5t82 -28.5q23 0 48 11t44 24l48 -86q-30 -21 -75 -36.5t-103 -15.5zM170 296h180q5 15 5 34
q0 30 -14.5 51.5t-52.5 21.5q-35 0 -68 -27t-50 -80zM259 579l-86 131l61 52l106 -96h4l148 96l47 -56l-130 -127h-150z" />
    <glyph glyph-name="Gcircumflex" unicode="&#x11c;" horiz-adv-x="611" 
d="M314 -12q-121 0 -189.5 72t-68.5 201q0 84 26.5 157.5t75 128.5t113.5 86t142 31q63 0 108.5 -27.5t73.5 -76.5l-93 -72q-19 29 -41.5 43t-54.5 14q-60 0 -107.5 -38.5t-74.5 -101t-27 -135.5q0 -75 32.5 -120t108.5 -45q20 0 39 6t32 16l28 128h-107l21 112h227
l-60 -311q-37 -29 -89.5 -48.5t-114.5 -19.5zM302 685l-57 44l110 106h160l69 -111l-67 -38l-86 83h-4z" />
    <glyph glyph-name="gcircumflex" unicode="&#x11d;" horiz-adv-x="546" 
d="M178 -203q-44 0 -92.5 18t-91.5 52l60 91q28 -22 60 -37t67 -15q47 0 77.5 24.5t43.5 69.5l26 88q-33 -34 -72 -53t-80 -19q-63 0 -104 42.5t-41 130.5q0 67 21 125t57.5 101.5t83 68t97.5 24.5q34 0 63 -17.5t43 -47.5h3l21 53h111l-97 -488q-22 -108 -88 -159.5
t-168 -51.5zM229 127q25 0 53 14t52 51l31 157q-13 25 -30.5 36t-34.5 11q-34 0 -63 -25t-46.5 -67.5t-17.5 -96.5q0 -40 15.5 -60t40.5 -20zM191 561l-48 55l131 128h150l85 -131l-61 -52l-106 96h-4z" />
    <glyph glyph-name="Gbreve" unicode="&#x11e;" horiz-adv-x="611" 
d="M314 -12q-121 0 -189.5 72t-68.5 201q0 84 26.5 157.5t75 128.5t113.5 86t142 31q63 0 108.5 -27.5t73.5 -76.5l-93 -72q-19 29 -41.5 43t-54.5 14q-60 0 -107.5 -38.5t-74.5 -101t-27 -135.5q0 -75 32.5 -120t108.5 -45q20 0 39 6t32 16l28 128h-107l21 112h227
l-60 -311q-37 -29 -89.5 -48.5t-114.5 -19.5zM417 697q-74 0 -108.5 35t-30.5 102l84 14q0 -31 18.5 -48.5t52.5 -17.5t58 17.5t37 48.5l77 -14q-19 -67 -66 -102t-122 -35z" />
    <glyph glyph-name="gbreve" unicode="&#x11f;" horiz-adv-x="546" 
d="M178 -203q-44 0 -92.5 18t-91.5 52l60 91q28 -22 60 -37t67 -15q47 0 77.5 24.5t43.5 69.5l26 88q-33 -34 -72 -53t-80 -19q-63 0 -104 42.5t-41 130.5q0 67 21 125t57.5 101.5t83 68t97.5 24.5q34 0 63 -17.5t43 -47.5h3l21 53h111l-97 -488q-22 -108 -88 -159.5
t-168 -51.5zM229 127q25 0 53 14t52 51l31 157q-13 25 -30.5 36t-34.5 11q-34 0 -63 -25t-46.5 -67.5t-17.5 -96.5q0 -40 15.5 -60t40.5 -20zM325 572q-57 0 -90 21t-45 56.5t-6 79.5l87 14q-2 -32 14.5 -55.5t56.5 -23.5t64 23.5t35 55.5l81 -14q-13 -66 -62 -111.5
t-135 -45.5z" />
    <glyph glyph-name="Gdotaccent" unicode="&#x120;" horiz-adv-x="611" 
d="M314 -12q-121 0 -189.5 72t-68.5 201q0 84 26.5 157.5t75 128.5t113.5 86t142 31q63 0 108.5 -27.5t73.5 -76.5l-93 -72q-19 29 -41.5 43t-54.5 14q-60 0 -107.5 -38.5t-74.5 -101t-27 -135.5q0 -75 32.5 -120t108.5 -45q20 0 39 6t32 16l28 128h-107l21 112h227
l-60 -311q-37 -29 -89.5 -48.5t-114.5 -19.5zM424 703q-28 0 -51 16.5t-23 49.5t24.5 57t60.5 24q28 0 51 -17t23 -49q0 -35 -25 -58t-60 -23z" />
    <glyph glyph-name="gdotaccent" unicode="&#x121;" horiz-adv-x="546" 
d="M178 -203q-44 0 -92.5 18t-91.5 52l60 91q28 -22 60 -37t67 -15q47 0 77.5 24.5t43.5 69.5l26 88q-33 -34 -72 -53t-80 -19q-63 0 -104 42.5t-41 130.5q0 67 21 125t57.5 101.5t83 68t97.5 24.5q34 0 63 -17.5t43 -47.5h3l21 53h111l-97 -488q-22 -108 -88 -159.5
t-168 -51.5zM229 127q25 0 53 14t52 51l31 157q-13 25 -30.5 36t-34.5 11q-34 0 -63 -25t-46.5 -67.5t-17.5 -96.5q0 -40 15.5 -60t40.5 -20zM330 570q-28 0 -51 16.5t-23 49.5t25 57t60 24q29 0 51.5 -17t22.5 -49q0 -35 -24.5 -58t-60.5 -23z" />
    <glyph glyph-name="uni0122" unicode="&#x122;" horiz-adv-x="611" 
d="M314 -12q-121 0 -189.5 72t-68.5 201q0 84 26.5 157.5t75 128.5t113.5 86t142 31q63 0 108.5 -27.5t73.5 -76.5l-93 -72q-19 29 -41.5 43t-54.5 14q-60 0 -107.5 -38.5t-74.5 -101t-27 -135.5q0 -75 32.5 -120t108.5 -45q20 0 39 6t32 16l28 128h-107l21 112h227
l-60 -311q-37 -29 -89.5 -48.5t-114.5 -19.5zM159 -238l-1 59q59 2 84 13.5t25 29.5q0 11 -12.5 21t-44.5 10l38 54q52 -2 79.5 -12t37.5 -25.5t10 -34.5q0 -39 -28.5 -63.5t-77 -37t-110.5 -14.5z" />
    <glyph glyph-name="uni0123" unicode="&#x123;" horiz-adv-x="546" 
d="M178 -203q-44 0 -92.5 18t-91.5 52l60 91q28 -22 60 -37t67 -15q47 0 77.5 24.5t43.5 69.5l26 88q-33 -34 -72 -53t-80 -19q-63 0 -104 42.5t-41 130.5q0 67 21 125t57.5 101.5t83 68t97.5 24.5q34 0 63 -17.5t43 -47.5h3l21 53h111l-97 -488q-22 -108 -88 -159.5
t-168 -51.5zM229 127q25 0 53 14t52 51l31 157q-13 25 -30.5 36t-34.5 11q-34 0 -63 -25t-46.5 -67.5t-17.5 -96.5q0 -40 15.5 -60t40.5 -20zM363 569q-52 3 -79.5 12.5t-37.5 25t-10 34.5q0 39 28.5 63.5t78.5 37t112 14.5l-2 -59q-58 -2 -83 -13.5t-25 -29.5
q0 -12 12 -21.5t44 -10.5z" />
    <glyph glyph-name="Hcircumflex" unicode="&#x124;" horiz-adv-x="652" 
d="M28 0l131 652h137l-52 -253h223l50 253h137l-130 -652h-138l57 279h-223l-54 -279h-138zM299 685l-57 44l110 106h160l69 -111l-67 -38l-86 83h-4z" />
    <glyph glyph-name="hcircumflex" unicode="&#x125;" horiz-adv-x="547" 
d="M14 0l141 701h137l-38 -183l-22 -80h4q33 29 72.5 49.5t83.5 20.5q62 0 90 -32.5t28 -94.5q0 -17 -1.5 -34.5t-6.5 -36.5l-62 -310h-137l59 293q3 15 5.5 26t2.5 21q0 51 -51 51q-23 0 -47.5 -15.5t-56.5 -48.5l-64 -327h-137zM313 724l-57 44l110 106h160l69 -111
l-67 -38l-86 83h-4z" />
    <glyph glyph-name="Hbar" unicode="&#x126;" horiz-adv-x="684" 
d="M44 0l96 480h-72l16 78l73 4l18 90h137l-18 -89h221l18 89h137l-18 -89h73l-15 -83h-74l-96 -480h-138l57 279h-223l-54 -279h-138zM260 399h223l16 81h-222z" />
    <glyph glyph-name="hbar" unicode="&#x127;" horiz-adv-x="547" 
d="M14 0l110 549h-67l15 78l69 6l14 68h137l-14 -68h161l-17 -84h-161l-11 -51l-22 -80h4q33 29 72.5 49.5t83.5 20.5q62 0 90 -32.5t28 -94.5q0 -17 -1.5 -34.5t-6.5 -36.5l-58 -290h-137l55 273q3 15 5.5 26t2.5 21q0 51 -51 51q-23 0 -47.5 -15.5t-56.5 -48.5l-60 -307
h-137z" />
    <glyph glyph-name="Itilde" unicode="&#x128;" horiz-adv-x="294" 
d="M28 0l131 652h137l-130 -652h-138zM310 692q-35 0 -57 14.5t-38 29t-33 14.5q-13 0 -25 -10.5t-20 -38.5l-93 7q17 76 58 110t93 34q35 0 57 -14.5t38 -29t32 -14.5q14 0 26 11t20 38l93 -7q-17 -76 -58 -110t-93 -34z" />
    <glyph glyph-name="itilde" unicode="&#x129;" horiz-adv-x="265" 
d="M14 0l100 496h136l-99 -496h-137zM273 573q-25 0 -42 10t-30 22.5t-25.5 22.5t-27.5 10t-27 -13.5t-17 -42.5l-91 5q14 78 50.5 115t91.5 37q25 0 42 -9.5t30 -22.5t25.5 -22.5t27.5 -9.5t27 13t17 42l91 -5q-13 -77 -50 -114.5t-92 -37.5z" />
    <glyph glyph-name="Imacron" unicode="&#x12a;" horiz-adv-x="294" 
d="M28 0l131 652h137l-130 -652h-138zM99 720l17 88h288l-18 -88h-287z" />
    <glyph glyph-name="imacron" unicode="&#x12b;" horiz-adv-x="265" 
d="M14 0l100 496h136l-99 -496h-137zM59 593l18 87h283l-18 -87h-283z" />
    <glyph glyph-name="uni012C" unicode="&#x12c;" horiz-adv-x="294" 
d="M28 0l131 652h137l-130 -652h-138zM241 697q-74 0 -108.5 35t-30.5 102l84 14q0 -31 18.5 -48.5t52.5 -17.5t58 17.5t37 48.5l77 -14q-19 -67 -66 -102t-122 -35z" />
    <glyph glyph-name="uni012D" unicode="&#x12d;" horiz-adv-x="265" 
d="M14 0l100 496h136l-99 -496h-137zM200 572q-57 0 -90 21t-45 56.5t-6 79.5l87 14q-2 -32 14.5 -55.5t56.5 -23.5t64 23.5t35 55.5l81 -14q-13 -66 -62 -111.5t-135 -45.5z" />
    <glyph glyph-name="Iogonek" unicode="&#x12e;" horiz-adv-x="294" 
d="M57 -222q-41 0 -66.5 20t-25.5 57q0 34 17.5 63t40 50.5t37.5 31.5h-32l131 652h137l-130 -652q-47 -18 -70.5 -48t-23.5 -53q0 -16 10.5 -24t24.5 -8q13 0 27 9l26 -67q-20 -13 -49.5 -22t-53.5 -9z" />
    <glyph glyph-name="iogonek" unicode="&#x12f;" horiz-adv-x="265" 
d="M47 -210q-37 0 -61.5 18.5t-24.5 54.5q0 32 16.5 59.5t38.5 47.5t37 30h-39l100 496h136l-99 -496q-49 -19 -70 -45t-21 -53q0 -14 10.5 -22t24.5 -8q8 0 16 3t16 7l23 -56q-21 -15 -50 -25.5t-53 -10.5zM205 570q-28 0 -51 16.5t-23 49.5t25 57t60 24q29 0 51.5 -17
t22.5 -49q0 -35 -24.5 -58t-60.5 -23z" />
    <glyph glyph-name="Idotaccent" unicode="&#x130;" horiz-adv-x="294" 
d="M28 0l131 652h137l-130 -652h-138zM248 703q-28 0 -51 16.5t-23 49.5t24.5 57t60.5 24q28 0 51 -17t23 -49q0 -35 -25 -58t-60 -23z" />
    <glyph glyph-name="dotlessi" unicode="&#x131;" horiz-adv-x="265" 
d="M14 0l100 496h136l-99 -496h-137z" />
    <glyph glyph-name="uni0132" unicode="&#x132;" horiz-adv-x="589" 
d="M276 -176q-25 0 -48 5t-47 17l41 99q11 -6 21 -9.5t22 -3.5q26 0 38.5 19t21.5 59l128 642h137l-129 -648q-10 -50 -32 -91t-59 -65t-94 -24zM28 0l131 652h137l-130 -652h-138z" />
    <glyph glyph-name="uni0133" unicode="&#x133;" horiz-adv-x="532" 
d="M14 0l100 496h136l-99 -496h-137zM205 570q-28 0 -51 16.5t-23 49.5t25 57t60 24q29 0 51.5 -17t22.5 -49q0 -35 -24.5 -58t-60.5 -23zM230 -196q-26 0 -49 5t-47 17l41 99q11 -6 21 -9.5t23 -3.5q25 0 37.5 19t22.5 59l101 506h137l-103 -512q-10 -50 -32 -91t-59 -65
t-93 -24zM469 570q-28 0 -51 16.5t-23 49.5t25 57t60 24q29 0 51.5 -17t22.5 -49q0 -35 -24.5 -58t-60.5 -23z" />
    <glyph glyph-name="Jcircumflex" unicode="&#x134;" horiz-adv-x="491" 
d="M176 -12q-56 0 -105.5 26t-78.5 73l84 83q14 -25 40 -44.5t60 -19.5q76 0 100 121l85 425h137l-90 -449q-11 -58 -39.5 -107t-76 -78.5t-116.5 -29.5zM330 685l-57 44l110 106h160l69 -111l-67 -38l-86 83h-4z" />
    <glyph glyph-name="jcircumflex" unicode="&#x135;" horiz-adv-x="267" 
d="M-35 -196q-26 0 -49 5t-47 17l41 99q11 -6 21 -9.5t23 -3.5q25 0 37.5 19t22.5 59l101 506h137l-103 -512q-10 -50 -32 -91t-59 -65t-93 -24zM65 561l-48 55l131 128h150l85 -131l-61 -52l-106 96h-4z" />
    <glyph glyph-name="uni0136" unicode="&#x136;" horiz-adv-x="604" 
d="M28 0l131 652h137l-53 -268h3l245 268h150l-237 -268l146 -384h-143l-104 298l-99 -107l-38 -191h-138zM155 -238l-1 59q59 2 84 13.5t25 29.5q0 11 -12.5 21t-44.5 10l38 54q52 -2 79.5 -12t37.5 -25.5t10 -34.5q0 -39 -28.5 -63.5t-77 -37t-110.5 -14.5z" />
    <glyph glyph-name="uni0137" unicode="&#x137;" horiz-adv-x="525" 
d="M14 0l141 701h137l-82 -406h4l187 201h152l-203 -217l118 -279h-137l-75 200l-81 -81l-24 -119h-137zM95 -238l-1 59q59 2 84 13.5t25 29.5q0 11 -12.5 21t-44.5 10l38 54q52 -2 79.5 -12t37.5 -25.5t10 -34.5q0 -39 -28.5 -63.5t-77 -37t-110.5 -14.5z" />
    <glyph glyph-name="kgreenlandic" unicode="&#x138;" horiz-adv-x="525" 
d="M14 0l98 496h137l-39 -201h4l187 201h152l-203 -217l118 -279h-137l-75 200l-81 -81l-24 -119h-137z" />
    <glyph glyph-name="Lacute" unicode="&#x139;" horiz-adv-x="500" 
d="M28 0l131 652h137l-108 -537h247l-22 -115h-385zM215 686l-52 79l195 124l61 -101z" />
    <glyph glyph-name="lacute" unicode="&#x13a;" horiz-adv-x="275" 
d="M137 -12q-53 0 -76.5 26t-23.5 71q0 26 7 61l111 555h137l-113 -561q-1 -7 -1.5 -11t-0.5 -8q0 -13 6 -18t13 -5q5 0 8 0.5t10 1.5l-4 -101q-13 -4 -31 -7.5t-42 -3.5zM184 726l-52 79l195 124l61 -101z" />
    <glyph glyph-name="uni013B" unicode="&#x13b;" horiz-adv-x="500" 
d="M28 0l131 652h137l-108 -537h247l-22 -115h-385zM81 -238l-1 59q59 2 84 13.5t25 29.5q0 11 -12.5 21t-44.5 10l38 54q52 -2 79.5 -12t37.5 -25.5t10 -34.5q0 -39 -28.5 -63.5t-77 -37t-110.5 -14.5z" />
    <glyph glyph-name="uni013C" unicode="&#x13c;" horiz-adv-x="275" 
d="M137 -12q-53 0 -76.5 26t-23.5 71q0 26 7 61l111 555h137l-113 -561q-1 -7 -1.5 -11t-0.5 -8q0 -13 6 -18t13 -5q5 0 8 0.5t10 1.5l-4 -101q-13 -4 -31 -7.5t-42 -3.5zM-29 -238l-1 59q59 2 84 13.5t25 29.5q0 11 -12.5 21t-44.5 10l38 54q52 -2 79.5 -12t37.5 -25.5
t10 -34.5q0 -39 -28.5 -63.5t-77 -37t-110.5 -14.5z" />
    <glyph glyph-name="Lcaron" unicode="&#x13d;" horiz-adv-x="500" 
d="M28 0l131 652h137l-108 -537h247l-22 -115h-385zM390 508l40 222h87l-14 -69l-53 -153h-60z" />
    <glyph glyph-name="lcaron" unicode="&#x13e;" horiz-adv-x="284" 
d="M137 -12q-53 0 -76.5 26t-23.5 71q0 26 7 61l111 555h137l-113 -561q-1 -7 -1.5 -11t-0.5 -8q0 -13 6 -18t13 -5q5 0 8 0.5t10 1.5l-4 -101q-13 -4 -31 -7.5t-42 -3.5zM302 548l40 222h87l-14 -69l-53 -153h-60z" />
    <glyph glyph-name="Ldot" unicode="&#x13f;" horiz-adv-x="500" 
d="M28 0l131 652h137l-108 -537h247l-22 -115h-385zM400 239q-31 0 -50.5 20.5t-19.5 53.5q0 25 12 48t34.5 38t51.5 15q32 0 51 -21.5t19 -53.5q0 -37 -27 -68.5t-71 -31.5z" />
    <glyph glyph-name="ldot" unicode="&#x140;" horiz-adv-x="421" 
d="M137 -12q-53 0 -76.5 26t-23.5 71q0 26 7 61l111 555h137l-113 -561q-1 -7 -1.5 -11t-0.5 -8q0 -13 6 -18t13 -5q5 0 8 0.5t10 1.5l-4 -101q-13 -4 -31 -7.5t-42 -3.5zM346 247q-31 0 -50.5 20.5t-19.5 53.5q0 25 12 48t34.5 38t51.5 15q32 0 51 -21.5t19 -53.5
q0 -37 -27 -68.5t-71 -31.5z" />
    <glyph glyph-name="Lslash" unicode="&#x141;" horiz-adv-x="500" 
d="M28 0l41 205l-54 -27l-33 88l110 54l67 332h137l-52 -261l153 77l34 -88l-210 -103l-33 -162h247l-22 -115h-385z" />
    <glyph glyph-name="lslash" unicode="&#x142;" horiz-adv-x="335" 
d="M172 -12q-53 0 -76.5 26t-23.5 71q0 26 7 61l28 140l-65 -34l-31 83l117 56l62 310h137l-49 -245l91 47l31 -83l-144 -69l-42 -211q-1 -7 -1.5 -11t-0.5 -8q0 -13 6 -18t13 -5q5 0 8 0.5t10 1.5l-4 -101q-13 -4 -31 -7.5t-42 -3.5z" />
    <glyph glyph-name="Nacute" unicode="&#x143;" horiz-adv-x="643" 
d="M28 0l131 652h133l106 -340l35 -143h4q5 51 10.5 115.5t16.5 120.5l50 247h130l-130 -652h-132l-107 339l-33 145h-4q-5 -55 -11.5 -116.5t-17.5 -117.5l-50 -250h-131zM372 686l-52 79l195 124l61 -101z" />
    <glyph glyph-name="nacute" unicode="&#x144;" horiz-adv-x="552" 
d="M14 0l100 496h111l-2 -66h4q36 32 77 55t88 23q62 0 90 -32.5t28 -94.5q0 -17 -2 -34.5t-6 -36.5l-62 -310h-137l59 293q3 15 5.5 26t2.5 21q0 51 -51 51q-23 0 -47.5 -15.5t-56.5 -48.5l-64 -327h-137zM346 578l-60 78l185 166l82 -104z" />
    <glyph glyph-name="uni0145" unicode="&#x145;" horiz-adv-x="643" 
d="M28 0l131 652h133l106 -340l35 -143h4q5 51 10.5 115.5t16.5 120.5l50 247h130l-130 -652h-132l-107 339l-33 145h-4q-5 -55 -11.5 -116.5t-17.5 -117.5l-50 -250h-131zM137 -246l-1 59q59 2 84 13.5t25 29.5q0 11 -12.5 21t-44.5 10l38 54q52 -2 79.5 -12t37.5 -25.5
t10 -34.5q0 -39 -28.5 -63.5t-77 -37t-110.5 -14.5z" />
    <glyph glyph-name="uni0146" unicode="&#x146;" horiz-adv-x="552" 
d="M14 0l100 496h111l-2 -66h4q36 32 77 55t88 23q62 0 90 -32.5t28 -94.5q0 -17 -2 -34.5t-6 -36.5l-62 -310h-137l59 293q3 15 5.5 26t2.5 21q0 51 -51 51q-23 0 -47.5 -15.5t-56.5 -48.5l-64 -327h-137zM89 -238l-1 59q59 2 84 13.5t25 29.5q0 11 -12.5 21t-44.5 10
l38 54q52 -2 79.5 -12t37.5 -25.5t10 -34.5q0 -39 -28.5 -63.5t-77 -37t-110.5 -14.5z" />
    <glyph glyph-name="Ncaron" unicode="&#x147;" horiz-adv-x="643" 
d="M28 0l131 652h133l106 -340l35 -143h4q5 51 10.5 115.5t16.5 120.5l50 247h130l-130 -652h-132l-107 339l-33 145h-4q-5 -55 -11.5 -116.5t-17.5 -117.5l-50 -250h-131zM338 702l-70 110l68 39l85 -83h4l126 84l57 -44l-110 -106h-160z" />
    <glyph glyph-name="ncaron" unicode="&#x148;" horiz-adv-x="552" 
d="M14 0l100 496h111l-2 -66h4q36 32 77 55t88 23q62 0 90 -32.5t28 -94.5q0 -17 -2 -34.5t-6 -36.5l-62 -310h-137l59 293q3 15 5.5 26t2.5 21q0 51 -51 51q-23 0 -47.5 -15.5t-56.5 -48.5l-64 -327h-137zM296 579l-86 131l61 52l106 -96h4l148 96l47 -56l-130 -127h-150z
" />
    <glyph glyph-name="napostrophe" unicode="&#x149;" horiz-adv-x="826" 
d="M129 374l-22 60q38 14 63.5 36t38.5 44.5t13 37.5h-2.5h-3.5q-31 0 -51 16.5t-20 46.5q0 32 22.5 57t60.5 25q34 0 54 -25.5t20 -71.5q0 -59 -24 -104.5t-63 -76t-86 -45.5zM288 0l100 496h111l-2 -66h4q36 32 77 55t88 23q62 0 90 -32.5t28 -94.5q0 -17 -2 -34.5
t-6 -36.5l-62 -310h-137l59 293q3 15 5.5 26t2.5 21q0 51 -51 51q-23 0 -47.5 -15.5t-56.5 -48.5l-64 -327h-137z" />
    <glyph glyph-name="uni014A" unicode="&#x14a;" horiz-adv-x="647" 
d="M363 -12q-26 0 -55 4.5t-44 14.5l51 109q5 -4 13.5 -7t18.5 -3q26 0 50.5 26t44 70.5t31.5 99.5t12 112q0 71 -23 101t-63 30q-29 0 -67 -18t-73 -54l-93 -473h-138l131 652h130l-12 -62q40 35 82 54.5t85 19.5q54 0 95 -24t64 -77t23 -140t-19 -165.5t-54 -139
t-83 -95.5t-107 -35z" />
    <glyph glyph-name="uni014B" unicode="&#x14b;" horiz-adv-x="552" 
d="M252 -196q-26 0 -49 5t-47 17l41 99q11 -6 21 -9.5t23 -3.5q25 0 37.5 19t22.5 59l61 303q3 15 5.5 26t2.5 21q0 51 -51 51q-23 0 -47.5 -15.5t-56.5 -48.5l-64 -327h-137l100 496h111l-2 -66h4q36 32 77 55t88 23q62 0 90 -32.5t28 -94.5q0 -17 -2 -34.5t-6 -36.5
l-66 -326q-10 -50 -32 -91t-59 -65t-93 -24z" />
    <glyph glyph-name="Omacron" unicode="&#x14c;" horiz-adv-x="660" 
d="M302 -12q-112 0 -178.5 73t-66.5 203q0 86 26.5 159t73 127t106 84t125.5 30q75 0 130 -33t85 -94.5t30 -148.5q0 -86 -26.5 -159t-72.5 -127t-106 -84t-126 -30zM309 106q35 0 68 21t59 58.5t41.5 87t15.5 106.5q0 78 -28.5 122t-82.5 44q-35 0 -68 -21t-59.5 -58.5
t-42 -86.5t-15.5 -106q0 -78 29 -122.5t83 -44.5zM275 720l17 88h288l-18 -88h-287z" />
    <glyph glyph-name="omacron" unicode="&#x14d;" horiz-adv-x="533" 
d="M222 -12q-87 0 -139.5 56t-52.5 148q0 72 24 130t64 100t89.5 64t100.5 22q58 0 101 -25.5t67 -71t24 -107.5q0 -72 -24 -130t-64 -100t-89.5 -64t-100.5 -22zM237 98q34 0 62 26.5t45.5 72.5t17.5 104q0 46 -17.5 71.5t-52.5 25.5q-33 0 -61.5 -26.5t-45.5 -72.5
t-17 -104q0 -45 17.5 -71t51.5 -26zM193 593l18 87h283l-18 -87h-283z" />
    <glyph glyph-name="uni014E" unicode="&#x14e;" horiz-adv-x="660" 
d="M302 -12q-112 0 -178.5 73t-66.5 203q0 86 26.5 159t73 127t106 84t125.5 30q75 0 130 -33t85 -94.5t30 -148.5q0 -86 -26.5 -159t-72.5 -127t-106 -84t-126 -30zM309 106q35 0 68 21t59 58.5t41.5 87t15.5 106.5q0 78 -28.5 122t-82.5 44q-35 0 -68 -21t-59.5 -58.5
t-42 -86.5t-15.5 -106q0 -78 29 -122.5t83 -44.5zM417 697q-74 0 -108.5 35t-30.5 102l84 14q0 -31 18.5 -48.5t52.5 -17.5t58 17.5t37 48.5l77 -14q-19 -67 -66 -102t-122 -35z" />
    <glyph glyph-name="uni014F" unicode="&#x14f;" horiz-adv-x="533" 
d="M222 -12q-87 0 -139.5 56t-52.5 148q0 72 24 130t64 100t89.5 64t100.5 22q58 0 101 -25.5t67 -71t24 -107.5q0 -72 -24 -130t-64 -100t-89.5 -64t-100.5 -22zM237 98q34 0 62 26.5t45.5 72.5t17.5 104q0 46 -17.5 71.5t-52.5 25.5q-33 0 -61.5 -26.5t-45.5 -72.5
t-17 -104q0 -45 17.5 -71t51.5 -26zM334 572q-57 0 -90 21t-45 56.5t-6 79.5l87 14q-2 -32 14.5 -55.5t56.5 -23.5t64 23.5t35 55.5l81 -14q-13 -66 -62 -111.5t-135 -45.5z" />
    <glyph glyph-name="Ohungarumlaut" unicode="&#x150;" horiz-adv-x="660" 
d="M302 -12q-112 0 -178.5 73t-66.5 203q0 86 26.5 159t73 127t106 84t125.5 30q75 0 130 -33t85 -94.5t30 -148.5q0 -86 -26.5 -159t-72.5 -127t-106 -84t-126 -30zM309 106q35 0 68 21t59 58.5t41.5 87t15.5 106.5q0 78 -28.5 122t-82.5 44q-35 0 -68 -21t-59.5 -58.5
t-42 -86.5t-15.5 -106q0 -78 29 -122.5t83 -44.5zM346 697l-65 41l128 150l84 -60zM534 697l-66 41l128 150l84 -60z" />
    <glyph glyph-name="ohungarumlaut" unicode="&#x151;" horiz-adv-x="533" 
d="M222 -12q-87 0 -139.5 56t-52.5 148q0 72 24 130t64 100t89.5 64t100.5 22q58 0 101 -25.5t67 -71t24 -107.5q0 -72 -24 -130t-64 -100t-89.5 -64t-100.5 -22zM237 98q34 0 62 26.5t45.5 72.5t17.5 104q0 46 -17.5 71.5t-52.5 25.5q-33 0 -61.5 -26.5t-45.5 -72.5
t-17 -104q0 -45 17.5 -71t51.5 -26zM286 567l-71 42l120 171l89 -53zM465 567l-71 42l120 171l89 -53z" />
    <glyph glyph-name="OE" unicode="&#x152;" horiz-adv-x="833" 
d="M345 0q-136 0 -212 63.5t-76 192.5t46 217t127.5 133.5t185.5 45.5h436l-23 -115h-238l-28 -142h201l-23 -115h-200l-34 -165h247l-23 -115h-386zM349 110h21l86 432h-37q-63 0 -113.5 -29.5t-79.5 -91t-29 -156.5q0 -81 41.5 -118t110.5 -37z" />
    <glyph glyph-name="oe" unicode="&#x153;" horiz-adv-x="798" 
d="M214 -12q-83 0 -133.5 56t-50.5 148q0 72 23.5 130t62.5 100t86.5 64t96.5 22q55 0 88.5 -24.5t52.5 -70.5q35 46 79 70.5t87 24.5q60 0 95.5 -25t51 -67t15.5 -94q0 -34 -9 -65.5t-14 -44.5h-273q-2 -67 27.5 -94t72.5 -27q23 0 48 11t43 24l49 -86q-28 -19 -69 -35.5
t-93 -16.5q-53 0 -95.5 25t-62.5 74q-35 -47 -82 -73t-96 -26zM237 98q31 0 57.5 26.5t42.5 72.5t16 104q0 46 -17 71.5t-52 25.5q-29 0 -55.5 -26.5t-43.5 -72.5t-17 -104q0 -45 17.5 -71t51.5 -26zM483 296h169q2 8 3 16.5t1 17.5q0 30 -14.5 51.5t-51.5 21.5
q-32 0 -62 -27t-45 -80z" />
    <glyph glyph-name="Racute" unicode="&#x154;" horiz-adv-x="596" 
d="M28 0l131 652h204q64 0 114.5 -16.5t79.5 -53t29 -97.5q0 -91 -47 -147t-119 -80l101 -258h-144l-84 239h-80l-47 -239h-138zM235 348h69q73 0 110 32t37 85q0 41 -28 59.5t-81 18.5h-69zM350 686l-52 79l195 124l61 -101z" />
    <glyph glyph-name="racute" unicode="&#x155;" horiz-adv-x="384" 
d="M14 0l100 496h111l-6 -96h4q29 47 68 77.5t82 30.5q19 0 31.5 -2.5t20.5 -7.5l-45 -118q-10 5 -23.5 6.5t-25.5 1.5q-33 0 -64 -24t-60 -77l-56 -287h-137zM274 578l-60 78l185 166l82 -104z" />
    <glyph glyph-name="uni0156" unicode="&#x156;" horiz-adv-x="596" 
d="M28 0l131 652h204q64 0 114.5 -16.5t79.5 -53t29 -97.5q0 -91 -47 -147t-119 -80l101 -258h-144l-84 239h-80l-47 -239h-138zM235 348h69q73 0 110 32t37 85q0 41 -28 59.5t-81 18.5h-69zM143 -246l-1 59q59 2 84 13.5t25 29.5q0 11 -12.5 21t-44.5 10l38 54
q52 -2 79.5 -12t37.5 -25.5t10 -34.5q0 -39 -28.5 -63.5t-77 -37t-110.5 -14.5z" />
    <glyph glyph-name="uni0157" unicode="&#x157;" horiz-adv-x="384" 
d="M14 0l100 496h111l-6 -96h4q29 47 68 77.5t82 30.5q19 0 31.5 -2.5t20.5 -7.5l-45 -118q-10 5 -23.5 6.5t-25.5 1.5q-33 0 -64 -24t-60 -77l-56 -287h-137zM-61 -238l-1 59q59 2 84 13.5t25 29.5q0 11 -12.5 21t-44.5 10l38 54q52 -2 79.5 -12t37.5 -25.5t10 -34.5
q0 -39 -28.5 -63.5t-77 -37t-110.5 -14.5z" />
    <glyph glyph-name="Rcaron" unicode="&#x158;" horiz-adv-x="596" 
d="M28 0l131 652h204q64 0 114.5 -16.5t79.5 -53t29 -97.5q0 -91 -47 -147t-119 -80l101 -258h-144l-84 239h-80l-47 -239h-138zM235 348h69q73 0 110 32t37 85q0 41 -28 59.5t-81 18.5h-69zM316 702l-70 110l68 39l85 -83h4l126 84l57 -44l-110 -106h-160z" />
    <glyph glyph-name="rcaron" unicode="&#x159;" horiz-adv-x="384" 
d="M14 0l100 496h111l-6 -96h4q29 47 68 77.5t82 30.5q19 0 31.5 -2.5t20.5 -7.5l-45 -118q-10 5 -23.5 6.5t-25.5 1.5q-33 0 -64 -24t-60 -77l-56 -287h-137zM224 579l-86 131l61 52l106 -96h4l148 96l47 -56l-130 -127h-150z" />
    <glyph glyph-name="Sacute" unicode="&#x15a;" horiz-adv-x="529" 
d="M238 -12q-64 0 -124.5 28.5t-108.5 93.5l98 77q26 -37 64.5 -59.5t80.5 -22.5t68 20t26 55q0 26 -20.5 42.5t-55.5 38.5l-62 38q-44 28 -70.5 65.5t-26.5 97.5q0 56 30.5 101.5t82.5 73t116 27.5q58 0 109.5 -27t88.5 -72l-87 -81q-25 26 -53 43.5t-64 17.5
q-40 0 -61.5 -20.5t-21.5 -49.5q0 -25 22 -41t60 -40l64 -39q47 -28 69 -63.5t22 -91.5q0 -59 -30.5 -107.5t-85.5 -76.5t-130 -28zM323 692l-52 79l195 124l61 -101z" />
    <glyph glyph-name="sacute" unicode="&#x15b;" horiz-adv-x="424" 
d="M170 -12q-46 0 -96.5 25t-81.5 71l79 66q52 -62 107 -62q29 0 49.5 13.5t20.5 33.5q0 22 -22 36t-66 39q-39 22 -68.5 56t-29.5 80q0 47 25.5 83.5t69 57.5t96.5 21q51 0 92 -22t71 -54l-74 -70q-19 18 -41.5 31t-48.5 13q-28 0 -45 -13.5t-17 -33.5q0 -23 26.5 -37.5
t55.5 -31.5q44 -23 74 -54.5t30 -84.5q0 -48 -26.5 -85t-73 -57.5t-106.5 -20.5zM259 578l-60 78l185 166l82 -104z" />
    <glyph glyph-name="Scircumflex" unicode="&#x15c;" horiz-adv-x="529" 
d="M238 -12q-64 0 -124.5 28.5t-108.5 93.5l98 77q26 -37 64.5 -59.5t80.5 -22.5t68 20t26 55q0 26 -20.5 42.5t-55.5 38.5l-62 38q-44 28 -70.5 65.5t-26.5 97.5q0 56 30.5 101.5t82.5 73t116 27.5q58 0 109.5 -27t88.5 -72l-87 -81q-25 26 -53 43.5t-64 17.5
q-40 0 -61.5 -20.5t-21.5 -49.5q0 -25 22 -41t60 -40l64 -39q47 -28 69 -63.5t22 -91.5q0 -59 -30.5 -107.5t-85.5 -76.5t-130 -28zM251 691l-57 44l110 106h160l69 -111l-67 -38l-86 83h-4z" />
    <glyph glyph-name="scircumflex" unicode="&#x15d;" horiz-adv-x="424" 
d="M170 -12q-46 0 -96.5 25t-81.5 71l79 66q52 -62 107 -62q29 0 49.5 13.5t20.5 33.5q0 22 -22 36t-66 39q-39 22 -68.5 56t-29.5 80q0 47 25.5 83.5t69 57.5t96.5 21q51 0 92 -22t71 -54l-74 -70q-19 18 -41.5 31t-48.5 13q-28 0 -45 -13.5t-17 -33.5q0 -23 26.5 -37.5
t55.5 -31.5q44 -23 74 -54.5t30 -84.5q0 -48 -26.5 -85t-73 -57.5t-106.5 -20.5zM146 561l-48 55l131 128h150l85 -131l-61 -52l-106 96h-4z" />
    <glyph glyph-name="uni015E" unicode="&#x15e;" horiz-adv-x="529" 
d="M238 -12q-64 0 -124.5 28.5t-108.5 93.5l98 77q26 -37 64.5 -59.5t80.5 -22.5t68 20t26 55q0 26 -20.5 42.5t-55.5 38.5l-62 38q-44 28 -70.5 65.5t-26.5 97.5q0 56 30.5 101.5t82.5 73t116 27.5q58 0 109.5 -27t88.5 -72l-87 -81q-25 26 -53 43.5t-64 17.5
q-40 0 -61.5 -20.5t-21.5 -49.5q0 -25 22 -41t60 -40l64 -39q47 -28 69 -63.5t22 -91.5q0 -59 -30.5 -107.5t-85.5 -76.5t-130 -28zM91 -239v59q58 2 82 12.5t28 32.5q2 15 -12 25t-57 16l66 98h85l-40 -65q37 -9 52.5 -26t11.5 -47q-8 -52 -64.5 -77t-151.5 -28z" />
    <glyph glyph-name="uni015F" unicode="&#x15f;" horiz-adv-x="424" 
d="M170 -12q-46 0 -96.5 25t-81.5 71l79 66q52 -62 107 -62q29 0 49.5 13.5t20.5 33.5q0 22 -22 36t-66 39q-39 22 -68.5 56t-29.5 80q0 47 25.5 83.5t69 57.5t96.5 21q51 0 92 -22t71 -54l-74 -70q-19 18 -41.5 31t-48.5 13q-28 0 -45 -13.5t-17 -33.5q0 -23 26.5 -37.5
t55.5 -31.5q44 -23 74 -54.5t30 -84.5q0 -48 -26.5 -85t-73 -57.5t-106.5 -20.5zM26 -239v59q58 2 82 12.5t28 32.5q2 15 -12 25t-57 16l66 98h85l-40 -65q37 -9 52.5 -26t11.5 -47q-8 -52 -64.5 -77t-151.5 -28z" />
    <glyph glyph-name="Scaron" unicode="&#x160;" horiz-adv-x="529" 
d="M238 -12q-64 0 -124.5 28.5t-108.5 93.5l98 77q26 -37 64.5 -59.5t80.5 -22.5t68 20t26 55q0 26 -20.5 42.5t-55.5 38.5l-62 38q-44 28 -70.5 65.5t-26.5 97.5q0 56 30.5 101.5t82.5 73t116 27.5q58 0 109.5 -27t88.5 -72l-87 -81q-25 26 -53 43.5t-64 17.5
q-40 0 -61.5 -20.5t-21.5 -49.5q0 -25 22 -41t60 -40l64 -39q47 -28 69 -63.5t22 -91.5q0 -59 -30.5 -107.5t-85.5 -76.5t-130 -28zM289 708l-70 110l68 39l85 -83h4l126 84l57 -44l-110 -106h-160z" />
    <glyph glyph-name="scaron" unicode="&#x161;" horiz-adv-x="424" 
d="M170 -12q-46 0 -96.5 25t-81.5 71l79 66q52 -62 107 -62q29 0 49.5 13.5t20.5 33.5q0 22 -22 36t-66 39q-39 22 -68.5 56t-29.5 80q0 47 25.5 83.5t69 57.5t96.5 21q51 0 92 -22t71 -54l-74 -70q-19 18 -41.5 31t-48.5 13q-28 0 -45 -13.5t-17 -33.5q0 -23 26.5 -37.5
t55.5 -31.5q44 -23 74 -54.5t30 -84.5q0 -48 -26.5 -85t-73 -57.5t-106.5 -20.5zM209 579l-86 131l61 52l106 -96h4l148 96l47 -56l-130 -127h-150z" />
    <glyph glyph-name="uni0162" unicode="&#x162;" horiz-adv-x="532" 
d="M149 0l106 536h-171l22 116h480l-23 -116h-171l-106 -536h-137zM75 -239v59q58 2 82 12.5t28 32.5q2 15 -12 25t-57 16l66 98h85l-40 -65q37 -9 52.5 -26t11.5 -47q-8 -52 -64.5 -77t-151.5 -28z" />
    <glyph glyph-name="uni0163" unicode="&#x163;" horiz-adv-x="367" 
d="M203 -12q-75 0 -108 37t-33 94q0 16 2.5 31.5t5.5 31.5l43 207h-66l20 101l73 6l42 130h115l-25 -130h113l-21 -107h-116l-43 -213q-1 -9 -1.5 -17t-0.5 -16q0 -48 51 -48q11 0 21 3.5t20 7.5l24 -96q-19 -7 -48.5 -14.5t-67.5 -7.5zM41 -239v59q58 2 82 12.5t28 32.5
q2 15 -12 25t-57 16l66 98h85l-40 -65q37 -9 52.5 -26t11.5 -47q-8 -52 -64.5 -77t-151.5 -28z" />
    <glyph glyph-name="Tcaron" unicode="&#x164;" horiz-adv-x="532" 
d="M149 0l106 536h-171l22 116h480l-23 -116h-171l-106 -536h-137zM278 702l-70 110l68 39l85 -83h4l126 84l57 -44l-110 -106h-160z" />
    <glyph glyph-name="tcaron" unicode="&#x165;" horiz-adv-x="367" 
d="M203 -12q-75 0 -108 37t-33 94q0 16 2.5 31.5t5.5 31.5l43 207h-66l20 101l73 6l42 130h115l-25 -130h113l-21 -107h-116l-43 -213q-1 -9 -1.5 -17t-0.5 -16q0 -48 51 -48q11 0 21 3.5t20 7.5l24 -96q-19 -7 -48.5 -14.5t-67.5 -7.5zM330 548l40 222h87l-14 -69l-53 -153
h-60z" />
    <glyph glyph-name="uni0166" unicode="&#x166;" horiz-adv-x="532" 
d="M149 0l55 279h-121l16 78l91 5h31l34 174h-171l22 116h480l-23 -116h-171l-34 -174h118l-16 -83h-119l-55 -279h-137z" />
    <glyph glyph-name="uni0167" unicode="&#x167;" horiz-adv-x="367" 
d="M203 -12q-75 0 -108 37t-33 94q0 16 2.5 31.5t5.5 31.5l8 37h-65l15 78l67 4l18 88h-66l20 101l73 6l42 130h115l-25 -130h113l-21 -107h-116l-18 -87h114l-16 -83h-114l-9 -43q-1 -9 -1.5 -17t-0.5 -16q0 -48 51 -48q11 0 21 3.5t20 7.5l24 -96q-19 -7 -48.5 -14.5
t-67.5 -7.5z" />
    <glyph glyph-name="Utilde" unicode="&#x168;" horiz-adv-x="643" 
d="M308 -12q-115 0 -174 56t-59 171q0 22 4.5 51t8.5 54l67 332h137l-71 -357q-4 -20 -6 -39t-2 -37q0 -55 22 -84t77 -29q47 0 78 38.5t49 129.5l76 378h134l-76 -376q-30 -150 -95.5 -219t-169.5 -69zM492 692q-35 0 -57 14.5t-38 29t-33 14.5q-13 0 -25 -10.5t-20 -38.5
l-93 7q17 76 58 110t93 34q35 0 57 -14.5t38 -29t32 -14.5q14 0 26 11t20 38l93 -7q-17 -76 -58 -110t-93 -34z" />
    <glyph glyph-name="utilde" unicode="&#x169;" horiz-adv-x="545" 
d="M156 -12q-61 0 -89 33t-28 95q0 17 2 34t6 36l62 310h136l-58 -293q-4 -15 -6 -26t-2 -21q0 -51 50 -51q42 0 99 64l64 327h137l-98 -496h-111l2 67h-4q-34 -31 -75.5 -55t-86.5 -24zM405 573q-25 0 -42 10t-30 22.5t-25.5 22.5t-27.5 10t-27 -13.5t-17 -42.5l-91 5
q14 78 50.5 115t91.5 37q25 0 42 -9.5t30 -22.5t25.5 -22.5t27.5 -9.5t27 13t17 42l91 -5q-13 -77 -50 -114.5t-92 -37.5z" />
    <glyph glyph-name="Umacron" unicode="&#x16a;" horiz-adv-x="643" 
d="M308 -12q-115 0 -174 56t-59 171q0 22 4.5 51t8.5 54l67 332h137l-71 -357q-4 -20 -6 -39t-2 -37q0 -55 22 -84t77 -29q47 0 78 38.5t49 129.5l76 378h134l-76 -376q-30 -150 -95.5 -219t-169.5 -69zM281 720l17 88h288l-18 -88h-287z" />
    <glyph glyph-name="umacron" unicode="&#x16b;" horiz-adv-x="545" 
d="M156 -12q-61 0 -89 33t-28 95q0 17 2 34t6 36l62 310h136l-58 -293q-4 -15 -6 -26t-2 -21q0 -51 50 -51q42 0 99 64l64 327h137l-98 -496h-111l2 67h-4q-34 -31 -75.5 -55t-86.5 -24zM191 593l18 87h283l-18 -87h-283z" />
    <glyph glyph-name="Ubreve" unicode="&#x16c;" horiz-adv-x="643" 
d="M308 -12q-115 0 -174 56t-59 171q0 22 4.5 51t8.5 54l67 332h137l-71 -357q-4 -20 -6 -39t-2 -37q0 -55 22 -84t77 -29q47 0 78 38.5t49 129.5l76 378h134l-76 -376q-30 -150 -95.5 -219t-169.5 -69zM423 697q-74 0 -108.5 35t-30.5 102l84 14q0 -31 18.5 -48.5
t52.5 -17.5t58 17.5t37 48.5l77 -14q-19 -67 -66 -102t-122 -35z" />
    <glyph glyph-name="ubreve" unicode="&#x16d;" horiz-adv-x="545" 
d="M156 -12q-61 0 -89 33t-28 95q0 17 2 34t6 36l62 310h136l-58 -293q-4 -15 -6 -26t-2 -21q0 -51 50 -51q42 0 99 64l64 327h137l-98 -496h-111l2 67h-4q-34 -31 -75.5 -55t-86.5 -24zM332 572q-57 0 -90 21t-45 56.5t-6 79.5l87 14q-2 -32 14.5 -55.5t56.5 -23.5t64 23.5
t35 55.5l81 -14q-13 -66 -62 -111.5t-135 -45.5z" />
    <glyph glyph-name="Uring" unicode="&#x16e;" horiz-adv-x="643" 
d="M308 -12q-115 0 -174 56t-59 171q0 22 4.5 51t8.5 54l67 332h137l-71 -357q-4 -20 -6 -39t-2 -37q0 -55 22 -84t77 -29q47 0 78 38.5t49 129.5l76 378h134l-76 -376q-30 -150 -95.5 -219t-169.5 -69zM429 697q-43 0 -74.5 20.5t-31.5 65.5q0 30 16.5 54.5t44.5 39.5
t62 15q41 0 74 -20.5t33 -64.5q0 -46 -36 -78t-88 -32zM431 750q19 0 33.5 15t14.5 37q0 15 -9 26t-26 11q-20 0 -34 -15.5t-14 -35.5q0 -16 9.5 -27t25.5 -11z" />
    <glyph glyph-name="uring" unicode="&#x16f;" horiz-adv-x="545" 
d="M156 -12q-61 0 -89 33t-28 95q0 17 2 34t6 36l62 310h136l-58 -293q-4 -15 -6 -26t-2 -21q0 -51 50 -51q42 0 99 64l64 327h137l-98 -496h-111l2 67h-4q-34 -31 -75.5 -55t-86.5 -24zM333 566q-49 0 -81.5 23.5t-32.5 65.5q0 49 40.5 82t103.5 33q50 0 82 -23.5t32 -65.5
q0 -49 -40.5 -82t-103.5 -33zM342 619q20 0 34.5 17.5t14.5 40.5q0 16 -9 28t-28 12t-34 -17.5t-15 -40.5q0 -17 9 -28.5t28 -11.5z" />
    <glyph glyph-name="Uhungarumlaut" unicode="&#x170;" horiz-adv-x="643" 
d="M308 -12q-115 0 -174 56t-59 171q0 22 4.5 51t8.5 54l67 332h137l-71 -357q-4 -20 -6 -39t-2 -37q0 -55 22 -84t77 -29q47 0 78 38.5t49 129.5l76 378h134l-76 -376q-30 -150 -95.5 -219t-169.5 -69zM352 697l-65 41l128 150l84 -60zM540 697l-66 41l128 150l84 -60z" />
    <glyph glyph-name="uhungarumlaut" unicode="&#x171;" horiz-adv-x="545" 
d="M156 -12q-61 0 -89 33t-28 95q0 17 2 34t6 36l62 310h136l-58 -293q-4 -15 -6 -26t-2 -21q0 -51 50 -51q42 0 99 64l64 327h137l-98 -496h-111l2 67h-4q-34 -31 -75.5 -55t-86.5 -24zM284 567l-71 42l120 171l89 -53zM463 567l-71 42l120 171l89 -53z" />
    <glyph glyph-name="Uogonek" unicode="&#x172;" horiz-adv-x="643" 
d="M254 -222q-41 0 -67 20t-26 57q0 29 14 55.5t34.5 48t38.5 34.5q-85 14 -129 69t-44 153q0 22 4.5 51t8.5 54l67 332h137l-71 -357q-4 -20 -6 -39t-2 -37q0 -55 22 -84t77 -29q47 0 78 38.5t49 129.5l76 378h134l-76 -376q-16 -86 -42.5 -141t-66.5 -87.5t-97 -53.5
q-52 -19 -75 -45.5t-23 -49.5q0 -16 10.5 -24t24.5 -8q13 0 27 9l26 -67q-21 -13 -50 -22t-53 -9z" />
    <glyph glyph-name="uogonek" unicode="&#x173;" horiz-adv-x="545" 
d="M312 -210q-37 0 -61.5 18.5t-24.5 54.5q0 33 16.5 60t39 47.5t38.5 31.5l2 65h-4q-34 -31 -75.5 -55t-86.5 -24q-61 0 -89 33t-28 95q0 17 2 34t6 36l62 310h136l-58 -293q-4 -15 -6 -26t-2 -21q0 -51 50 -51q42 0 99 64l64 327h137l-98 -496q-49 -15 -77 -41t-28 -57
q0 -14 10.5 -22t23.5 -8q15 0 32 10l24 -56q-21 -15 -50 -25.5t-54 -10.5z" />
    <glyph glyph-name="Wcircumflex" unicode="&#x174;" horiz-adv-x="794" 
d="M77 0l23 652h140l-21 -313q-4 -52 -9 -104.5t-11 -104.5h4q20 52 43 105t42 104l134 313h116l2 -313q-1 -50 -3 -103l-4 -106h4q18 53 37.5 105.5t35.5 103.5l110 313h131l-253 -652h-173l4 312q0 32 2.5 73.5t6.5 78.5h-4q-13 -37 -29 -75.5t-30 -76.5l-128 -312h-170z
M377 685l-57 44l110 106h160l69 -111l-67 -38l-86 83h-4z" />
    <glyph glyph-name="wcircumflex" unicode="&#x175;" horiz-adv-x="748" 
d="M96 0l-24 496h135l1 -240q-1 -36 -2.5 -72.5t-3.5 -73.5h4q14 37 27 74t29 72l102 240h119l8 -240q1 -36 0.5 -72.5t-0.5 -73.5h4q14 37 26 73.5t26 72.5l93 240h127l-212 -496h-161l-4 208q1 35 1 70.5t1 74.5h-4q-14 -39 -26 -74.5t-26 -70.5l-85 -208h-155zM309 561
l-48 55l131 128h150l85 -131l-61 -52l-106 96h-4z" />
    <glyph glyph-name="Ycircumflex" unicode="&#x176;" horiz-adv-x="509" 
d="M138 0l46 236l-104 416h142l28 -157q7 -37 12.5 -71t12.5 -73h4q20 39 39 74t41 72l91 155h147l-276 -416l-47 -236h-136zM234 685l-57 44l110 106h160l69 -111l-67 -38l-86 83h-4z" />
    <glyph glyph-name="ycircumflex" unicode="&#x177;" horiz-adv-x="499" 
d="M36 -194q-13 0 -34.5 6t-36.5 14l42 98q17 -10 37 -10q27 0 52.5 19.5t41.5 52.5l12 25l-86 485h136l23 -224q4 -32 6 -73t3 -76h4q16 35 33 75t33 74l104 224h133l-268 -507q-52 -89 -105 -136t-130 -47zM179 561l-48 55l131 128h150l85 -131l-61 -52l-106 96h-4z" />
    <glyph glyph-name="Ydieresis" unicode="&#x178;" horiz-adv-x="509" 
d="M138 0l46 236l-104 416h142l28 -157q7 -37 12.5 -71t12.5 -73h4q20 39 39 74t41 72l91 155h147l-276 -416l-47 -236h-136zM246 701q-25 0 -41.5 15.5t-16.5 42.5t21 51t53 24q23 0 40 -15t17 -42q0 -28 -20.5 -52t-52.5 -24zM456 701q-24 0 -40.5 15.5t-16.5 42.5t21 51
t52 24q23 0 40 -15t17 -42q0 -28 -20.5 -52t-52.5 -24z" />
    <glyph glyph-name="Zacute" unicode="&#x179;" horiz-adv-x="525" 
d="M-5 0l18 82l356 455h-257l23 115h421l-17 -83l-353 -454h283l-24 -115h-450zM315 686l-52 79l195 124l61 -101z" />
    <glyph glyph-name="zacute" unicode="&#x17a;" horiz-adv-x="443" 
d="M-10 0l15 77l263 312h-179l20 107h351l-15 -79l-263 -310h208l-21 -107h-379zM287 578l-60 78l185 166l82 -104z" />
    <glyph glyph-name="Zdotaccent" unicode="&#x17b;" horiz-adv-x="525" 
d="M-5 0l18 82l356 455h-257l23 115h421l-17 -83l-353 -454h283l-24 -115h-450zM365 703q-28 0 -51 16.5t-23 49.5t24.5 57t60.5 24q28 0 51 -17t23 -49q0 -35 -25 -58t-60 -23z" />
    <glyph glyph-name="zdotaccent" unicode="&#x17c;" horiz-adv-x="443" 
d="M-10 0l15 77l263 312h-179l20 107h351l-15 -79l-263 -310h208l-21 -107h-379zM313 570q-28 0 -51 16.5t-23 49.5t25 57t60 24q29 0 51.5 -17t22.5 -49q0 -35 -24.5 -58t-60.5 -23z" />
    <glyph glyph-name="Zcaron" unicode="&#x17d;" horiz-adv-x="525" 
d="M-5 0l18 82l356 455h-257l23 115h421l-17 -83l-353 -454h283l-24 -115h-450zM281 702l-70 110l68 39l85 -83h4l126 84l57 -44l-110 -106h-160z" />
    <glyph glyph-name="zcaron" unicode="&#x17e;" horiz-adv-x="443" 
d="M-10 0l15 77l263 312h-179l20 107h351l-15 -79l-263 -310h208l-21 -107h-379zM237 579l-86 131l61 52l106 -96h4l148 96l47 -56l-130 -127h-150z" />
    <glyph glyph-name="uni0180" unicode="&#x180;" horiz-adv-x="546" 
d="M256 -12q-34 0 -62.5 17.5t-42.5 47.5h-2l-22 -53h-113l110 549h-67l15 78l69 6l14 68h137l-14 -68h161l-17 -84h-161l-6 -27l-25 -93h2q33 27 70 43t74 16q66 0 103 -44.5t37 -127.5q0 -69 -21 -128.5t-58 -104.5t-83.5 -70t-97.5 -25zM317 376q-23 0 -51.5 -13.5
t-50.5 -48.5l-34 -167q11 -25 28.5 -36t36.5 -11q35 0 64 26t47 71t18 102q0 40 -16 58.5t-42 18.5z" />
    <glyph glyph-name="uni018F" unicode="&#x18f;" horiz-adv-x="668" 
d="M300 -12q-110 0 -172.5 69.5t-62.5 186.5q0 38 6 66t16 63h419v7v7q0 80 -27.5 124t-92.5 44q-45 0 -78 -17t-61 -40l-58 93q40 35 93 58t121 23q118 0 179 -73t61 -198q0 -91 -27 -167t-74.5 -131t-109.5 -85t-132 -30zM310 105q58 0 107.5 45.5t72.5 122.5h-295
q-8 -53 6 -91t43 -57.5t66 -19.5z" />
    <glyph glyph-name="uni0192" unicode="&#x192;" horiz-adv-x="509" 
d="M58 -96q-23 0 -49 5.5t-46 19.5l39 96q9 -5 21 -9t25 -4q21 0 37 12.5t30.5 42.5t30.5 84l49 162h-73l19 94l72 5h13l19 64q30 101 80.5 147.5t135.5 46.5q45 0 88 -23l-41 -98q-10 5 -22 9t-26 4q-30 0 -52 -25.5t-33 -61.5l-19 -63h99l-19 -99h-111l-65 -211
q-18 -55 -43 -100t-63.5 -71.5t-95.5 -26.5z" />
    <glyph glyph-name="uni0193" unicode="&#x193;" horiz-adv-x="611" 
d="M314 -12q-121 0 -189.5 72t-68.5 201q0 84 26.5 157.5t75 128.5t113.5 86t142 31q14 0 27 -1.5t25 -3.5v13v12q4 38 25 69.5t56 48.5t80 13q29 -3 46.5 -9.5t31.5 -14.5l-43 -94q-7 4 -12.5 6.5t-13.5 3.5q-24 2 -40.5 -11t-18.5 -40q-1 -22 5.5 -43t13.5 -41l-93 -72
q-19 23 -41.5 34t-54.5 11q-60 0 -107.5 -38.5t-74.5 -101t-27 -135.5q0 -75 32.5 -120t108.5 -45q20 0 39 6t32 16l28 128h-107l21 112h227l-60 -311q-37 -29 -89.5 -48.5t-114.5 -19.5z" />
    <glyph glyph-name="Ohorn" unicode="&#x1a0;" horiz-adv-x="660" 
d="M302 -12q-112 0 -178.5 73t-66.5 203q0 86 26.5 159t73 127t106 84t125.5 30q68 0 121 -28q42 5 62 31t20 59q0 22 -11 47l102 32q17 -39 17 -72q0 -56 -34.5 -95.5t-94.5 -50.5q30 -35 46.5 -85.5t16.5 -113.5q0 -86 -26.5 -159t-72.5 -127t-106 -84t-126 -30zM309 106
q35 0 68 21t59 58.5t41.5 87t15.5 106.5q0 78 -28.5 122t-82.5 44q-35 0 -68 -21t-59.5 -58.5t-42 -86.5t-15.5 -106q0 -78 29 -122.5t83 -44.5z" />
    <glyph glyph-name="ohorn" unicode="&#x1a1;" horiz-adv-x="538" 
d="M222 -12q-87 0 -139.5 56t-52.5 148q0 72 24 130t64 100t89.5 64t100.5 22q53 0 95 -22q35 8 55.5 38.5t21.5 69.5q0 9 -3 23t-7 24l102 32q8 -16 11.5 -36t3.5 -36q0 -61 -33.5 -105.5t-93.5 -58.5q19 -25 29.5 -59t10.5 -74q0 -72 -24 -130t-64 -100t-89.5 -64
t-100.5 -22zM237 98q34 0 62 26.5t45.5 72.5t17.5 104q0 46 -17.5 71.5t-52.5 25.5q-33 0 -61.5 -26.5t-45.5 -72.5t-17 -104q0 -45 17.5 -71t51.5 -26z" />
    <glyph glyph-name="Uhorn" unicode="&#x1af;" horiz-adv-x="666" 
d="M308 -12q-115 0 -174 56t-59 171q0 22 4.5 51t8.5 54l67 332h137l-71 -357q-4 -20 -6 -39t-2 -37q0 -55 22 -84t77 -29q47 0 78 38.5t49 129.5l76 378h79q80 11 80 76q0 23 -11 48l103 32q16 -36 16 -72q0 -55 -36 -88t-107 -47l-66 -325q-30 -150 -95.5 -219t-169.5 -69
z" />
    <glyph glyph-name="uhorn" unicode="&#x1b0;" horiz-adv-x="567" 
d="M156 -12q-61 0 -89 33t-28 95q0 17 2 34t6 36l62 310h136l-58 -293q-4 -15 -6 -26t-2 -21q0 -51 50 -51q42 0 99 64l64 327h61q34 5 55.5 32.5t22.5 67.5q0 9 -2.5 23.5t-6.5 23.5l102 33q7 -16 10.5 -36t3.5 -36q0 -58 -31 -98.5t-87 -57.5l-89 -448h-111l2 67h-4
q-34 -31 -75.5 -55t-86.5 -24z" />
    <glyph glyph-name="uni01C2" unicode="&#x1c2;" horiz-adv-x="403" 
d="M78 2l43 216h-128l15 81l75 6h56l19 93h-130l16 81l76 6h55l44 218h137l-44 -218h124l-17 -87h-124l-19 -93h124l-17 -87h-125l-43 -216h-137z" />
    <glyph glyph-name="uni01C3" unicode="&#x1c3;" horiz-adv-x="321" 
d="M112 226l46 318l23 157h139l-35 -157l-84 -318h-89zM113 -12q-32 0 -51.5 20.5t-19.5 53.5q0 25 12.5 48t34.5 38t51 15q32 0 51 -21.5t19 -53.5q0 -37 -26.5 -68.5t-70.5 -31.5z" />
    <glyph glyph-name="uni01CD" unicode="&#x1cd;" horiz-adv-x="548" 
d="M255 353l-40 -86h140l-4 86q-2 48 -4 95t-4 99h-4q-21 -50 -41 -97.5t-43 -96.5zM-62 0l344 652h164l65 -652h-143l-8 164h-194l-77 -164h-151zM296 702l-70 110l68 39l85 -83h4l126 84l57 -44l-110 -106h-160z" />
    <glyph glyph-name="uni01CE" unicode="&#x1ce;" horiz-adv-x="552" 
d="M171 -12q-65 0 -102.5 47t-37.5 135q0 71 22 132.5t59.5 107.5t85 72t98.5 26q34 0 64 -17.5t44 -47.5h2l22 53h109l-99 -496h-111l2 65h-3q-34 -35 -75 -56t-80 -21zM231 100q25 0 53.5 15.5t52.5 57.5l35 176q-12 25 -30.5 36t-35.5 11q-34 0 -64.5 -27.5t-49.5 -74.5
t-19 -107q0 -45 15.5 -66t42.5 -21zM262 579l-86 131l61 52l106 -96h4l148 96l47 -56l-130 -127h-150z" />
    <glyph glyph-name="uni01CF" unicode="&#x1cf;" horiz-adv-x="294" 
d="M28 0l131 652h137l-130 -652h-138zM164 702l-70 110l68 39l85 -83h4l126 84l57 -44l-110 -106h-160z" />
    <glyph glyph-name="uni01D0" unicode="&#x1d0;" horiz-adv-x="265" 
d="M14 0l100 496h136l-99 -496h-137zM129 579l-86 131l61 52l106 -96h4l148 96l47 -56l-130 -127h-150z" />
    <glyph glyph-name="uni01D1" unicode="&#x1d1;" horiz-adv-x="660" 
d="M302 -12q-112 0 -178.5 73t-66.5 203q0 86 26.5 159t73 127t106 84t125.5 30q75 0 130 -33t85 -94.5t30 -148.5q0 -86 -26.5 -159t-72.5 -127t-106 -84t-126 -30zM309 106q35 0 68 21t59 58.5t41.5 87t15.5 106.5q0 78 -28.5 122t-82.5 44q-35 0 -68 -21t-59.5 -58.5
t-42 -86.5t-15.5 -106q0 -78 29 -122.5t83 -44.5zM340 702l-70 110l68 39l85 -83h4l126 84l57 -44l-110 -106h-160z" />
    <glyph glyph-name="uni01D2" unicode="&#x1d2;" horiz-adv-x="533" 
d="M222 -12q-87 0 -139.5 56t-52.5 148q0 72 24 130t64 100t89.5 64t100.5 22q58 0 101 -25.5t67 -71t24 -107.5q0 -72 -24 -130t-64 -100t-89.5 -64t-100.5 -22zM237 98q34 0 62 26.5t45.5 72.5t17.5 104q0 46 -17.5 71.5t-52.5 25.5q-33 0 -61.5 -26.5t-45.5 -72.5
t-17 -104q0 -45 17.5 -71t51.5 -26zM263 579l-86 131l61 52l106 -96h4l148 96l47 -56l-130 -127h-150z" />
    <glyph glyph-name="uni01D3" unicode="&#x1d3;" horiz-adv-x="643" 
d="M308 -12q-115 0 -174 56t-59 171q0 22 4.5 51t8.5 54l67 332h137l-71 -357q-4 -20 -6 -39t-2 -37q0 -55 22 -84t77 -29q47 0 78 38.5t49 129.5l76 378h134l-76 -376q-30 -150 -95.5 -219t-169.5 -69zM346 702l-70 110l68 39l85 -83h4l126 84l57 -44l-110 -106h-160z" />
    <glyph glyph-name="uni01D4" unicode="&#x1d4;" horiz-adv-x="545" 
d="M156 -12q-61 0 -89 33t-28 95q0 17 2 34t6 36l62 310h136l-58 -293q-4 -15 -6 -26t-2 -21q0 -51 50 -51q42 0 99 64l64 327h137l-98 -496h-111l2 67h-4q-34 -31 -75.5 -55t-86.5 -24zM261 579l-86 131l61 52l106 -96h4l148 96l47 -56l-130 -127h-150z" />
    <glyph glyph-name="uni01D5" unicode="&#x1d5;" horiz-adv-x="643" 
d="M308 -12q-115 0 -174 56t-59 171q0 22 4.5 51t8.5 54l67 332h137l-71 -357q-4 -20 -6 -39t-2 -37q0 -55 22 -84t77 -29q47 0 78 38.5t49 129.5l76 378h134l-76 -376q-30 -150 -95.5 -219t-169.5 -69zM321 701q-22 0 -36 14t-14 37q0 26 18.5 47t46.5 21q22 0 36 -14
t14 -37q0 -25 -18 -46.5t-47 -21.5zM527 701q-22 0 -36.5 14t-14.5 37q0 26 18.5 47t46.5 21q22 0 36.5 -14t14.5 -37q0 -25 -18.5 -46.5t-46.5 -21.5zM308 868l12 66h290l-15 -66h-287z" />
    <glyph glyph-name="uni01D6" unicode="&#x1d6;" horiz-adv-x="545" 
d="M156 -12q-61 0 -89 33t-28 95q0 17 2 34t6 36l62 310h136l-58 -293q-4 -15 -6 -26t-2 -21q0 -51 50 -51q42 0 99 64l64 327h137l-98 -496h-111l2 67h-4q-34 -31 -75.5 -55t-86.5 -24zM228 572q-22 0 -35.5 14.5t-13.5 34.5q0 29 19.5 49.5t47.5 20.5q23 0 37 -13.5
t14 -34.5q0 -28 -20 -49.5t-49 -21.5zM437 572q-22 0 -35.5 14.5t-13.5 34.5q0 29 19.5 49.5t47.5 20.5q22 0 35.5 -13.5t13.5 -34.5q0 -28 -19 -49.5t-48 -21.5zM226 754l14 65h283l-15 -65h-282z" />
    <glyph glyph-name="uni01D7" unicode="&#x1d7;" horiz-adv-x="643" 
d="M308 -12q-115 0 -174 56t-59 171q0 22 4.5 51t8.5 54l67 332h137l-71 -357q-4 -20 -6 -39t-2 -37q0 -55 22 -84t77 -29q47 0 78 38.5t49 129.5l76 378h134l-76 -376q-30 -150 -95.5 -219t-169.5 -69zM312 701q-22 0 -36 14t-14 37q0 26 18 47t46 21q23 0 37 -14t14 -37
q0 -25 -18 -46.5t-47 -21.5zM518 701q-22 0 -36.5 14t-14.5 37q0 26 18.5 47t46.5 21q22 0 36.5 -14t14.5 -37q0 -25 -18.5 -46.5t-46.5 -21.5zM445 828l-57 44l121 135l81 -63z" />
    <glyph glyph-name="uni01D8" unicode="&#x1d8;" horiz-adv-x="545" 
d="M156 -12q-61 0 -89 33t-28 95q0 17 2 34t6 36l62 310h136l-58 -293q-4 -15 -6 -26t-2 -21q0 -51 50 -51q42 0 99 64l64 327h137l-98 -496h-111l2 67h-4q-34 -31 -75.5 -55t-86.5 -24zM373 716l-49 40l101 125l68 -58zM228 572q-22 0 -35.5 14.5t-13.5 34.5
q0 29 19.5 49.5t47.5 20.5q23 0 37 -13.5t14 -34.5q0 -28 -20 -49.5t-49 -21.5zM437 572q-22 0 -35.5 14.5t-13.5 34.5q0 29 19.5 49.5t47.5 20.5q22 0 35.5 -13.5t13.5 -34.5q0 -28 -19 -49.5t-48 -21.5z" />
    <glyph glyph-name="uni01D9" unicode="&#x1d9;" horiz-adv-x="643" 
d="M308 -12q-115 0 -174 56t-59 171q0 22 4.5 51t8.5 54l67 332h137l-71 -357q-4 -20 -6 -39t-2 -37q0 -55 22 -84t77 -29q47 0 78 38.5t49 129.5l76 378h134l-76 -376q-30 -150 -95.5 -219t-169.5 -69zM321 701q-22 0 -36 14t-14 37q0 26 18.5 47t46.5 21q22 0 36 -14
t14 -37q0 -25 -18 -46.5t-47 -21.5zM527 701q-22 0 -36.5 14t-14.5 37q0 26 18.5 47t46.5 21q22 0 36.5 -14t14.5 -37q0 -25 -18.5 -46.5t-46.5 -21.5zM384 854l-72 100l64 39l80 -71h4l105 71l53 -39l-107 -100h-127z" />
    <glyph glyph-name="uni01DA" unicode="&#x1da;" horiz-adv-x="545" 
d="M156 -12q-61 0 -89 33t-28 95q0 17 2 34t6 36l62 310h136l-58 -293q-4 -15 -6 -26t-2 -21q0 -51 50 -51q42 0 99 64l64 327h137l-98 -496h-111l2 67h-4q-34 -31 -75.5 -55t-86.5 -24zM304 737l-76 93l53 44l91 -65h4l114 65l40 -45l-109 -92h-117zM228 572
q-22 0 -35.5 14.5t-13.5 34.5q0 29 19.5 49.5t47.5 20.5q23 0 37 -13.5t14 -34.5q0 -28 -20 -49.5t-49 -21.5zM437 572q-22 0 -35.5 14.5t-13.5 34.5q0 29 19.5 49.5t47.5 20.5q22 0 35.5 -13.5t13.5 -34.5q0 -28 -19 -49.5t-48 -21.5z" />
    <glyph glyph-name="uni01DB" unicode="&#x1db;" horiz-adv-x="643" 
d="M308 -12q-115 0 -174 56t-59 171q0 22 4.5 51t8.5 54l67 332h137l-71 -357q-4 -20 -6 -39t-2 -37q0 -55 22 -84t77 -29q47 0 78 38.5t49 129.5l76 378h134l-76 -376q-30 -150 -95.5 -219t-169.5 -69zM312 701q-22 0 -36 14t-14 37q0 26 18 47t46 21q23 0 37 -14t14 -37
q0 -25 -18 -46.5t-47 -21.5zM518 701q-22 0 -36.5 14t-14.5 37q0 26 18.5 47t46.5 21q22 0 36.5 -14t14.5 -37q0 -25 -18.5 -46.5t-46.5 -21.5zM419 824l-100 136l101 47l69 -150z" />
    <glyph glyph-name="uni01DC" unicode="&#x1dc;" horiz-adv-x="545" 
d="M156 -12q-61 0 -89 33t-28 95q0 17 2 34t6 36l62 310h136l-58 -293q-4 -15 -6 -26t-2 -21q0 -51 50 -51q42 0 99 64l64 327h137l-98 -496h-111l2 67h-4q-34 -31 -75.5 -55t-86.5 -24zM228 572q-22 0 -35.5 14.5t-13.5 34.5q0 29 19.5 49.5t47.5 20.5q23 0 37 -13.5
t14 -34.5q0 -28 -20 -49.5t-49 -21.5zM437 572q-22 0 -35.5 14.5t-13.5 34.5q0 29 19.5 49.5t47.5 20.5q22 0 35.5 -13.5t13.5 -34.5q0 -28 -19 -49.5t-48 -21.5zM349 711l-79 126l86 43l55 -138z" />
    <glyph glyph-name="uni01E2" unicode="&#x1e2;" horiz-adv-x="838" 
d="M340 366l-63 -104h124l58 291h-3q-30 -49 -58.5 -94.5t-57.5 -92.5zM-35 0l422 652h470l-23 -115h-242l-27 -142h204l-23 -115h-203l-35 -165h251l-23 -115h-387l31 155h-167l-94 -155h-154zM487 730l17 88h288l-18 -88h-287z" />
    <glyph glyph-name="uni01E3" unicode="&#x1e3;" horiz-adv-x="754" 
d="M155 -12q-56 0 -94.5 33.5t-38.5 90.5q0 73 41 115.5t110 61.5t153 21q1 6 1 11v10q0 37 -17 53.5t-50 16.5q-28 0 -60 -10.5t-67 -27.5l-30 95q44 22 93 36t98 14q44 0 75 -16t47 -51q67 67 147 67q60 0 95.5 -25t51 -67t15.5 -94q0 -34 -9 -66.5t-14 -43.5h-274
q-4 -63 25 -92t77 -29q23 0 47.5 11t42.5 24l49 -86q-28 -21 -71.5 -36.5t-97.5 -15.5q-52 0 -94.5 23.5t-62.5 57.5q-44 -38 -89 -59.5t-99 -21.5zM210 93q22 0 48 14.5t51 44.5q-2 18 -2.5 35.5t1.5 39.5q-78 -2 -115.5 -26t-37.5 -62q0 -22 15.5 -34t39.5 -12zM439 296
h170q2 9 3 17t1 17q0 30 -14.5 51.5t-52.5 21.5q-31 0 -61 -27t-46 -80zM313 597l18 87h283l-18 -87h-283z" />
    <glyph glyph-name="Gcaron" unicode="&#x1e6;" horiz-adv-x="611" 
d="M314 -12q-121 0 -189.5 72t-68.5 201q0 84 26.5 157.5t75 128.5t113.5 86t142 31q63 0 108.5 -27.5t73.5 -76.5l-93 -72q-19 29 -41.5 43t-54.5 14q-60 0 -107.5 -38.5t-74.5 -101t-27 -135.5q0 -75 32.5 -120t108.5 -45q20 0 39 6t32 16l28 128h-107l21 112h227
l-60 -311q-37 -29 -89.5 -48.5t-114.5 -19.5zM340 702l-70 110l68 39l85 -83h4l126 84l57 -44l-110 -106h-160z" />
    <glyph glyph-name="gcaron" unicode="&#x1e7;" horiz-adv-x="546" 
d="M178 -203q-44 0 -92.5 18t-91.5 52l60 91q28 -22 60 -37t67 -15q47 0 77.5 24.5t43.5 69.5l26 88q-33 -34 -72 -53t-80 -19q-63 0 -104 42.5t-41 130.5q0 67 21 125t57.5 101.5t83 68t97.5 24.5q34 0 63 -17.5t43 -47.5h3l21 53h111l-97 -488q-22 -108 -88 -159.5
t-168 -51.5zM229 127q25 0 53 14t52 51l31 157q-13 25 -30.5 36t-34.5 11q-34 0 -63 -25t-46.5 -67.5t-17.5 -96.5q0 -40 15.5 -60t40.5 -20zM254 579l-86 131l61 52l106 -96h4l148 96l47 -56l-130 -127h-150z" />
    <glyph glyph-name="uni01EA" unicode="&#x1ea;" horiz-adv-x="660" 
d="M262 -222q-40 0 -66 20t-26 57q0 29 13.5 55t33.5 47.5t39 34.5q-92 14 -145.5 85t-53.5 187q0 86 26.5 159t73 127t106 84t125.5 30q75 0 130 -33t85 -94.5t30 -148.5q0 -93 -31.5 -173t-89.5 -137t-137 -81q-52 -15 -74.5 -45t-22.5 -53q0 -16 10.5 -24t23.5 -8
q14 0 27 9l27 -67q-21 -13 -50 -22t-54 -9zM309 106q35 0 68 21t59 58.5t41.5 87t15.5 106.5q0 78 -28.5 122t-82.5 44q-35 0 -68 -21t-59.5 -58.5t-42 -86.5t-15.5 -106q0 -78 29 -122.5t83 -44.5z" />
    <glyph glyph-name="uni01EB" unicode="&#x1eb;" horiz-adv-x="533" 
d="M179 -210q-37 0 -61.5 18.5t-24.5 54.5q0 28 13.5 52.5t33 44.5t37.5 32q-67 14 -107 67.5t-40 132.5q0 72 24 130t64 100t89.5 64t100.5 22q55 0 98 -24t68.5 -69.5t25.5 -110.5q0 -73 -26.5 -136.5t-76 -108.5t-120.5 -65q-45 -13 -65 -40.5t-20 -51.5q0 -14 10.5 -22
t24.5 -8q8 0 16 3t16 7l23 -56q-21 -15 -50 -25.5t-53 -10.5zM237 98q34 0 62 26.5t45.5 72.5t17.5 104q0 46 -17.5 71.5t-52.5 25.5q-33 0 -61.5 -26.5t-45.5 -72.5t-17 -104q0 -45 17.5 -71t51.5 -26z" />
    <glyph glyph-name="uni01F4" unicode="&#x1f4;" horiz-adv-x="611" 
d="M314 -12q-121 0 -189.5 72t-68.5 201q0 84 26.5 157.5t75 128.5t113.5 86t142 31q63 0 108.5 -27.5t73.5 -76.5l-93 -72q-19 29 -41.5 43t-54.5 14q-60 0 -107.5 -38.5t-74.5 -101t-27 -135.5q0 -75 32.5 -120t108.5 -45q20 0 39 6t32 16l28 128h-107l21 112h227
l-60 -311q-37 -29 -89.5 -48.5t-114.5 -19.5zM374 686l-52 79l195 124l61 -101z" />
    <glyph glyph-name="uni01F5" unicode="&#x1f5;" horiz-adv-x="546" 
d="M178 -203q-44 0 -92.5 18t-91.5 52l60 91q28 -22 60 -37t67 -15q47 0 77.5 24.5t43.5 69.5l26 88q-33 -34 -72 -53t-80 -19q-63 0 -104 42.5t-41 130.5q0 67 21 125t57.5 101.5t83 68t97.5 24.5q34 0 63 -17.5t43 -47.5h3l21 53h111l-97 -488q-22 -108 -88 -159.5
t-168 -51.5zM229 127q25 0 53 14t52 51l31 157q-13 25 -30.5 36t-34.5 11q-34 0 -63 -25t-46.5 -67.5t-17.5 -96.5q0 -40 15.5 -60t40.5 -20zM304 578l-60 78l185 166l82 -104z" />
    <glyph glyph-name="uni01F8" unicode="&#x1f8;" horiz-adv-x="643" 
d="M28 0l131 652h133l106 -340l35 -143h4q5 51 10.5 115.5t16.5 120.5l50 247h130l-130 -652h-132l-107 339l-33 145h-4q-5 -55 -11.5 -116.5t-17.5 -117.5l-50 -250h-131zM434 676l-164 134l94 87l147 -154z" />
    <glyph glyph-name="uni01F9" unicode="&#x1f9;" horiz-adv-x="552" 
d="M14 0l100 496h111l-2 -66h4q36 32 77 55t88 23q62 0 90 -32.5t28 -94.5q0 -17 -2 -34.5t-6 -36.5l-62 -310h-137l59 293q3 15 5.5 26t2.5 21q0 51 -51 51q-23 0 -47.5 -15.5t-56.5 -48.5l-64 -327h-137zM399 569l-154 171l117 87l121 -193z" />
    <glyph glyph-name="uni01FC" unicode="&#x1fc;" horiz-adv-x="838" 
d="M340 366l-63 -104h124l58 291h-3q-30 -49 -58.5 -94.5t-57.5 -92.5zM-35 0l422 652h470l-23 -115h-242l-27 -142h204l-23 -115h-203l-35 -165h251l-23 -115h-387l31 155h-167l-94 -155h-154zM586 696l-52 79l195 124l61 -101z" />
    <glyph glyph-name="uni01FD" unicode="&#x1fd;" horiz-adv-x="754" 
d="M155 -12q-56 0 -94.5 33.5t-38.5 90.5q0 73 41 115.5t110 61.5t153 21q1 6 1 11v10q0 37 -17 53.5t-50 16.5q-28 0 -60 -10.5t-67 -27.5l-30 95q44 22 93 36t98 14q44 0 75 -16t47 -51q67 67 147 67q60 0 95.5 -25t51 -67t15.5 -94q0 -34 -9 -66.5t-14 -43.5h-274
q-4 -63 25 -92t77 -29q23 0 47.5 11t42.5 24l49 -86q-28 -21 -71.5 -36.5t-97.5 -15.5q-52 0 -94.5 23.5t-62.5 57.5q-44 -38 -89 -59.5t-99 -21.5zM210 93q22 0 48 14.5t51 44.5q-2 18 -2.5 35.5t1.5 39.5q-78 -2 -115.5 -26t-37.5 -62q0 -22 15.5 -34t39.5 -12zM439 296
h170q2 9 3 17t1 17q0 30 -14.5 51.5t-52.5 21.5q-31 0 -61 -27t-46 -80zM433 582l-60 78l185 166l82 -104z" />
    <glyph glyph-name="uni0218" unicode="&#x218;" horiz-adv-x="529" 
d="M238 -12q-64 0 -124.5 28.5t-108.5 93.5l98 77q26 -37 64.5 -59.5t80.5 -22.5t68 20t26 55q0 26 -20.5 42.5t-55.5 38.5l-62 38q-44 28 -70.5 65.5t-26.5 97.5q0 56 30.5 101.5t82.5 73t116 27.5q58 0 109.5 -27t88.5 -72l-87 -81q-25 26 -53 43.5t-64 17.5
q-40 0 -61.5 -20.5t-21.5 -49.5q0 -25 22 -41t60 -40l64 -39q47 -28 69 -63.5t22 -91.5q0 -59 -30.5 -107.5t-85.5 -76.5t-130 -28zM88 -246l-1 59q59 2 84 13.5t25 29.5q0 11 -12.5 21t-44.5 10l38 54q52 -2 79.5 -12t37.5 -25.5t10 -34.5q0 -39 -28.5 -63.5t-77 -37
t-110.5 -14.5z" />
    <glyph glyph-name="uni0219" unicode="&#x219;" horiz-adv-x="424" 
d="M170 -12q-46 0 -96.5 25t-81.5 71l79 66q52 -62 107 -62q29 0 49.5 13.5t20.5 33.5q0 22 -22 36t-66 39q-39 22 -68.5 56t-29.5 80q0 47 25.5 83.5t69 57.5t96.5 21q51 0 92 -22t71 -54l-74 -70q-19 18 -41.5 31t-48.5 13q-28 0 -45 -13.5t-17 -33.5q0 -23 26.5 -37.5
t55.5 -31.5q44 -23 74 -54.5t30 -84.5q0 -48 -26.5 -85t-73 -57.5t-106.5 -20.5zM22 -238l-1 59q59 2 84 13.5t25 29.5q0 11 -12.5 21t-44.5 10l38 54q52 -2 79.5 -12t37.5 -25.5t10 -34.5q0 -39 -28.5 -63.5t-77 -37t-110.5 -14.5z" />
    <glyph glyph-name="uni021A" unicode="&#x21a;" horiz-adv-x="532" 
d="M149 0l106 536h-171l22 116h480l-23 -116h-171l-106 -536h-137zM78 -238l-1 59q59 2 84 13.5t25 29.5q0 11 -12.5 21t-44.5 10l38 54q52 -2 79.5 -12t37.5 -25.5t10 -34.5q0 -39 -28.5 -63.5t-77 -37t-110.5 -14.5z" />
    <glyph glyph-name="uni021B" unicode="&#x21b;" horiz-adv-x="367" 
d="M203 -12q-75 0 -108 37t-33 94q0 16 2.5 31.5t5.5 31.5l43 207h-66l20 101l73 6l42 130h115l-25 -130h113l-21 -107h-116l-43 -213q-1 -9 -1.5 -17t-0.5 -16q0 -48 51 -48q11 0 21 3.5t20 7.5l24 -96q-19 -7 -48.5 -14.5t-67.5 -7.5zM36 -238l-1 59q59 2 84 13.5t25 29.5
q0 11 -12.5 21t-44.5 10l38 54q52 -2 79.5 -12t37.5 -25.5t10 -34.5q0 -39 -28.5 -63.5t-77 -37t-110.5 -14.5z" />
    <glyph glyph-name="uni0237" unicode="&#x237;" horiz-adv-x="267" 
d="M-35 -196q-26 0 -49 5t-47 17l41 99q11 -6 21 -9.5t23 -3.5q25 0 37.5 19t22.5 59l101 506h137l-103 -512q-10 -50 -32 -91t-59 -65t-93 -24z" />
    <glyph glyph-name="uni0243" unicode="&#x243;" horiz-adv-x="623" 
d="M46 0l34 168h-84l16 79l85 5l80 400h199q98 0 158.5 -34t60.5 -107q0 -54 -38.5 -95.5t-102.5 -58.5l-2 -4q54 -14 83.5 -46.5t29.5 -84.5q0 -79 -38.5 -128t-102.5 -71.5t-141 -22.5h-237zM202 97h86q67 0 106 33.5t39 94.5q0 41 -26 64t-76 23h-86l-12 -60h126l-16 -84
h-127zM264 399h62q66 0 97.5 24t31.5 65q0 65 -104 65h-56z" />
    <glyph glyph-name="uni0250" unicode="&#x250;" horiz-adv-x="509" 
d="M222 -12q-81 0 -126 40.5t-45 122.5q0 17 1.5 32.5t5.5 34.5l56 278h111l-1 -64h3q33 32 73.5 54t87.5 22q51 0 78.5 -28.5t27.5 -75.5q0 -58 -31.5 -106t-99 -79.5t-176.5 -42.5q-1 -4 -1 -8v-8q0 -65 68 -65q32 0 64 11t73 33l38 -87q-52 -30 -104 -47t-103 -17z
M203 266q83 10 120.5 33.5t37.5 57.5q0 18 -12.5 32t-30.5 14q-25 0 -49.5 -14t-47.5 -37z" />
    <glyph glyph-name="uni0251" unicode="&#x251;" horiz-adv-x="559" 
d="M171 -12q-65 0 -102.5 47t-37.5 135q0 71 22 132.5t59.5 107.5t85 72t98.5 26q34 0 64 -17.5t44 -47.5h2l22 53h109l-72 -364q-1 -6 -1.5 -10t-0.5 -7q0 -17 14 -17q2 0 5.5 0.5l10.5 1.5l-5 -101q-16 -4 -34 -7.5t-38 -3.5q-32 0 -56 14t-33 53q0 2 0.5 4l1.5 6h-3
q-34 -35 -75 -56t-80 -21zM231 100q25 0 53.5 15.5t52.5 57.5l35 176q-12 25 -30.5 36t-35.5 11q-34 0 -64.5 -27.5t-49.5 -74.5t-19 -107q0 -45 15.5 -66t42.5 -21z" />
    <glyph glyph-name="uni0252" unicode="&#x252;" horiz-adv-x="559" 
d="M261 -12q-34 0 -62 17.5t-42 47.5h-3l-21 -53h-113l73 364q2 6 2 10v7q0 17 -15 17h-5t-10 -2l4 101q17 5 35 8t38 3q32 0 55.5 -14t32.5 -53q0 -4 -1 -8h2q34 34 75.5 54.5t79.5 20.5q65 0 102.5 -47t37.5 -135q0 -71 -22 -132.5t-59.5 -107.5t-85 -72t-98.5 -26z
M252 100q35 0 65 27.5t48.5 74.5t18.5 107q0 45 -15.5 66t-42.5 21q-23 0 -51 -13.5t-51 -48.5l-37 -187q11 -25 28.5 -36t36.5 -11z" />
    <glyph glyph-name="uni0253" unicode="&#x253;" horiz-adv-x="553" 
d="M256 -12q-34 0 -62.5 17.5t-42.5 47.5h-2l-22 -53h-113l107 528q11 54 34 95.5t64 65.5t104 24q64 0 116 -30l-44 -96q-11 7 -27.5 12t-31.5 5q-31 0 -49 -14.5t-28 -48.5l-3 -15l-25 -93h2q33 26 70 42.5t74 16.5q65 0 102.5 -45t37.5 -129q0 -69 -21.5 -129t-58 -105
t-83.5 -70.5t-98 -25.5zM246 100q35 0 64 26.5t47 71.5t18 102q0 41 -15.5 60.5t-41.5 19.5q-24 0 -52 -14t-51 -48l-34 -171q11 -25 28.5 -36t36.5 -11z" />
    <glyph glyph-name="uni0254" unicode="&#x254;" horiz-adv-x="453" 
d="M136 -12q-48 0 -87 17t-62 45l71 88q17 -17 37.5 -28.5t45.5 -11.5q40 0 73.5 23t54 66t20.5 102q0 54 -22 81.5t-57 27.5q-22 0 -41.5 -8t-43.5 -26l-55 82q33 26 77 44t97 18t95 -24t66 -70t24 -111q0 -72 -24 -130.5t-65.5 -99.5t-94 -63t-109.5 -22z" />
    <glyph glyph-name="uni0255" unicode="&#x255;" horiz-adv-x="474" 
d="M301 175q-42 0 -102 -57q25 -20 66 -20q29 0 47.5 15.5t19.5 32.5q1 11 -6.5 20t-24.5 9zM67 -73l-75 33q18 31 35.5 59t35.5 53q-34 49 -34 120q0 65 22.5 122t62.5 100.5t93 68.5t114 25q47 0 80.5 -19t52.5 -42l-76 -81q-15 16 -30 24t-36 8q-39 0 -71.5 -27.5
t-52 -73.5t-19.5 -101q85 76 163 76q50 0 80 -29t28 -79q-1 -48 -29 -88t-74.5 -64t-101.5 -24q-66 0 -116 30q-13 -20 -26.5 -43t-25.5 -48z" />
    <glyph glyph-name="uni0256" unicode="&#x256;" horiz-adv-x="552" 
d="M406 -196q-55 0 -79.5 27t-24.5 73q0 13 1.5 30.5t7.5 48t18 82.5h-2q-34 -35 -75.5 -56t-80.5 -21q-65 0 -102.5 47t-37.5 135q0 71 22 132.5t59.5 107.5t85 72t98.5 26q34 0 60.5 -16.5t40.5 -43.5h3l12 94l30 159h137l-146 -732q-1 -10 -2 -15t-1 -11q0 -29 25 -29
q8 0 15.5 2t14.5 5l21 -99q-16 -5 -43.5 -11.5t-56.5 -6.5zM231 100q25 0 53 15.5t53 57.5l35 176q-12 25 -30.5 36t-35.5 11q-34 0 -64.5 -27.5t-49.5 -74.5t-19 -107q0 -45 15.5 -66t42.5 -21z" />
    <glyph glyph-name="uni0257" unicode="&#x257;" horiz-adv-x="552" 
d="M171 -12q-65 0 -102.5 47t-37.5 135q0 71 22 132.5t59.5 107.5t85 72t98.5 26q34 0 60.5 -16.5t40.5 -43.5h3l13 86l4 17q9 45 32.5 82t64 58.5t100.5 21.5q17 0 33 -3.5t26 -8.5l-40 -102q-8 5 -23 5q-23 0 -40 -15.5t-25 -55.5l-107 -533h-111l2 65h-3q-34 -35 -75 -56
t-80 -21zM231 100q25 0 53 15.5t53 57.5l35 176q-12 25 -30.5 36t-35.5 11q-34 0 -64.5 -27.5t-49.5 -74.5t-19 -107q0 -45 15.5 -66t42.5 -21z" />
    <glyph glyph-name="uni0258" unicode="&#x258;" horiz-adv-x="496" 
d="M171 -12q-43 0 -87.5 14.5t-76.5 42.5l58 79q49 -33 103 -33q47 0 86 32.5t60 88.5h-285q1 58 19.5 111t52.5 94.5t81 66t104 24.5q79 0 129 -50.5t50 -142.5q0 -66 -21.5 -125t-60.5 -104.5t-93 -71.5t-119 -26zM155 296h181q2 7 3 14t1 14q0 35 -16.5 57t-53.5 22
t-69 -28.5t-46 -78.5z" />
    <glyph glyph-name="uni0259" unicode="&#x259;" horiz-adv-x="496" 
d="M188 -12q-59 0 -95 25t-51.5 67t-15.5 94q0 31 7.5 62t17.5 50h283q2 62 -24.5 90.5t-67.5 28.5q-21 0 -47 -8.5t-49 -21.5l-40 88q41 21 82.5 33t87.5 12q83 0 135 -53.5t52 -158.5q0 -69 -24 -125.5t-64 -97.5t-89 -63t-98 -22zM204 93q36 0 69 26.5t50 82.5h-180
q-2 -9 -3.5 -17.5t-1.5 -18.5q0 -30 14.5 -51.5t51.5 -21.5z" />
    <glyph glyph-name="uni025A" unicode="&#x25a;" horiz-adv-x="699" 
d="M193 -12q-60 0 -98.5 25.5t-57 69t-18.5 96.5q0 9 1 19.5t2 16.5l308 118q-9 37 -33.5 52.5t-56.5 15.5q-25 0 -51 -9t-53 -23l-41 91q43 23 83.5 35.5t91.5 12.5q66 0 114 -32t67 -96l180 69q-11 -41 -16 -71t-5 -51q0 -27 9 -38t25 -11q14 0 23.5 3t17.5 8l16 -70
q-17 -10 -38.5 -17.5t-50.5 -7.5q-32 0 -58 19.5t-26 62.5q0 22 6 49l-72 -28q-1 -69 -23.5 -125.5t-61 -97.5t-86 -63.5t-98.5 -22.5zM131 168q0 -37 20 -56t56 -19q24 0 49.5 16.5t46 50.5t27.5 86z" />
    <glyph glyph-name="uni025B" unicode="&#x25b;" horiz-adv-x="444" 
d="M207 -12q-50 0 -93 14t-69 42.5t-26 71.5q0 53 34.5 91.5t98.5 52.5v4q-31 10 -49.5 33.5t-18.5 51.5q0 45 26.5 81t75.5 57t118 21q86 0 149 -45l-65 -87q-22 14 -44.5 20.5t-50.5 6.5q-35 0 -54.5 -17.5t-19.5 -42.5q0 -47 62 -47h65l-17 -84h-79q-46 0 -68.5 -17.5
t-22.5 -47.5q0 -26 22.5 -41t59.5 -15q23 0 51 7.5t59 23.5l34 -84q-50 -29 -92 -39.5t-86 -10.5z" />
    <glyph glyph-name="uni025C" unicode="&#x25c;" horiz-adv-x="444" 
d="M158 -12q-45 0 -83.5 10t-76.5 38l51 88q26 -17 55 -25t57 -8q43 0 71 19.5t28 53.5q0 48 -77 48h-68l16 84h65q43 0 64 17.5t21 42.5q0 47 -61 47q-26 0 -49.5 -7t-50.5 -21l-37 88q83 45 174 45q43 0 79 -12.5t57.5 -38.5t21.5 -68q0 -43 -28.5 -78t-76.5 -50v-3
q43 -10 64 -31.5t21 -58.5q0 -53 -33.5 -94t-87.5 -63.5t-116 -22.5z" />
    <glyph glyph-name="uni025E" unicode="&#x25e;" horiz-adv-x="531" 
d="M240 -12q-103 0 -156.5 56t-53.5 148q0 72 24.5 130t67 100t97.5 64t115 22q46 0 83.5 -12.5t60.5 -38.5t23 -68q0 -43 -28 -78t-76 -50v-3q43 -10 64 -31.5t21 -58.5q0 -53 -34.5 -94t-90 -63.5t-117.5 -22.5zM259 91q40 0 64 19.5t24 53.5q0 48 -77 48h-21l16 84h18
q43 0 64 17.5t21 42.5q0 23 -15.5 35t-43.5 12q-40 0 -72 -27t-50.5 -74t-18.5 -107q0 -48 21.5 -76t69.5 -28z" />
    <glyph glyph-name="uni025F" unicode="&#x25f;" horiz-adv-x="309" 
d="M-15 -196q-26 0 -49 5t-47 17l41 99q11 -6 21 -9.5t23 -3.5q25 0 37.5 19t22.5 59l44 222h-87l15 78l89 6l40 200h137l-40 -200h84l-16 -84h-85l-46 -228q-10 -50 -32 -91t-59 -65t-93 -24z" />
    <glyph glyph-name="uni0260" unicode="&#x260;" horiz-adv-x="559" 
d="M178 -203q-44 0 -92.5 18t-91.5 52l60 91q28 -22 60 -37t67 -15q47 0 77.5 24.5t43.5 69.5l26 88q-33 -34 -72 -53t-80 -19q-63 0 -104 42.5t-41 130.5q0 67 21 125t57.5 101.5t83 68t97.5 24.5q34 0 60.5 -16.5t40.5 -43.5h3l11 54q9 45 32 81.5t63 58.5t99 22
q17 0 33 -3.5t26 -8.5l-40 -102q-8 5 -22 5q-25 0 -41.5 -16.5t-24.5 -54.5l-96 -476q-22 -108 -88 -159.5t-168 -51.5zM229 127q25 0 53 14t52 51l31 157q-13 25 -30.5 36t-34.5 11q-34 0 -63 -25t-46.5 -67.5t-17.5 -96.5q0 -40 15.5 -60t40.5 -20z" />
    <glyph glyph-name="uni0261" unicode="&#x261;" horiz-adv-x="546" 
d="M178 -203q-44 0 -92.5 18t-91.5 52l60 91q28 -22 60 -37t67 -15q47 0 77.5 24.5t43.5 69.5l26 88q-33 -34 -72 -53t-80 -19q-63 0 -104 42.5t-41 130.5q0 67 21 125t57.5 101.5t83 68t97.5 24.5q34 0 63 -17.5t43 -47.5h3l21 53h111l-97 -488q-22 -108 -88 -159.5
t-168 -51.5zM229 127q25 0 53 14t52 51l31 157q-13 25 -30.5 36t-34.5 11q-34 0 -63 -25t-46.5 -67.5t-17.5 -96.5q0 -40 15.5 -60t40.5 -20z" />
    <glyph glyph-name="uni0262" unicode="&#x262;" horiz-adv-x="500" 
d="M233 -12q-55 0 -101.5 22.5t-74 68.5t-27.5 116q0 67 24.5 124t67 99.5t96.5 66t113 23.5q58 0 93.5 -16.5t60.5 -41.5l-73 -82q-20 17 -39 26t-49 9q-42 0 -77 -26.5t-56 -72t-21 -103.5q0 -52 23 -81t65 -29q32 0 54 15l21 100h-81l17 84h196l-48 -241
q-33 -26 -82 -43.5t-102 -17.5z" />
    <glyph glyph-name="uni0263" unicode="&#x263;" horiz-adv-x="499" 
d="M150 -211q-57 0 -89.5 30.5t-32.5 82.5q0 47 24.5 92.5t73.5 102.5l-66 399h136l19 -206q4 -39 7 -72t6 -74h4q19 42 34.5 75t34.5 71l99 206h134l-229 -414q13 -40 17 -65.5t4 -47.5q0 -49 -22 -90t-61.5 -65.5t-92.5 -24.5zM168 -119q21 0 34 18t13 52q0 17 -2 36
t-8 42h-4q-28 -33 -45.5 -63t-17.5 -52q0 -16 8.5 -24.5t21.5 -8.5z" />
    <glyph glyph-name="uni0264" unicode="&#x264;" horiz-adv-x="550" 
d="M229 -12q-68 0 -115 36t-47 108q0 62 39 115.5t111 109.5q-21 23 -41.5 32t-44.5 9q-23 0 -41 -13l-34 102q40 21 94 21q44 0 85 -21.5t76 -60.5q50 43 92.5 62.5t81.5 19.5q26 0 48.5 -6.5t35.5 -18.5l-53 -97q-21 12 -46 12q-21 0 -42 -11t-47 -34q30 -37 51 -78.5
t21 -83.5q0 -51 -26 -97.5t-76 -76t-122 -29.5zM245 91q35 0 55.5 29.5t20.5 66.5q0 27 -11 52.5t-28 46.5q-39 -31 -61 -69.5t-22 -70.5q0 -25 12 -40t34 -15z" />
    <glyph glyph-name="uni0265" unicode="&#x265;" horiz-adv-x="550" 
d="M260 -184l34 162l22 81h-4q-33 -30 -72 -50.5t-84 -20.5q-61 0 -89 33t-28 95q0 17 2 34t6 36l62 310h136l-58 -293q-4 -15 -6 -26t-2 -21q0 -51 50 -51q23 0 47.5 15.5t56.5 48.5l64 327h137l-137 -680h-137z" />
    <glyph glyph-name="uni0266" unicode="&#x266;" horiz-adv-x="546" 
d="M14 0l107 528q11 54 34 95.5t64 65.5t104 24q64 0 116 -30l-44 -96q-11 7 -27.5 12t-31.5 5q-31 0 -49 -14.5t-28 -48.5l-5 -26l-25 -94h4q33 29 72 50t84 21q62 0 89.5 -33t27.5 -95q0 -32 -8 -70l-58 -294h-137l55 276q4 15 6 26.5t2 21.5q0 51 -50 51
q-23 0 -47.5 -15.5t-56.5 -49.5l-61 -310h-137z" />
    <glyph glyph-name="uni0267" unicode="&#x267;" horiz-adv-x="546" 
d="M252 -196q-26 0 -49 5t-47 17l41 99q11 -6 21 -9.5t23 -3.5q25 0 38.5 19t21.5 59l57 286q4 15 6 26.5t2 21.5q0 51 -50 51q-23 0 -47.5 -15.5t-56.5 -49.5l-61 -310h-137l107 529q11 53 34.5 94.5t64 65.5t103.5 24q64 0 116 -30l-44 -96q-11 7 -27.5 12t-31.5 5
q-59 0 -76 -62l-6 -27l-25 -94h4q33 29 72 50t84 21q62 0 89.5 -33t27.5 -95q0 -32 -8 -70l-62 -310q-10 -52 -32 -92.5t-59 -64t-93 -23.5z" />
    <glyph glyph-name="uni0268" unicode="&#x268;" horiz-adv-x="321" 
d="M36 0l43 212h-88l15 78l90 6l40 200h136l-40 -200h84l-16 -84h-85l-42 -212h-137zM222 578q-28 0 -51 16.5t-23 49.5t25 57t60 24q29 0 51.5 -17t22.5 -49q0 -35 -24.5 -58t-60.5 -23z" />
    <glyph glyph-name="uni0269" unicode="&#x269;" horiz-adv-x="275" 
d="M137 -12q-53 0 -76.5 26t-23.5 71q0 26 7 61l71 350h137l-73 -356q-1 -7 -1.5 -11t-0.5 -8q0 -13 6 -18t13 -5q5 0 8 0.5t10 1.5l-4 -101q-13 -4 -31 -7.5t-42 -3.5z" />
    <glyph glyph-name="uni026A" unicode="&#x26a;" horiz-adv-x="380" 
d="M8 0l23 107h69l57 282h-70l21 107h277l-21 -107h-70l-57 -282h70l-20 -107h-279z" />
    <glyph glyph-name="uni026B" unicode="&#x26b;" horiz-adv-x="447" 
d="M232 -12q-53 0 -76.5 26t-23.5 71q0 26 7 61l111 555h137l-113 -561q-1 -7 -1.5 -11t-0.5 -8q0 -13 6 -18t13 -5q5 0 8 0.5t10 1.5l-4 -101q-13 -4 -31 -7.5t-42 -3.5zM348 285q-37 0 -65.5 9.5t-51 22.5t-43 22.5t-42.5 9.5q-28 0 -44 -52l-88 18q16 68 51 101.5
t84 33.5q38 0 66.5 -9.5t51 -22.5t42.5 -22.5t42 -9.5q29 0 44 52l89 -18q-16 -68 -51 -101.5t-85 -33.5z" />
    <glyph glyph-name="uni026C" unicode="&#x26c;" horiz-adv-x="397" 
d="M138 373h20l3 15q0 17 -7.5 32.5t-30.5 15.5q-16 0 -25 -8.5t-9 -22.5q0 -13 12 -22.5t37 -9.5zM83 0l58 289h-2q-60 0 -92.5 32.5t-32.5 82.5q0 23 12 46t34.5 38.5t53.5 15.5q22 0 38.5 -6.5t26.5 -17.5l45 221h137l-66 -328h109l-14 -84h-112l-58 -289h-137z" />
    <glyph glyph-name="uni026D" unicode="&#x26d;" horiz-adv-x="274" 
d="M117 -196q-61 0 -88 27t-27 73q0 33 7 69l146 728h137l-148 -732l-1.5 -15t-0.5 -11q0 -29 25 -29q8 0 15.5 2t14.5 5l21 -99q-16 -5 -43.5 -11.5t-57.5 -6.5z" />
    <glyph glyph-name="uni026E" unicode="&#x26e;" horiz-adv-x="625" 
d="M14 0l141 701h137l-41 -205h373l-15 -79l-186 -203q62 -5 99.5 -49t37.5 -110t-34.5 -123t-93 -91.5t-132.5 -34.5q-67 0 -112.5 24.5t-71.5 57.5l71 79q21 -22 49 -37.5t70 -15.5q30 0 56.5 16.5t43 45.5t16.5 68q0 42 -23 62t-58 20q-16 0 -27.5 -4t-28.5 -10l-35 70
l194 207h-215l-78 -389h-137z" />
    <glyph glyph-name="uni026F" unicode="&#x26f;" horiz-adv-x="824" 
d="M155 -12q-61 0 -89 33t-28 95q0 17 2 34t6 36l62 310h136l-58 -293q-4 -15 -6 -26t-2 -21q0 -51 50 -51q17 0 41.5 15.5t55.5 48.5l65 327h137l-59 -293q-3 -15 -5.5 -26t-2.5 -21q0 -51 49 -51q18 0 43 15.5t56 48.5l63 327h137l-99 -496h-111l2 66h-4
q-36 -31 -76.5 -54.5t-82.5 -23.5q-55 0 -79.5 24t-35.5 63q-40 -38 -83 -62.5t-84 -24.5z" />
    <glyph glyph-name="uni0270" unicode="&#x270;" horiz-adv-x="824" 
d="M535 -184l31 149l29 101h-4q-28 -31 -71 -54.5t-83 -23.5q-55 0 -79.5 24t-35.5 63q-40 -38 -83 -62.5t-84 -24.5q-61 0 -89 33t-28 95q0 17 2 34t6 36l62 310h136l-58 -293q-4 -15 -6 -26t-2 -21q0 -51 50 -51q17 0 41.5 15.5t55.5 48.5l65 327h137l-59 -293
q-3 -15 -5.5 -26t-2.5 -21q0 -51 49 -51q18 0 43 15.5t56 48.5l63 327h137l-137 -680h-136z" />
    <glyph glyph-name="uni0271" unicode="&#x271;" horiz-adv-x="827" 
d="M527 -196q-26 0 -49 5t-47 17l42 99q21 -13 43 -13q25 0 38 19t22 59l61 303q3 15 5.5 26t2.5 21q0 51 -50 51q-16 0 -40.5 -15.5t-56.5 -48.5l-66 -327h-137l59 293q3 15 5.5 26t2.5 21q0 51 -48 51q-18 0 -42.5 -15.5t-56.5 -48.5l-64 -327h-137l98 496h111l-2 -66h4
q36 32 77 55t83 23q56 0 80.5 -24t34.5 -63q41 38 83.5 62.5t84.5 24.5q62 0 89.5 -32.5t27.5 -94.5q0 -17 -2 -34.5t-6 -36.5l-66 -326q-10 -50 -32 -91t-58.5 -65t-93.5 -24z" />
    <glyph glyph-name="uni0272" unicode="&#x272;" horiz-adv-x="552" 
d="M-37 -196q-42 0 -81 18l42 98q7 -4 13.5 -6t14.5 -2q26 0 39.5 19t20.5 59l102 506h111l-2 -66h4q36 32 77 55t88 23q62 0 90 -32.5t28 -94.5q0 -17 -2 -34.5t-6 -36.5l-62 -310h-137l59 293q3 15 5.5 26t2.5 21q0 51 -51 51q-23 0 -47.5 -15.5t-56.5 -48.5l-67 -343
q-10 -50 -32 -91t-59 -65t-94 -24z" />
    <glyph glyph-name="uni0273" unicode="&#x273;" horiz-adv-x="552" 
d="M405 -196q-61 0 -88 27t-27 73q0 17 2 33.5t6 35.5l64 320q3 15 5.5 26t2.5 21q0 51 -51 51q-23 0 -47.5 -15.5t-56.5 -48.5l-64 -327h-137l100 496h111l-2 -66h4q36 32 77 55t88 23q62 0 90 -32.5t28 -94.5q0 -17 -2 -34.5t-6 -36.5l-69 -341q-2 -10 -2.5 -15t-0.5 -11
q0 -29 25 -29q8 0 15.5 2t14.5 5l21 -99q-16 -5 -43.5 -11.5t-57.5 -6.5z" />
    <glyph glyph-name="uni0274" unicode="&#x274;" horiz-adv-x="537" 
d="M14 0l100 496h123l73 -209q8 -22 15 -52t14 -52h3q5 45 10.5 91t12.5 83l27 139h129l-100 -496h-123l-73 209q-7 22 -15 52t-14 52h-4q-4 -46 -9 -91.5t-13 -82.5l-28 -139h-128z" />
    <glyph glyph-name="uni0275" unicode="&#x275;" horiz-adv-x="533" 
d="M222 -12q-87 0 -139.5 56t-52.5 148q0 72 24 130t64 100t89.5 64t100.5 22q58 0 101 -25.5t67 -71t24 -107.5q0 -72 -24 -130t-64 -100t-89.5 -64t-100.5 -22zM294 403q-39 0 -70.5 -28.5t-48.5 -75.5h197v2q0 47 -18.5 74.5t-59.5 27.5zM236 93q42 0 74.5 32t48.5 84
h-201v-7v-7q0 -46 18.5 -74t59.5 -28z" />
    <glyph glyph-name="uni0276" unicode="&#x276;" horiz-adv-x="695" 
d="M228 -12q-53 0 -98.5 21.5t-72.5 66.5t-27 113q0 72 25.5 130.5t68.5 101t96.5 65t110.5 22.5q27 0 50.5 -2t55.5 -10h266l-19 -97h-194l-21 -103h165l-17 -84h-164l-24 -115h204l-19 -97h-274q-34 -7 -59.5 -9.5t-52.5 -2.5zM256 98q19 0 41 6l58 289q-10 3 -20 4t-19 1
q-41 0 -75 -26t-53.5 -70t-19.5 -97q0 -61 26 -84t62 -23z" />
    <glyph glyph-name="uni0277" unicode="&#x277;" horiz-adv-x="724" 
d="M195 -12q-43 0 -81.5 17.5t-62.5 55.5t-24 99q0 69 26 131.5t74.5 110.5t117 76t153.5 28q77 0 143 -26.5t106.5 -81.5t40.5 -140q0 -70 -25 -131.5t-72.5 -100t-115.5 -38.5q-50 0 -90 22t-52 76h-4q-22 -50 -58 -74t-76 -24zM218 98q28 0 44 30t29 83l23 99h127
l-22 -109q-3 -14 -5.5 -26.5t-2.5 -23.5q0 -27 14 -38t36 -11q35 0 61.5 41.5t26.5 110.5q0 71 -47 106.5t-120 35.5q-68 0 -116.5 -32t-74.5 -83t-26 -109q0 -42 15.5 -58t37.5 -16z" />
    <glyph glyph-name="uni0278" unicode="&#x278;" horiz-adv-x="703" 
d="M202 -184l36 179q-56 7 -103.5 33.5t-76 74.5t-28.5 117q0 65 25.5 116t69 86.5t99 56t116.5 23.5l40 199h123l-40 -201q56 -7 103 -34t75.5 -74t28.5 -117q0 -65 -25.5 -116t-69 -87t-99 -56t-115.5 -23l-36 -177h-123zM532 272q0 56 -25.5 87.5t-64.5 38.5l-61 -304
q41 5 75 29.5t55 63.5t21 85zM168 222q0 -55 25 -86.5t65 -39.5l62 304q-40 -4 -75 -28.5t-56 -63.5t-21 -86z" />
    <glyph glyph-name="uni0279" unicode="&#x279;" horiz-adv-x="384" 
d="M9 -12q-19 0 -31.5 3t-20.5 7l45 118q10 -5 23.5 -6.5t25.5 -1.5q33 0 64 24.5t60 76.5l56 287h136l-99 -496h-111l6 97h-4q-28 -47 -67.5 -78t-82.5 -31z" />
    <glyph glyph-name="uni027A" unicode="&#x27a;" horiz-adv-x="384" 
d="M9 -12q-19 0 -31.5 3t-20.5 7l45 118q10 -5 23.5 -6.5t25.5 -1.5q33 0 64 24.5t60 76.5l99 492h137l-143 -701h-111l6 97h-4q-28 -47 -67.5 -78t-82.5 -31z" />
    <glyph glyph-name="uni027B" unicode="&#x27b;" horiz-adv-x="384" 
d="M234 -196q-55 0 -79.5 27t-24.5 73q0 12 2 30t9 55.5t22 107.5h-4q-28 -47 -67.5 -78t-82.5 -31q-19 0 -31.5 3t-20.5 7l45 118q10 -5 23.5 -6.5t25.5 -1.5q33 0 64 24.5t60 76.5l56 287h136l-106 -527l-1.5 -15t-0.5 -11q0 -29 25 -29q8 0 15.5 2t14.5 5l21 -99
q-16 -5 -43.5 -11.5t-57.5 -6.5z" />
    <glyph glyph-name="uni027D" unicode="&#x27d;" horiz-adv-x="384" 
d="M117 -196q-61 0 -88 27t-27 73q0 33 7 69l105 523h111l-6 -96h4q29 47 68 77.5t82 30.5q19 0 31.5 -2.5t20.5 -7.5l-45 -118q-10 5 -23.5 6.5t-25.5 1.5q-33 0 -64 -24t-60 -77l-63 -318l-1.5 -15t-0.5 -11q0 -29 25 -29q8 0 15.5 2t14.5 5l21 -99q-16 -5 -43.5 -11.5
t-57.5 -6.5z" />
    <glyph glyph-name="uni027E" unicode="&#x27e;" horiz-adv-x="369" 
d="M14 0l61 304q20 96 81 150t154 54q34 0 61.5 -6t44.5 -14l-45 -111q-19 7 -31 9t-32 2q-36 0 -64 -26.5t-41 -90.5l-52 -271h-137z" />
    <glyph glyph-name="uni0280" unicode="&#x280;" horiz-adv-x="509" 
d="M14 0l100 496h193q48 0 86 -12.5t60.5 -41t22.5 -78.5q0 -59 -30 -103t-82 -67l81 -194h-149l-57 170h-54l-34 -170h-137zM201 254h42q44 0 68.5 23t24.5 56q0 55 -67 55h-41z" />
    <glyph glyph-name="uni0281" unicode="&#x281;" horiz-adv-x="509" 
d="M14 0l100 496h136l-34 -170h55l124 170h151l-160 -194q26 -16 41 -42t15 -66q0 -60 -30.5 -103.5t-83 -67t-120.5 -23.5h-194zM172 108h42q43 0 68 23.5t25 56.5q0 54 -67 54h-41z" />
    <glyph glyph-name="uni0282" unicode="&#x282;" horiz-adv-x="424" 
d="M97 -196q-59 0 -93 36.5t-34 91.5q0 29 4 57t12.5 64t23.5 87l4 2q49 -24 79 -35.5t49 -15t36 -3.5q29 0 49.5 13.5t20.5 33.5q0 22 -22 36t-66 39q-39 22 -68.5 56t-29.5 80q0 47 25.5 83.5t69 57.5t96.5 21q51 0 92 -22t71 -54l-74 -70q-19 18 -41.5 31t-48.5 13
q-28 0 -45 -13.5t-17 -33.5q0 -23 26.5 -37.5t55.5 -31.5q44 -23 74 -54.5t30 -84.5q0 -48 -26.5 -85t-73 -57.5t-106.5 -20.5q-16 0 -36.5 4t-43.5 13q-4 -19 -5.5 -29t-1.5 -15q0 -49 40 -49q14 0 29 5l12 -99q-15 -6 -31.5 -10t-35.5 -4z" />
    <glyph glyph-name="uni0283" unicode="&#x283;" horiz-adv-x="267" 
d="M-35 -196q-26 0 -49 5t-47 17l41 98q21 -12 44 -12q25 0 38.5 19t21.5 59l104 524q12 58 36.5 103t68 70.5t112.5 25.5q20 0 41.5 -5.5t33.5 -11.5l-46 -98q-16 7 -33 7q-33 0 -50 -20.5t-26 -67.5l-106 -533q-15 -78 -58.5 -129t-125.5 -51z" />
    <glyph glyph-name="uni0284" unicode="&#x284;" horiz-adv-x="309" 
d="M-15 -196q-26 0 -49 5t-47 17l41 98q21 -12 44 -12q25 0 38.5 19t21.5 59l44 222h-87l15 78l89 6l43 218q12 58 36.5 103t68 70.5t112.5 25.5q20 0 41.5 -5.5t33.5 -11.5l-46 -98q-16 7 -33 7q-33 0 -50 -20.5t-26 -67.5l-44 -221h85l-16 -84h-86l-45 -228
q-15 -78 -58.5 -129t-125.5 -51z" />
    <glyph glyph-name="uni0288" unicode="&#x288;" horiz-adv-x="367" 
d="M164 -196q-75 0 -108 37t-33 94q0 16 2.5 31.5t4.5 31.5l83 391h-66l20 101l73 6l42 130h115l-25 -130h113l-21 -107h-116l-83 -397q-1 -9 -1.5 -17t-0.5 -16q0 -48 52 -48q11 0 21 3.5t19 7.5l25 -96q-19 -7 -48.5 -14.5t-67.5 -7.5z" />
    <glyph glyph-name="uni0289" unicode="&#x289;" horiz-adv-x="548" 
d="M185 -12q-61 0 -89 33t-28 95q0 17 2 34t6 36l15 74h-71l15 78l73 6l30 152h136l-30 -152h147l30 152h137l-30 -152h72l-17 -84h-72l-51 -260h-111l2 67h-4q-34 -31 -75.5 -55t-86.5 -24zM208 156q0 -51 50 -51q42 0 99 64l18 91h-148l-11 -57q-4 -15 -6 -26t-2 -21z" />
    <glyph glyph-name="uni028A" unicode="&#x28a;" horiz-adv-x="534" 
d="M220 -12q-63 0 -106 24t-64.5 63.5t-21.5 86.5t16 90t41 78t51 57v2h-80l21 107h206l-16 -87q-44 -44 -72.5 -103t-28.5 -115q0 -43 19.5 -68t58.5 -25q36 0 62.5 27t41.5 73.5t15 105.5q0 29 -6.5 56t-20.5 49l17 87h207l-21 -107h-82v-2q17 -22 27.5 -58t10.5 -77
q0 -46 -18.5 -92.5t-54.5 -85.5t-86.5 -62.5t-115.5 -23.5z" />
    <glyph glyph-name="uni028B" unicode="&#x28b;" horiz-adv-x="540" 
d="M211 -12q-79 0 -123 41t-44 120q0 16 2.5 33t6.5 36l56 278h136l-54 -276q-3 -15 -6.5 -32t-3.5 -28q0 -29 14.5 -42t39.5 -13q23 0 47 19.5t45 54t33.5 79t12.5 94.5q0 46 -44 46q-8 0 -19 -3l5 105q25 8 68 8q57 0 93.5 -33t36.5 -106q0 -71 -21.5 -139t-62 -122.5
t-95.5 -87t-123 -32.5z" />
    <glyph glyph-name="uni028C" unicode="&#x28c;" horiz-adv-x="499" 
d="M380 496l63 -496h-136l-17 243q-3 37 -4 75l-2 76h-4q-16 -38 -32.5 -75.5t-33.5 -75.5l-111 -243h-134l253 496h158z" />
    <glyph glyph-name="uni028D" unicode="&#x28d;" horiz-adv-x="748" 
d="M660 496l24 -496h-135l-1 240q1 36 3 72.5t3 73.5h-4q-13 -37 -26.5 -74t-29.5 -72l-102 -240h-119l-8 240q-1 36 -0.5 72.5t0.5 73.5h-4q-13 -37 -25.5 -73.5t-26.5 -72.5l-93 -240h-127l212 496h161l4 -208q-1 -34 -1 -70t-1 -75h4q14 39 26.5 75t25.5 70l85 208h155z
" />
    <glyph glyph-name="uni028E" unicode="&#x28e;" horiz-adv-x="499" 
d="M-31 0l281 530q50 97 103 140t130 43q14 0 35 -6t35 -14l-42 -98q-7 4 -16.5 6.5t-20.5 2.5q-27 0 -49.5 -17.5t-42.5 -55.5l-24 -45l86 -486h-136l-23 224q-4 32 -6 73t-3 76h-4q-16 -34 -33 -74.5t-33 -74.5l-104 -224h-133z" />
    <glyph glyph-name="uni028F" unicode="&#x28f;" horiz-adv-x="451" 
d="M108 0l31 155l-93 341h139l22 -107q5 -30 10 -62.5t9 -65.5h4q17 32 36.5 65.5t35.5 62.5l62 107h137l-226 -341l-31 -155h-136z" />
    <glyph glyph-name="uni0290" unicode="&#x290;" horiz-adv-x="445" 
d="M343 -196q-57 0 -83 27t-26 76q0 17 3 36.5t11 56.5h-258l15 77l263 312h-179l20 107h351l-15 -79l-263 -310h208q-11 -52 -17.5 -83t-9 -46.5t-3 -22.5t-0.5 -12q0 -16 9 -22.5t22 -6.5q8 0 14 1.5t15 3.5l6 -100q-14 -5 -35 -10t-48 -5z" />
    <glyph glyph-name="uni0291" unicode="&#x291;" horiz-adv-x="482" 
d="M378 170q-16 0 -36.5 -17t-43.5 -54h18h18q33 0 52 15t19 31q0 25 -27 25zM212 -82l-59 15q8 17 15 34t14 33h-192l15 77l263 312h-179l20 107h341l-15 -79l-263 -310q17 -1 32.5 -2.5t31.5 -2.5q38 64 78.5 102t80.5 38q38 0 60 -19t22 -57q0 -35 -20 -74t-64 -65.5
t-118 -26.5h-29q-8 -18 -16.5 -38.5t-17.5 -43.5z" />
    <glyph glyph-name="uni0292" unicode="&#x292;" horiz-adv-x="445" 
d="M121 -196q-67 0 -112.5 24.5t-71.5 57.5l71 79q21 -22 48.5 -37.5t69.5 -15.5q30 0 56.5 16.5t43 46.5t16.5 69q0 42 -22.5 62t-57.5 20q-16 0 -28 -4t-29 -10l-35 70l194 207h-205l21 107h365l-15 -79l-186 -203q62 -5 99 -49t37 -110q0 -67 -34.5 -124.5t-93 -92
t-131.5 -34.5z" />
    <glyph glyph-name="uni0294" unicode="&#x294;" horiz-adv-x="433" 
d="M75 0l63 316q71 42 113 76t60 66.5t18 66.5q0 38 -20.5 58t-55.5 20q-36 0 -70 -19t-63 -45l-52 84q42 38 98 64t126 26q50 0 90.5 -18t64 -53t23.5 -88q0 -86 -51.5 -157.5t-154.5 -133.5l-52 -263h-137z" />
    <glyph glyph-name="uni0295" unicode="&#x295;" horiz-adv-x="433" 
d="M119 0l53 263q-48 45 -78.5 91t-30.5 108q0 75 35.5 131.5t96 88t134.5 31.5q68 0 112.5 -26t70.5 -64l-80 -84q-19 27 -46 45.5t-64 18.5q-55 0 -87 -35t-32 -89q0 -40 27 -78t89 -85l-63 -316h-137z" />
    <glyph glyph-name="uni0298" unicode="&#x298;" horiz-adv-x="506" 
d="M196 -12q-76 0 -121 54t-45 166q0 98 22 188.5t63 162t98 113t126 41.5q76 0 121 -54t45 -166q0 -98 -22 -188.5t-63 -162t-98 -113t-126 -41.5zM219 106q32 0 60 33.5t50 89t34.5 122t12.5 133.5q0 64 -18 87t-42 23q-31 0 -59.5 -33.5t-50.5 -88.5t-34.5 -122
t-12.5 -134q0 -63 18 -86.5t42 -23.5zM256 290q-21 0 -35.5 14.5t-14.5 36.5q0 32 22.5 53.5t51.5 21.5q22 0 36 -14.5t14 -35.5q0 -32 -22.5 -54t-51.5 -22z" />
    <glyph glyph-name="uni0299" unicode="&#x299;" horiz-adv-x="507" 
d="M14 0l100 496h200q46 0 83 -10t59 -33t22 -63q0 -44 -27 -78t-77 -51l-2 -3q41 -10 64 -30.5t23 -59.5q0 -74 -61.5 -121t-168.5 -47h-215zM210 296h51q41 0 62.5 17.5t21.5 43.5q0 42 -63 42h-51zM170 97h65q44 0 66 20.5t22 46.5t-17.5 37t-58.5 11h-53z" />
    <glyph glyph-name="uni029C" unicode="&#x29c;" horiz-adv-x="558" 
d="M14 0l100 496h136l-37 -184h155l37 184h137l-99 -496h-137l39 194h-156l-38 -194h-137z" />
    <glyph glyph-name="uni029D" unicode="&#x29d;" horiz-adv-x="351" 
d="M-6 -55q0 -15 11.5 -24t26.5 -9q25 0 40 15t25 44q-28 19 -56 19q-22 0 -34.5 -13.5t-12.5 -31.5zM212 -232q-6 30 -14.5 55.5t-19.5 47.5q-27 -31 -63.5 -49t-82.5 -18q-67 0 -104.5 36.5t-37.5 94.5q0 38 17.5 71.5t53 54.5t87.5 21q34 0 69 -16l86 430h137l-97 -484
q-4 -22 -12 -45q23 -31 40.5 -72.5t28.5 -93.5zM295 570q-28 0 -51 16.5t-23 49.5t25 57t60 24q29 0 51.5 -17t22.5 -49q0 -35 -24.5 -58t-60.5 -23z" />
    <glyph glyph-name="uni029F" unicode="&#x29f;" horiz-adv-x="407" 
d="M14 0l100 496h136l-78 -389h181l-21 -107h-318z" />
    <glyph glyph-name="uni02A1" unicode="&#x2a1;" horiz-adv-x="437" 
d="M77 0l25 123h-113l16 78l102 5h11l22 110q71 42 113 76t60 66.5t18 66.5q0 38 -20.5 58t-55.5 20q-36 0 -70 -19t-63 -45l-52 84q42 38 98 64t126 26q50 0 90.5 -18t64 -53t23.5 -88q0 -86 -51.5 -157.5t-154.5 -133.5l-11 -57h104l-16 -83h-105l-24 -123h-137z" />
    <glyph glyph-name="uni02A2" unicode="&#x2a2;" horiz-adv-x="437" 
d="M121 0l25 123h-112l15 78l103 5h11l11 57q-48 45 -78.5 91t-30.5 108q0 75 35.5 131.5t96 88t134.5 31.5q68 0 112.5 -26t70.5 -64l-80 -84q-19 27 -46 45.5t-64 18.5q-55 0 -87 -35t-32 -89q0 -40 27 -78t89 -85l-22 -110h104l-16 -83h-104l-25 -123h-137z" />
    <glyph glyph-name="uni02A4" unicode="&#x2a4;" horiz-adv-x="868" 
d="M161 -12q-60 0 -95 44.5t-35 127.5q0 73 21 136.5t57 111t82 74t95 26.5q31 0 54 -17t37 -43h3l12 94l30 159h137l-41 -205h350l-15 -79l-167 -202q41 -4 66.5 -26.5t38 -55.5t12.5 -69q0 -52 -19.5 -98.5t-54 -82.5t-79 -56.5t-95.5 -20.5q-62 0 -100 25t-64 57l71 79
q20 -22 41 -37.5t58 -15.5q25 0 48.5 17.5t39.5 48.5t16 73q0 38 -17 55.5t-43 17.5q-16 0 -28 -4t-29 -10l-35 70l174 207h-191l-78 -389h-111l2 65h-3q-33 -34 -70.5 -55.5t-74.5 -21.5zM221 100q23 0 47 16t49 57l35 176q-23 47 -56 47q-32 0 -60 -28.5t-45.5 -78
t-17.5 -112.5q0 -77 48 -77z" />
    <glyph glyph-name="uni02A7" unicode="&#x2a7;" horiz-adv-x="570" 
d="M268 -196q-25 0 -48.5 5t-47.5 17l42 98q21 -12 43 -12q26 0 39.5 19t20.5 59l13 67h-4q-29 -27 -66.5 -46.5t-78.5 -19.5q-61 0 -89 33t-28 95q0 17 2 34.5t6 35.5l41 200h-66l20 101l73 6l42 130h115l-25 -130h146l4 18q12 58 36.5 103t68 70.5t111.5 25.5
q20 0 42 -5.5t33 -11.5l-46 -98q-16 7 -32 7q-33 0 -50.5 -20.5t-26.5 -67.5l-105 -533q-16 -78 -59 -129t-126 -51zM254 108q43 0 99 65l44 216h-149l-36 -182q-4 -16 -6 -27t-2 -21q0 -51 50 -51z" />
    <glyph glyph-name="h.sups" unicode="&#x2b0;" horiz-adv-x="370" 
d="M69 375l93 463h96l-20 -102l-18 -70h3q21 19 47 33t56 14q41 0 60.5 -23t19.5 -64q0 -11 -2 -23t-4 -23l-41 -205h-97l39 193q2 11 3.5 17.5t1.5 12.5q0 33 -30 33q-16 0 -32 -10.5t-36 -31.5l-42 -214h-97z" />
    <glyph glyph-name="j.sups" unicode="&#x2b2;" horiz-adv-x="181" 
d="M38 240q-17 0 -33.5 3t-33.5 12l30 67q7 -3 14 -5t15 -2q17 0 24.5 11.5t12.5 37.5l68 341h96l-69 -349q-10 -50 -39 -83t-85 -33zM199 751q-20 0 -35.5 11.5t-15.5 33.5q0 23 17 39t42 16q20 0 35.5 -11t15.5 -34q0 -22 -17 -38.5t-42 -16.5z" />
    <glyph glyph-name="r.sups" unicode="&#x2b3;" horiz-adv-x="253" 
d="M69 375l65 330h78l-2 -53h3q19 26 43 43t52 17q13 0 21 -2t13 -5l-31 -82q-7 4 -12.5 4.5t-13.5 0.5q-23 0 -42 -12t-39 -40l-39 -201h-96z" />
    <glyph glyph-name="w.sups" unicode="&#x2b7;" horiz-adv-x="504" 
d="M124 375l-17 330h95l1 -156l-5 -98h3l35 98l69 156h80l10 -156l-1 -98h3l33 98l61 156h88l-140 -330h-113l-4 133l1 91h-2l-33 -91l-55 -133h-109z" />
    <glyph glyph-name="y.sups" unicode="&#x2b8;" horiz-adv-x="338" 
d="M91 240q-16 0 -30 2.5t-30 11.5l29 67q15 -6 29 -6q23 0 37.5 11.5t24.5 27.5l7 15l-57 336h94l15 -160l4 -99h2l42 99l72 160h92l-178 -348q-30 -52 -65 -84.5t-88 -32.5z" />
    <glyph glyph-name="uni02B9" unicode="&#x2b9;" horiz-adv-x="291" 
d="M95 355l88 331h135l-48 -138l-86 -193h-89z" />
    <glyph glyph-name="quoteleft" unicode="&#x2018;" horiz-adv-x="291" 
d="M171 355q-34 0 -54 25t-20 71q0 60 23.5 105.5t63 76t85.5 44.5l22 -59q-37 -14 -62.5 -36t-38.5 -44.5t-13 -37.5h3h2q31 0 51.5 -16.5t20.5 -46.5q0 -32 -22.5 -57t-60.5 -25z" />
    <glyph glyph-name="quoteleft" unicode="&#x2bb;" horiz-adv-x="291" 
d="M171 355q-34 0 -54 25t-20 71q0 60 23.5 105.5t63 76t85.5 44.5l22 -59q-37 -14 -62.5 -36t-38.5 -44.5t-13 -37.5h3h2q31 0 51.5 -16.5t20.5 -46.5q0 -32 -22.5 -57t-60.5 -25z" />
    <glyph glyph-name="quoteright" unicode="&#x2019;" horiz-adv-x="291" 
d="M129 374l-22 60q38 14 63.5 36t38.5 44.5t13 37.5h-2.5h-3.5q-31 0 -51 16.5t-20 46.5q0 32 22.5 57t60.5 25q34 0 54 -25.5t20 -71.5q0 -59 -24 -104.5t-63 -76t-86 -45.5z" />
    <glyph glyph-name="quoteright" unicode="&#x2bc;" horiz-adv-x="291" 
d="M129 374l-22 60q38 14 63.5 36t38.5 44.5t13 37.5h-2.5h-3.5q-31 0 -51 16.5t-20 46.5q0 32 22.5 57t60.5 25q34 0 54 -25.5t20 -71.5q0 -59 -24 -104.5t-63 -76t-86 -45.5z" />
    <glyph glyph-name="uni02BE" unicode="&#x2be;" horiz-adv-x="175" 
d="M83 535l10 53q35 2 52.5 19.5t17.5 42.5q0 41 -50 41l11 51q60 5 93 -21t33 -67q0 -52 -43.5 -85.5t-123.5 -33.5z" />
    <glyph glyph-name="uni02BF" unicode="&#x2bf;" horiz-adv-x="175" 
d="M217 539q-60 -4 -93 22t-33 66q0 52 43 85.5t124 33.5l-11 -53q-35 -1 -52.5 -18.5t-17.5 -43.5q0 -41 51 -41z" />
    <glyph glyph-name="uni02C1" unicode="&#x2c1;" horiz-adv-x="331" 
d="M154 375l34 172q-31 29 -51 59t-20 70q0 47 22.5 85t63.5 61t96 23q46 0 75.5 -17t46.5 -42l-62 -64q-11 17 -27 29t-39 12q-36 0 -56.5 -22.5t-20.5 -52.5q0 -25 18.5 -49t59.5 -55l-41 -209h-99z" />
    <glyph glyph-name="circumflex" unicode="&#x2c6;" horiz-adv-x="534" 
d="M200 561l-48 55l131 128h150l85 -131l-61 -52l-106 96h-4z" />
    <glyph glyph-name="caron" unicode="&#x2c7;" horiz-adv-x="534" 
d="M263 579l-86 131l61 52l106 -96h4l148 96l47 -56l-130 -127h-150z" />
    <glyph glyph-name="uni02C8" unicode="&#x2c8;" horiz-adv-x="138" 
d="M80 534l30 201h110l-48 -201h-92z" />
    <glyph glyph-name="uni02C9" unicode="&#x2c9;" horiz-adv-x="292" 
d="M69 593l18 87h283l-18 -87h-283z" />
    <glyph glyph-name="uni02CA" unicode="&#x2ca;" horiz-adv-x="224" 
d="M153 578l-60 78l185 166l82 -104z" />
    <glyph glyph-name="uni02CB" unicode="&#x2cb;" horiz-adv-x="224" 
d="M206 569l-154 171l117 87l121 -193z" />
    <glyph glyph-name="uni02CC" unicode="&#x2cc;" horiz-adv-x="138" 
d="M-82 -261l48 205h93l-30 -205h-111z" />
    <glyph glyph-name="uni02D0" unicode="&#x2d0;" horiz-adv-x="247" 
d="M-22 0l130 183h14l57 -183h-201zM129 314l-57 182h201l-130 -182h-14z" />
    <glyph glyph-name="uni02D1" unicode="&#x2d1;" horiz-adv-x="247" 
d="M129 314l-57 182h201l-130 -182h-14z" />
    <glyph glyph-name="breve" unicode="&#x2d8;" horiz-adv-x="534" 
d="M334 572q-57 0 -90 21t-45 56.5t-6 79.5l87 14q-2 -32 14.5 -55.5t56.5 -23.5t64 23.5t35 55.5l81 -14q-13 -66 -62 -111.5t-135 -45.5z" />
    <glyph glyph-name="dotaccent" unicode="&#x2d9;" horiz-adv-x="534" 
d="M339 570q-28 0 -51 16.5t-23 49.5t25 57t60 24q29 0 51.5 -17t22.5 -49q0 -35 -24.5 -58t-60.5 -23z" />
    <glyph glyph-name="ring" unicode="&#x2da;" horiz-adv-x="534" 
d="M335 566q-49 0 -81.5 23.5t-32.5 65.5q0 49 40.5 82t103.5 33q50 0 82 -23.5t32 -65.5q0 -49 -40.5 -82t-103.5 -33zM344 619q20 0 34.5 17.5t14.5 40.5q0 16 -9 28t-28 12t-34 -17.5t-15 -40.5q0 -17 9 -28.5t28 -11.5z" />
    <glyph glyph-name="ogonek" unicode="&#x2db;" horiz-adv-x="534" 
d="M186 -210q-37 0 -61.5 18.5t-24.5 54.5q0 32 16.5 59.5t39 48t39.5 31.5h76q-37 -27 -54.5 -52t-17.5 -48q0 -14 10.5 -22t24.5 -8q8 0 16 3t16 7l23 -56q-21 -15 -50 -25.5t-53 -10.5z" />
    <glyph glyph-name="tilde" unicode="&#x2dc;" horiz-adv-x="534" 
d="M407 573q-25 0 -42 10t-30 22.5t-25.5 22.5t-27.5 10t-27 -13.5t-17 -42.5l-91 5q14 78 50.5 115t91.5 37q25 0 42 -9.5t30 -22.5t25.5 -22.5t27.5 -9.5t27 13t17 42l91 -5q-13 -77 -50 -114.5t-92 -37.5z" />
    <glyph glyph-name="hungarumlaut" unicode="&#x2dd;" horiz-adv-x="534" 
d="M286 567l-71 42l120 171l89 -53zM465 567l-71 42l120 171l89 -53z" />
    <glyph glyph-name="uni02DE" unicode="&#x2de;" horiz-adv-x="210" 
d="M118 194q-31 0 -57.5 19.5t-26.5 62.5q0 11 1.5 23.5t5.5 25.5l-120 -47l17 94l200 77q-12 -41 -17 -71t-5 -51q0 -27 9 -38t26 -11q13 0 22.5 3t18.5 8l16 -70q-17 -10 -38.5 -17.5t-51.5 -7.5z" />
    <glyph glyph-name="uni02E0" unicode="&#x2e0;" horiz-adv-x="338" 
d="M182 301q13 0 21.5 12.5t8.5 31.5q0 18 -11 48h-3q-34 -53 -34 -73q0 -19 18 -19zM170 238q-39 0 -62 20t-23 54q0 31 14 57t45 66l-46 270h100l13 -135q1 -21 4 -38t4 -40h3q11 23 20.5 40t19.5 38l66 135h95l-150 -268q9 -25 14 -43.5t5 -36.5q0 -29 -14.5 -56.5
t-41.5 -45t-66 -17.5z" />
    <glyph glyph-name="l.sups" unicode="&#x2e1;" horiz-adv-x="180" 
d="M155 367q-37 0 -53.5 18.5t-16.5 49.5q0 10 1 19.5t4 22.5l72 361h96l-73 -367q-2 -8 -2 -12q0 -10 4.5 -12.5t9.5 -2.5t10 2l-1 -71q-8 -3 -21 -5.5t-30 -2.5z" />
    <glyph glyph-name="s.sups" unicode="&#x2e2;" horiz-adv-x="285" 
d="M174 367q-34 0 -68 16t-57 41l54 52q19 -18 38.5 -29t39.5 -11q42 0 42 31q0 12 -14 20t-42 25q-26 17 -46 38.5t-20 53.5q0 47 36.5 78t90.5 31q36 0 65.5 -14.5t51.5 -32.5l-44 -58q-16 14 -34 25t-39 11q-18 0 -27.5 -9.5t-9.5 -21.5q0 -14 17 -24t37 -21
q27 -15 47 -36t20 -57q0 -49 -37 -78.5t-101 -29.5z" />
    <glyph glyph-name="x.sups" unicode="&#x2e3;" horiz-adv-x="358" 
d="M29 375l144 175l-57 155h97l19 -55l16 -52h3l30 48l36 59h106l-134 -175l61 -155h-97l-21 55l-19 54h-3l-33 -50l-42 -59h-106z" />
    <glyph glyph-name="uni0300" unicode="&#x300;" 
d="M147 569l-154 171l117 87l121 -193z" />
    <glyph glyph-name="uni0301" unicode="&#x301;" 
d="M94 578l-60 78l185 166l82 -104z" />
    <glyph glyph-name="uni0302" unicode="&#x302;" 
d="M-19 561l-48 55l131 128h150l85 -131l-61 -52l-106 96h-4z" />
    <glyph glyph-name="uni0303" unicode="&#x303;" 
d="M188 573q-25 0 -42 10t-30 22.5t-25.5 22.5t-27.5 10t-27 -13.5t-17 -42.5l-91 5q14 78 50.5 115t91.5 37q25 0 42 -9.5t30 -22.5t25.5 -22.5t27.5 -9.5t27 13t17 42l91 -5q-13 -77 -50 -114.5t-92 -37.5z" />
    <glyph glyph-name="uni0304" unicode="&#x304;" 
d="M-26 593l18 87h283l-18 -87h-283z" />
    <glyph glyph-name="uni0305" unicode="&#x305;" 
d="M-26 593l18 87h283l-18 -87h-283z" />
    <glyph glyph-name="uni0306" unicode="&#x306;" 
d="M115 572q-57 0 -90 21t-45 56.5t-6 79.5l87 14q-2 -32 14.5 -55.5t56.5 -23.5t64 23.5t35 55.5l81 -14q-13 -66 -62 -111.5t-135 -45.5z" />
    <glyph glyph-name="uni0307" unicode="&#x307;" 
d="M120 570q-28 0 -51 16.5t-23 49.5t25 57t60 24q29 0 51.5 -17t22.5 -49q0 -35 -24.5 -58t-60.5 -23z" />
    <glyph glyph-name="uni0308" unicode="&#x308;" 
d="M12 572q-25 0 -42 15.5t-17 43.5q0 30 22 52.5t53 22.5q25 0 42 -16t17 -44q0 -31 -21.5 -52.5t-53.5 -21.5zM222 572q-25 0 -41.5 15.5t-16.5 43.5q0 30 21.5 52.5t52.5 22.5q26 0 42.5 -16t16.5 -44q0 -31 -21.5 -52.5t-53.5 -21.5z" />
    <glyph glyph-name="uni0309" unicode="&#x309;" 
d="M65 568v58q21 4 35 12.5t16 24.5q3 17 -13.5 27.5t-57.5 12.5l25 90q98 -2 131 -35t25 -84q-9 -50 -55 -75.5t-106 -30.5z" />
    <glyph glyph-name="uni030A" unicode="&#x30a;" 
d="M116 566q-49 0 -81.5 23.5t-32.5 65.5q0 49 40.5 82t103.5 33q50 0 82 -23.5t32 -65.5q0 -49 -40.5 -82t-103.5 -33zM125 619q20 0 34.5 17.5t14.5 40.5q0 16 -9 28t-28 12t-34 -17.5t-15 -40.5q0 -17 9 -28.5t28 -11.5z" />
    <glyph glyph-name="uni030B" unicode="&#x30b;" 
d="M67 567l-71 42l120 171l89 -53zM246 567l-71 42l120 171l89 -53z" />
    <glyph glyph-name="uni030C" unicode="&#x30c;" 
d="M44 579l-86 131l61 52l106 -96h4l148 96l47 -56l-130 -127h-150z" />
    <glyph glyph-name="uni030F" unicode="&#x30f;" 
d="M-28 565l-78 179l107 35l55 -187zM151 565l-78 179l107 35l55 -187z" />
    <glyph glyph-name="uni0311" unicode="&#x311;" 
d="M26 565l-80 14q14 66 62.5 111.5t134.5 45.5q57 0 90 -21t45.5 -56.5t5.5 -79.5l-87 -14q2 32 -14.5 56t-56.5 24t-64.5 -24t-35.5 -56z" />
    <glyph glyph-name="uni0312" unicode="&#x312;" 
d="M109 544q-25 0 -39.5 16.5t-14.5 43.5q0 48 29.5 87.5t94.5 58.5l11 -45q-29 -10 -46 -22.5t-25 -32.5h5q17 0 30.5 -12.5t13.5 -32.5q0 -28 -17.5 -44.5t-41.5 -16.5z" />
    <glyph glyph-name="uni0313" unicode="&#x313;" 
d="M77 544l-12 45q29 11 46.5 23t24.5 32h-4q-17 0 -31 13t-14 32q0 28 18 44.5t42 16.5q25 0 39.5 -16.5t14.5 -43.5q0 -49 -29.5 -87.5t-94.5 -58.5z" />
    <glyph glyph-name="uni0318" unicode="&#x318;" 
d="M-20 -249l14 68h-107l14 68h107l13 67h74l-41 -203h-74z" />
    <glyph glyph-name="uni0319" unicode="&#x319;" 
d="M-128 -249l40 203h74l-14 -67h107l-14 -68h-107l-12 -68h-74z" />
    <glyph glyph-name="uni031A" unicode="&#x31a;" 
d="M143 574l16 79h-105l14 71h179l-29 -150h-75z" />
    <glyph glyph-name="uni031B" unicode="&#x31b;" 
d="M84 430l-4 58q37 5 58 26.5t21 49.5q0 9 -1.5 19t-5.5 19l102 32q13 -30 13 -63q0 -56 -45.5 -94.5t-137.5 -46.5z" />
    <glyph glyph-name="uni031C" unicode="&#x31c;" 
d="M-9 -259q-60 -4 -93 22t-33 66q0 52 43 85.5t124 33.5l-11 -53q-35 -1 -52.5 -18.5t-17.5 -43.5q0 -41 51 -41z" />
    <glyph glyph-name="uni031D" unicode="&#x31d;" 
d="M-147 -221l14 68h67l20 107h74l-20 -107h67l-14 -68h-208z" />
    <glyph glyph-name="uni031E" unicode="&#x31e;" 
d="M-87 -249l22 108h-67l14 68h209l-15 -68h-67l-21 -108h-75z" />
    <glyph glyph-name="uni031F" unicode="&#x31f;" 
d="M-88 -257l14 68h-67l14 67h67l13 68h74l-13 -68h67l-14 -67h-67l-14 -68h-74z" />
    <glyph glyph-name="uni0320" unicode="&#x320;" 
d="M-141 -189l14 67h208l-14 -67h-208z" />
    <glyph glyph-name="uni0323" unicode="&#x323;" 
d="M-39 -238q-28 0 -51 16.5t-23 49.5t25 57t60 24q29 0 51.5 -17t22.5 -49q0 -35 -24.5 -58t-60.5 -23z" />
    <glyph glyph-name="uni0324" unicode="&#x324;" 
d="M-144 -223q-25 0 -42 15.5t-17 43.5q0 30 22 52.5t53 22.5q25 0 42 -16t17 -44q0 -31 -21.5 -52.5t-53.5 -21.5zM66 -223q-25 0 -41.5 15.5t-16.5 43.5q0 30 21.5 52.5t52.5 22.5q26 0 42.5 -16t16.5 -44q0 -31 -21.5 -52.5t-53.5 -21.5z" />
    <glyph glyph-name="uni0325" unicode="&#x325;" 
d="M-46 -259q-49 0 -81.5 23.5t-32.5 65.5q0 49 40.5 82t103.5 33q50 0 82 -23.5t32 -65.5q0 -49 -40.5 -82t-103.5 -33zM-37 -206q20 0 34.5 17.5t14.5 40.5q0 16 -9 28t-28 12t-34 -17.5t-15 -40.5q0 -17 9 -28.5t28 -11.5z" />
    <glyph glyph-name="uni0326" unicode="&#x326;" 
d="M-143 -239l-1 59q59 2 84 13.5t25 29.5q0 11 -12.5 21t-44.5 10l38 54q52 -2 79.5 -12t37.5 -25.5t10 -34.5q0 -39 -28.5 -63.5t-77 -37t-110.5 -14.5z" />
    <glyph glyph-name="uni0327" unicode="&#x327;" 
d="M-145 -239v59q58 2 82 12.5t28 32.5q2 15 -12 25t-57 16l66 98h85l-40 -65q37 -9 52.5 -26t11.5 -47q-8 -52 -64.5 -77t-151.5 -28z" />
    <glyph glyph-name="uni0328" unicode="&#x328;" 
d="M-33 -210q-37 0 -61.5 18.5t-24.5 54.5q0 32 16.5 59.5t39 48t39.5 31.5h76q-37 -27 -54.5 -52t-17.5 -48q0 -14 10.5 -22t24.5 -8q8 0 16 3t16 7l23 -56q-21 -15 -50 -25.5t-53 -10.5z" />
    <glyph glyph-name="uni0329" unicode="&#x329;" 
d="M-107 -261l48 205h93l-30 -205h-111z" />
    <glyph glyph-name="uni032A" unicode="&#x32a;" 
d="M-165 -220l28 142h247l-28 -142h-69l12 71h-107l-14 -71h-69z" />
    <glyph glyph-name="uni032C" unicode="&#x32c;" 
d="M-115 -236l-86 131l61 52l106 -96h4l148 96l47 -56l-130 -127h-150z" />
    <glyph glyph-name="uni032E" unicode="&#x32e;" 
d="M-45 -243q-57 0 -90 21t-45 56.5t-6 79.5l87 14q-2 -32 14.5 -55.5t56.5 -23.5t64 23.5t35 55.5l81 -14q-13 -66 -62 -111.5t-135 -45.5z" />
    <glyph glyph-name="uni032F" unicode="&#x32f;" 
d="M-133 -227l-80 14q14 66 62.5 111.5t134.5 45.5q57 0 90 -21t45.5 -56.5t5.5 -79.5l-87 -14q2 32 -14.5 56t-56.5 24t-64.5 -24t-35.5 -56z" />
    <glyph glyph-name="uni0330" unicode="&#x330;" 
d="M29 -235q-25 0 -42 10t-30 22.5t-25.5 22.5t-27.5 10t-27 -13.5t-17 -42.5l-91 5q14 78 50.5 115t91.5 37q25 0 42 -9.5t30 -22.5t25.5 -22.5t27.5 -9.5t27 13t17 42l91 -5q-13 -77 -50 -114.5t-92 -37.5z" />
    <glyph glyph-name="uni0331" unicode="&#x331;" 
d="M-176 -169l18 87h283l-18 -87h-283z" />
    <glyph glyph-name="uni0334" unicode="&#x334;" 
d="M149 170q-37 0 -65.5 9.5t-51 22.5t-43 22.5t-42.5 9.5q-28 0 -44 -52l-88 18q16 68 51 101.5t84 33.5q38 0 66.5 -9.5t51 -22.5t42.5 -22.5t42 -9.5q29 0 44 52l89 -18q-16 -68 -51 -101.5t-85 -33.5z" />
    <glyph glyph-name="uni0339" unicode="&#x339;" 
d="M-93 -263l10 53q35 2 52.5 19.5t17.5 42.5q0 41 -50 41l11 51q60 5 93 -21t33 -67q0 -52 -43.5 -85.5t-123.5 -33.5z" />
    <glyph glyph-name="uni033A" unicode="&#x33a;" 
d="M-164 -214l29 142h68l-14 -71h108l14 71h70l-28 -142h-247z" />
    <glyph glyph-name="uni033B" unicode="&#x33b;" 
d="M-173 -247l37 181h246l-36 -181h-247zM-92 -193h107l15 74h-107z" />
    <glyph glyph-name="uni033C" unicode="&#x33c;" 
d="M-157 -237l-69 10q32 159 137 159q26 0 43 -13.5t20 -39.5h4q14 27 36.5 40t47.5 13q82 0 82 -91q0 -14 -2.5 -32.5t-5.5 -35.5l-74 -10q3 13 5 25t2 20q0 21 -8 28.5t-22 7.5q-22 0 -33.5 -19.5t-19.5 -60.5h-67q8 36 8 47q0 15 -6.5 24t-23.5 9q-18 0 -31 -17t-23 -64z
" />
    <glyph glyph-name="uni033D" unicode="&#x33d;" 
d="M56 541l-39 49l61 51l-40 51l58 50l39 -51l60 51l37 -50l-59 -51l39 -51l-58 -49l-39 51z" />
    <glyph glyph-name="uni0342" unicode="&#x342;" 
d="M188 573q-25 0 -42 10t-30 22.5t-25.5 22.5t-27.5 10t-27 -13.5t-17 -42.5l-91 5q14 78 50.5 115t91.5 37q25 0 42 -9.5t30 -22.5t25.5 -22.5t27.5 -9.5t27 13t17 42l91 -5q-13 -77 -50 -114.5t-92 -37.5z" />
    <glyph glyph-name="uni0343" unicode="&#x343;" 
d="M77 544l-12 45q29 11 46.5 23t24.5 32h-4q-17 0 -31 13t-14 32q0 28 18 44.5t42 16.5q25 0 39.5 -16.5t14.5 -43.5q0 -49 -29.5 -87.5t-94.5 -58.5z" />
    <glyph glyph-name="uni0344" unicode="&#x344;" 
d="M-14 584q-20 0 -32.5 13.5t-12.5 33.5q0 27 17.5 46.5t43.5 19.5q23 0 35.5 -13.5t12.5 -33.5q0 -27 -18 -46.5t-46 -19.5zM243 584q-22 0 -34.5 13.5t-12.5 33.5q0 27 18 46.5t45 19.5q21 0 33.5 -13.5t12.5 -33.5q0 -27 -18 -46.5t-44 -19.5zM119 563l-58 18l80 220
l89 -31z" />
    <glyph glyph-name="uni0345" unicode="&#x345;" 
d="M11 -216q-46 0 -66 22t-20 59q0 12 2.5 29.5t10.5 50.5h100q-6 -16 -8.5 -29.5t-2.5 -20.5q0 -14 7 -19t16 -5q2 0 6 0.5t11 1.5l7 -78q-24 -11 -63 -11z" />
    <glyph glyph-name="uni034F" unicode="&#x34f;" 
 />
    <glyph glyph-name="uni0361" unicode="&#x361;" 
d="M-289 537l-32 64q110 62 228.5 92.5t235.5 30.5q116 0 221.5 -30.5t191.5 -92.5l-47 -64q-55 38 -121 59.5t-134 31t-129 9.5q-59 0 -129.5 -9.5t-143.5 -31t-141 -59.5z" />
    <glyph glyph-name="Delta" unicode="&#x2206;" horiz-adv-x="613" 
d="M-8 0l15 82l302 570h165l71 -570l-16 -82h-537zM282 353l-123 -238h240l-21 238q-2 48 -4.5 95t-3.5 99h-4q-21 -50 -41 -97.5t-43 -96.5z" />
    <glyph glyph-name="Delta" unicode="&#x394;" horiz-adv-x="613" 
d="M-8 0l15 82l302 570h165l71 -570l-16 -82h-537zM282 353l-123 -238h240l-21 238q-2 48 -4.5 95t-3.5 99h-4q-21 -50 -41 -97.5t-43 -96.5z" />
    <glyph glyph-name="Omega" unicode="&#x2126;" horiz-adv-x="697" 
d="M-8 0l21 110h112v4q-19 26 -37 75.5t-18 110.5q0 80 27 147t75.5 115.5t113.5 75t141 26.5q113 0 178.5 -64t65.5 -174q0 -76 -25 -136.5t-61 -104t-68 -71.5v-4h110l-21 -110h-264l18 89q80 61 123.5 140t43.5 172q0 65 -32.5 104.5t-89.5 39.5t-102 -33.5t-71 -93
t-26 -138.5q0 -59 17.5 -108.5t47.5 -82.5l-17 -89h-262z" />
    <glyph glyph-name="Omega" unicode="&#x3a9;" horiz-adv-x="697" 
d="M-8 0l21 110h112v4q-19 26 -37 75.5t-18 110.5q0 80 27 147t75.5 115.5t113.5 75t141 26.5q113 0 178.5 -64t65.5 -174q0 -76 -25 -136.5t-61 -104t-68 -71.5v-4h110l-21 -110h-264l18 89q80 61 123.5 140t43.5 172q0 65 -32.5 104.5t-89.5 39.5t-102 -33.5t-71 -93
t-26 -138.5q0 -59 17.5 -108.5t47.5 -82.5l-17 -89h-262z" />
    <glyph glyph-name="pi" unicode="&#x3c0;" horiz-adv-x="603" 
d="M449 -12q-61 0 -86.5 31t-25.5 83q0 20 6 53t15 73t19 82t18 79h-120q-18 -91 -42.5 -195t-50.5 -205l-134 11q33 103 59.5 203.5t42.5 185.5h-94l21 101l72 6h473l-20 -107h-78q-10 -38 -20 -81t-18.5 -81.5t-13.5 -64.5t-5 -32q0 -33 35 -33q5 0 11 1.5t13 3.5l-3 -100
q-13 -5 -32 -9.5t-42 -4.5z" />
    <glyph glyph-name="uni1D25" unicode="&#x1d25;" horiz-adv-x="550" 
d="M59 -12q-25 0 -48 6.5t-37 18.5l54 97q21 -12 46 -12q21 0 42.5 11.5t47.5 33.5q-31 38 -51.5 79t-20.5 83q0 52 26 98t76.5 75.5t122.5 29.5q69 0 115.5 -36t46.5 -108q0 -61 -39 -115t-112 -110q21 -22 42 -31.5t45 -9.5q23 0 41 13l34 -102q-19 -10 -43 -15.5
t-51 -5.5q-44 0 -85 21.5t-77 60.5q-98 -82 -175 -82z" />
    <glyph glyph-name="a.sups" unicode="&#x1d43;" horiz-adv-x="366" 
d="M171 367q-43 0 -68.5 31.5t-25.5 89.5q0 63 25.5 114t66 81t86.5 30q22 0 39.5 -12t27.5 -32h4l15 36h78l-66 -330h-78l2 43h-4q-46 -51 -102 -51zM211 446q17 0 35.5 10.5t34.5 36.5l20 111q-7 16 -18 23t-22 7q-21 0 -40.5 -17.5t-32 -47.5t-12.5 -68q0 -28 10 -41.5
t25 -13.5z" />
    <glyph glyph-name="b.sups" unicode="&#x1d47;" horiz-adv-x="370" 
d="M233 367q-22 0 -39.5 12t-27.5 32h-4l-15 -36h-78l93 463h96l-20 -102l-20 -65h4q20 17 44.5 29.5t50.5 12.5q43 0 68.5 -31.5t25.5 -89.5q0 -62 -25.5 -113.5t-66 -81.5t-86.5 -30zM227 446q22 0 41 17.5t31.5 48t12.5 67.5q0 29 -10 42t-25 13q-16 0 -34.5 -9.5
t-34.5 -35.5l-21 -113q7 -16 18 -23t22 -7z" />
    <glyph glyph-name="d.sups" unicode="&#x1d48;" horiz-adv-x="380" 
d="M174 367q-43 0 -68.5 31.5t-25.5 89.5q0 63 25.5 114t66 81t86.5 30q22 0 39.5 -12t25.5 -29h4l5 66l20 99h97l-92 -462h-78l1 43h-4q-22 -24 -49 -37.5t-53 -13.5zM214 446q17 0 35.5 10.5t34.5 36.5l20 111q-7 16 -18 23t-22 7q-21 0 -40.5 -17.5t-32 -47.5t-12.5 -68
q0 -28 10 -41.5t25 -13.5z" />
    <glyph glyph-name="e.sups" unicode="&#x1d49;" horiz-adv-x="332" 
d="M218 367q-62 0 -100.5 38t-38.5 104q0 61 28 106.5t71 71.5t87 26q41 0 64.5 -17.5t34 -46t10.5 -62.5q0 -23 -6.5 -45t-11.5 -30h-187q-1 -37 20 -55t55 -18q15 0 28.5 5.5t29.5 15.5l29 -61q-27 -15 -56 -23.5t-57 -8.5zM177 570h116q1 6 1.5 11t0.5 12q0 19 -9.5 32.5
t-32.5 13.5q-22 0 -43.5 -17t-32.5 -52z" />
    <glyph glyph-name="g.sups" unicode="&#x1d4d;" horiz-adv-x="365" 
d="M182 228q-29 0 -63.5 10.5t-66.5 33.5l39 65q22 -13 45.5 -23.5t48.5 -10.5q29 0 49 18t30 49l16 48h-4q-23 -18 -48 -28t-52 -10q-43 0 -68.5 30t-25.5 85q0 60 25 109.5t65 79t86 29.5q22 0 39.5 -12t27.5 -32h4l15 36h78l-66 -330q-15 -74 -60.5 -110.5t-113.5 -36.5z
M216 458q17 0 35 7.5t33 27.5l20 111q-7 16 -18 23t-22 7q-33 0 -58 -36.5t-25 -90.5q0 -25 10 -37t25 -12z" />
    <glyph glyph-name="k.sups" unicode="&#x1d4f;" horiz-adv-x="356" 
d="M69 375l93 463h96l-53 -263h4l119 130h106l-136 -145l80 -185h-96l-49 130l-51 -49l-16 -81h-97z" />
    <glyph glyph-name="m.sups" unicode="&#x1d50;" horiz-adv-x="553" 
d="M70 375l65 330h78l-1 -45h4q23 22 50 37.5t59 15.5q33 0 50 -16t24 -42q25 22 53 40t60 18q41 0 58.5 -22.5t17.5 -65.5q0 -21 -5 -46l-41 -204h-95l38 192q3 18 3 33q0 14 -5.5 22.5t-21.5 8.5q-11 0 -28.5 -10.5t-36.5 -31.5l-42 -214h-94l37 192q2 9 3.5 16t1.5 14
q0 34 -30 34q-25 0 -64 -42l-42 -214h-96z" />
    <glyph glyph-name="o.sups" unicode="&#x1d52;" horiz-adv-x="358" 
d="M210 367q-56 0 -93.5 36.5t-37.5 100.5t27 110.5t70 72.5t90 26q56 0 93.5 -36t37.5 -101q0 -63 -27 -110t-70 -73t-90 -26zM218 444q36 0 59 38t23 93q0 29 -10.5 45t-32.5 16q-36 0 -58.5 -38t-22.5 -93q0 -28 10 -44.5t32 -16.5z" />
    <glyph glyph-name="p.sups" unicode="&#x1d56;" horiz-adv-x="370" 
d="M43 242l92 463h78l2 -37h4q23 21 47.5 33t50.5 12q43 0 68.5 -31.5t25.5 -89.5q0 -62 -25.5 -113.5t-66 -81.5t-86.5 -30q-21 0 -39 12t-28 32h-4l-3 -70l-19 -99h-97zM277 634q-16 0 -34.5 -9.5t-34.5 -35.5l-21 -113q13 -31 37 -31q22 0 42 18t33 48.5t13 67.5
q0 29 -10 42t-25 13z" />
    <glyph glyph-name="t.sups" unicode="&#x1d57;" horiz-adv-x="249" 
d="M198 367q-52 0 -74.5 25.5t-22.5 64.5q0 11 1.5 21t3.5 21l28 130h-44l13 72l50 4l27 84h80l-17 -84h77l-14 -76h-78l-27 -134q-1 -5 -1 -10v-10q0 -33 29 -33q9 0 15 2t13 4l15 -69q-14 -4 -34 -8t-40 -4z" />
    <glyph glyph-name="u.sups" unicode="&#x1d58;" horiz-adv-x="366" 
d="M163 367q-42 0 -61 23t-19 64q0 12 2 23.5t4 22.5l41 205h96l-38 -193q-4 -17 -4 -30q0 -33 29 -33q16 0 31.5 10.5t34.5 31.5l42 214h97l-65 -330h-78l1 45h-4q-24 -22 -50.5 -37.5t-58.5 -15.5z" />
    <glyph glyph-name="v.sups" unicode="&#x1d5b;" horiz-adv-x="338" 
d="M142 375l-42 330h96l10 -159l3 -100h4l43 100l72 159h94l-169 -330h-111z" />
    <glyph glyph-name="c.sups" unicode="&#x1d9c;" horiz-adv-x="296" 
d="M211 367q-55 0 -93.5 35t-38.5 96q0 57 25 106t69.5 79t100.5 30q30 0 53.5 -12t38.5 -28l-55 -58q-10 11 -18.5 16t-22.5 5q-26 0 -47.5 -18.5t-33.5 -47t-12 -60.5q0 -34 16.5 -50.5t38.5 -16.5q17 0 28.5 6t22.5 13l31 -60q-15 -13 -42.5 -24t-60.5 -11z" />
    <glyph glyph-name="f.sups" unicode="&#x1da0;" horiz-adv-x="223" 
d="M84 375l52 254h-42l12 70l45 5l5 24q10 51 41 87.5t90 36.5q37 0 72 -19l-30 -66q-6 4 -15 7t-17 3q-18 0 -29 -12t-16 -40l-4 -20h58l-16 -76h-58l-52 -254h-96z" />
    <glyph glyph-name="z.sups" unicode="&#x1dbb;" horiz-adv-x="300" 
d="M52 375l11 53l170 201h-116l14 76h238l-11 -55l-170 -200h134l-13 -75h-257z" />
    <glyph glyph-name="uni1E02" unicode="&#x1e02;" horiz-adv-x="604" 
d="M28 0l131 652h199q98 0 158.5 -36t60.5 -113q0 -56 -38.5 -100t-102.5 -63l-2 -4q54 -13 83.5 -43.5t29.5 -78.5q0 -76 -38.5 -123.5t-102.5 -69t-141 -21.5h-237zM243 385h65q68 0 98.5 26t30.5 69q0 32 -25.5 49.5t-78.5 17.5h-58zM186 105h85q70 0 107 27t37 77
q0 40 -26.5 61.5t-79.5 21.5h-85zM385 703q-28 0 -51 16.5t-23 49.5t24.5 57t60.5 24q28 0 51 -17t23 -49q0 -35 -25 -58t-60 -23z" />
    <glyph glyph-name="uni1E03" unicode="&#x1e03;" horiz-adv-x="553" 
d="M256 -12q-34 0 -62.5 17.5t-42.5 47.5h-2l-22 -53h-113l141 701h137l-33 -159l-25 -93h2q33 27 70 43t74 16q66 0 103 -47t37 -135q0 -71 -22 -132.5t-59 -107.5t-84.5 -72t-98.5 -26zM246 100q35 0 65 27.5t49 74.5t19 107q0 45 -16 66t-42 21q-23 0 -51.5 -13.5
t-50.5 -48.5l-38 -187q11 -25 28.5 -36t36.5 -11zM418 570q-28 0 -51 16.5t-23 49.5t25 57t60 24q29 0 51.5 -17t22.5 -49q0 -35 -24.5 -58t-60.5 -23z" />
    <glyph glyph-name="uni1E06" unicode="&#x1e06;" horiz-adv-x="604" 
d="M28 0l131 652h199q98 0 158.5 -36t60.5 -113q0 -56 -38.5 -100t-102.5 -63l-2 -4q54 -13 83.5 -43.5t29.5 -78.5q0 -76 -38.5 -123.5t-102.5 -69t-141 -21.5h-237zM243 385h65q68 0 98.5 26t30.5 69q0 32 -25.5 49.5t-78.5 17.5h-58zM186 105h85q70 0 107 27t37 77
q0 40 -26.5 61.5t-79.5 21.5h-85zM90 -168l18 87h283l-18 -87h-283z" />
    <glyph glyph-name="uni1E07" unicode="&#x1e07;" horiz-adv-x="553" 
d="M256 -12q-34 0 -62.5 17.5t-42.5 47.5h-2l-22 -53h-113l141 701h137l-33 -159l-25 -93h2q33 27 70 43t74 16q66 0 103 -47t37 -135q0 -71 -22 -132.5t-59 -107.5t-84.5 -72t-98.5 -26zM246 100q35 0 65 27.5t49 74.5t19 107q0 45 -16 66t-42 21q-23 0 -51.5 -13.5
t-50.5 -48.5l-38 -187q11 -25 28.5 -36t36.5 -11zM54 -168l18 87h283l-18 -87h-283z" />
    <glyph glyph-name="uni1E0A" unicode="&#x1e0a;" horiz-adv-x="616" 
d="M28 0l131 652h143q137 0 212.5 -63.5t75.5 -192.5q0 -128 -46 -216.5t-126.5 -134t-185.5 -45.5h-204zM188 110h41q63 0 113 29.5t79 91t29 156.5q0 81 -41.5 118t-109.5 37h-26zM401 703q-28 0 -51 16.5t-23 49.5t24.5 57t60.5 24q28 0 51 -17t23 -49q0 -35 -25 -58
t-60 -23z" />
    <glyph glyph-name="uni1E0B" unicode="&#x1e0b;" horiz-adv-x="546" 
d="M171 -12q-65 0 -102.5 47t-37.5 135q0 71 22 132.5t59.5 107.5t85 72t98.5 26q34 0 60.5 -16.5t40.5 -43.5h3l12 94l30 159h137l-141 -701h-111l2 65h-3q-34 -35 -75 -56t-80 -21zM231 100q25 0 53 15.5t53 57.5l35 176q-12 25 -30.5 36t-35.5 11q-34 0 -64.5 -27.5
t-49.5 -74.5t-19 -107q0 -45 15.5 -66t42.5 -21zM284 570q-28 0 -51 16.5t-23 49.5t25 57t60 24q29 0 51.5 -17t22.5 -49q0 -35 -24.5 -58t-60.5 -23z" />
    <glyph glyph-name="uni1E0C" unicode="&#x1e0c;" horiz-adv-x="616" 
d="M28 0l131 652h143q137 0 212.5 -63.5t75.5 -192.5q0 -128 -46 -216.5t-126.5 -134t-185.5 -45.5h-204zM188 110h41q63 0 113 29.5t79 91t29 156.5q0 81 -41.5 118t-109.5 37h-26zM227 -237q-28 0 -51 16.5t-23 49.5t25 57t60 24q29 0 51.5 -17t22.5 -49q0 -35 -24.5 -58
t-60.5 -23z" />
    <glyph glyph-name="uni1E0D" unicode="&#x1e0d;" horiz-adv-x="546" 
d="M171 -12q-65 0 -102.5 47t-37.5 135q0 71 22 132.5t59.5 107.5t85 72t98.5 26q34 0 60.5 -16.5t40.5 -43.5h3l12 94l30 159h137l-141 -701h-111l2 65h-3q-34 -35 -75 -56t-80 -21zM231 100q25 0 53 15.5t53 57.5l35 176q-12 25 -30.5 36t-35.5 11q-34 0 -64.5 -27.5
t-49.5 -74.5t-19 -107q0 -45 15.5 -66t42.5 -21zM186 -237q-28 0 -51 16.5t-23 49.5t25 57t60 24q29 0 51.5 -17t22.5 -49q0 -35 -24.5 -58t-60.5 -23z" />
    <glyph glyph-name="uni1E0E" unicode="&#x1e0e;" horiz-adv-x="616" 
d="M28 0l131 652h143q137 0 212.5 -63.5t75.5 -192.5q0 -128 -46 -216.5t-126.5 -134t-185.5 -45.5h-204zM188 110h41q63 0 113 29.5t79 91t29 156.5q0 81 -41.5 118t-109.5 37h-26zM90 -168l18 87h283l-18 -87h-283z" />
    <glyph glyph-name="uni1E0F" unicode="&#x1e0f;" horiz-adv-x="546" 
d="M171 -12q-65 0 -102.5 47t-37.5 135q0 71 22 132.5t59.5 107.5t85 72t98.5 26q34 0 60.5 -16.5t40.5 -43.5h3l12 94l30 159h137l-141 -701h-111l2 65h-3q-34 -35 -75 -56t-80 -21zM231 100q25 0 53 15.5t53 57.5l35 176q-12 25 -30.5 36t-35.5 11q-34 0 -64.5 -27.5
t-49.5 -74.5t-19 -107q0 -45 15.5 -66t42.5 -21zM49 -168l18 87h283l-18 -87h-283z" />
    <glyph glyph-name="uni1E16" unicode="&#x1e16;" horiz-adv-x="527" 
d="M28 0l131 652h386l-22 -115h-251l-28 -142h213l-22 -115h-213l-34 -165h259l-22 -115h-397zM224 720l18 88h287l-17 -88h-288zM404 828l-57 44l121 135l81 -63z" />
    <glyph glyph-name="uni1E17" unicode="&#x1e17;" horiz-adv-x="496" 
d="M232 -12q-90 0 -146.5 56.5t-56.5 155.5q0 69 24 125.5t64.5 97.5t89.5 63t98 22q59 0 94.5 -25t51.5 -67t16 -94q0 -34 -9 -66.5t-15 -43.5h-284q-4 -64 29 -92.5t82 -28.5q23 0 48 11t44 24l48 -86q-30 -21 -75 -36.5t-103 -15.5zM170 296h180q5 15 5 34
q0 30 -14.5 51.5t-52.5 21.5q-35 0 -68 -27t-50 -80zM189 593l18 87h283l-18 -87h-283zM365 716l-49 40l101 125l68 -58z" />
    <glyph glyph-name="uni1E1E" unicode="&#x1e1e;" horiz-adv-x="504" 
d="M28 0l131 652h386l-22 -115h-251l-31 -160h212l-22 -115h-213l-52 -262h-138zM376 703q-28 0 -51 16.5t-23 49.5t24.5 57t60.5 24q28 0 51 -17t23 -49q0 -35 -25 -58t-60 -23z" />
    <glyph glyph-name="uni1E1F" unicode="&#x1e1f;" horiz-adv-x="327" 
d="M36 0l79 389h-64l21 101l65 6l6 33q10 51 33.5 92.5t62.5 66.5t96 25t106 -27l-44 -97q-8 5 -21 10t-27 5q-27 0 -44 -14.5t-25 -55.5l-7 -38h86l-21 -107h-88l-77 -389h-137zM338 743q-28 0 -51 16.5t-23 49.5t24.5 57t60.5 24q28 0 51 -17t23 -49q0 -35 -25 -58
t-60 -23z" />
    <glyph glyph-name="uni1E20" unicode="&#x1e20;" horiz-adv-x="611" 
d="M314 -12q-121 0 -189.5 72t-68.5 201q0 84 26.5 157.5t75 128.5t113.5 86t142 31q63 0 108.5 -27.5t73.5 -76.5l-93 -72q-19 29 -41.5 43t-54.5 14q-60 0 -107.5 -38.5t-74.5 -101t-27 -135.5q0 -75 32.5 -120t108.5 -45q20 0 39 6t32 16l28 128h-107l21 112h227
l-60 -311q-37 -29 -89.5 -48.5t-114.5 -19.5zM275 720l17 88h288l-18 -88h-287z" />
    <glyph glyph-name="uni1E21" unicode="&#x1e21;" horiz-adv-x="546" 
d="M178 -203q-44 0 -92.5 18t-91.5 52l60 91q28 -22 60 -37t67 -15q47 0 77.5 24.5t43.5 69.5l26 88q-33 -34 -72 -53t-80 -19q-63 0 -104 42.5t-41 130.5q0 67 21 125t57.5 101.5t83 68t97.5 24.5q34 0 63 -17.5t43 -47.5h3l21 53h111l-97 -488q-22 -108 -88 -159.5
t-168 -51.5zM229 127q25 0 53 14t52 51l31 157q-13 25 -30.5 36t-34.5 11q-34 0 -63 -25t-46.5 -67.5t-17.5 -96.5q0 -40 15.5 -60t40.5 -20zM184 593l18 87h283l-18 -87h-283z" />
    <glyph glyph-name="uni1E24" unicode="&#x1e24;" horiz-adv-x="652" 
d="M28 0l131 652h137l-52 -253h223l50 253h137l-130 -652h-138l57 279h-223l-54 -279h-138zM248 -237q-28 0 -51 16.5t-23 49.5t25 57t60 24q29 0 51.5 -17t22.5 -49q0 -35 -24.5 -58t-60.5 -23z" />
    <glyph glyph-name="uni1E25" unicode="&#x1e25;" horiz-adv-x="547" 
d="M14 0l141 701h137l-38 -183l-22 -80h4q33 29 72.5 49.5t83.5 20.5q62 0 90 -32.5t28 -94.5q0 -17 -1.5 -34.5t-6.5 -36.5l-62 -310h-137l59 293q3 15 5.5 26t2.5 21q0 51 -51 51q-23 0 -47.5 -15.5t-56.5 -48.5l-64 -327h-137zM190 -237q-28 0 -51 16.5t-23 49.5t25 57
t60 24q29 0 51.5 -17t22.5 -49q0 -35 -24.5 -58t-60.5 -23z" />
    <glyph glyph-name="uni1E2A" unicode="&#x1e2a;" horiz-adv-x="652" 
d="M28 0l131 652h137l-52 -253h223l50 253h137l-130 -652h-138l57 279h-223l-54 -279h-138zM242 -242q-57 0 -90 21t-45 56.5t-6 79.5l87 14q-2 -32 14.5 -55.5t56.5 -23.5t64 23.5t35 55.5l81 -14q-13 -66 -62 -111.5t-135 -45.5z" />
    <glyph glyph-name="uni1E2B" unicode="&#x1e2b;" horiz-adv-x="547" 
d="M14 0l141 701h137l-38 -183l-22 -80h4q33 29 72.5 49.5t83.5 20.5q62 0 90 -32.5t28 -94.5q0 -17 -1.5 -34.5t-6.5 -36.5l-62 -310h-137l59 293q3 15 5.5 26t2.5 21q0 51 -51 51q-23 0 -47.5 -15.5t-56.5 -48.5l-64 -327h-137zM184 -242q-57 0 -90 21t-45 56.5t-6 79.5
l87 14q-2 -32 14.5 -55.5t56.5 -23.5t64 23.5t35 55.5l81 -14q-13 -66 -62 -111.5t-135 -45.5z" />
    <glyph glyph-name="uni1E32" unicode="&#x1e32;" horiz-adv-x="604" 
d="M28 0l131 652h137l-53 -268h3l245 268h150l-237 -268l146 -384h-143l-104 298l-99 -107l-38 -191h-138zM255 -237q-28 0 -51 16.5t-23 49.5t25 57t60 24q29 0 51.5 -17t22.5 -49q0 -35 -24.5 -58t-60.5 -23z" />
    <glyph glyph-name="uni1E33" unicode="&#x1e33;" horiz-adv-x="525" 
d="M14 0l141 701h137l-82 -406h4l187 201h152l-203 -217l118 -279h-137l-75 200l-81 -81l-24 -119h-137zM196 -237q-28 0 -51 16.5t-23 49.5t25 57t60 24q29 0 51.5 -17t22.5 -49q0 -35 -24.5 -58t-60.5 -23z" />
    <glyph glyph-name="uni1E34" unicode="&#x1e34;" horiz-adv-x="604" 
d="M28 0l131 652h137l-53 -268h3l245 268h150l-237 -268l146 -384h-143l-104 298l-99 -107l-38 -191h-138zM118 -168l18 87h283l-18 -87h-283z" />
    <glyph glyph-name="uni1E35" unicode="&#x1e35;" horiz-adv-x="525" 
d="M14 0l141 701h137l-82 -406h4l187 201h152l-203 -217l118 -279h-137l-75 200l-81 -81l-24 -119h-137zM59 -168l18 87h283l-18 -87h-283z" />
    <glyph glyph-name="uni1E36" unicode="&#x1e36;" horiz-adv-x="500" 
d="M28 0l131 652h137l-108 -537h247l-22 -115h-385zM182 -237q-28 0 -51 16.5t-23 49.5t25 57t60 24q29 0 51.5 -17t22.5 -49q0 -35 -24.5 -58t-60.5 -23z" />
    <glyph glyph-name="uni1E37" unicode="&#x1e37;" horiz-adv-x="275" 
d="M137 -12q-53 0 -76.5 26t-23.5 71q0 26 7 61l111 555h137l-113 -561q-1 -7 -1.5 -11t-0.5 -8q0 -13 6 -18t13 -5q5 0 8 0.5t10 1.5l-4 -101q-13 -4 -31 -7.5t-42 -3.5zM75 -237q-28 0 -51 16.5t-23 49.5t25 57t60 24q29 0 51.5 -17t22.5 -49q0 -35 -24.5 -58t-60.5 -23z
" />
    <glyph glyph-name="uni1E38" unicode="&#x1e38;" horiz-adv-x="500" 
d="M28 0l131 652h137l-108 -537h247l-22 -115h-385zM116 720l17 88h288l-18 -88h-287zM182 -237q-28 0 -51 16.5t-23 49.5t25 57t60 24q29 0 51.5 -17t22.5 -49q0 -35 -24.5 -58t-60.5 -23z" />
    <glyph glyph-name="uni1E39" unicode="&#x1e39;" horiz-adv-x="275" 
d="M137 -12q-53 0 -76.5 26t-23.5 71q0 26 7 61l111 555h137l-113 -561q-1 -7 -1.5 -11t-0.5 -8q0 -13 6 -18t13 -5q5 0 8 0.5t10 1.5l-4 -101q-13 -4 -31 -7.5t-42 -3.5zM82 758l17 88h288l-18 -88h-287zM75 -238q-28 0 -51 16.5t-23 49.5t25 57t60 24q29 0 51.5 -17
t22.5 -49q0 -35 -24.5 -58t-60.5 -23z" />
    <glyph glyph-name="uni1E3A" unicode="&#x1e3a;" horiz-adv-x="500" 
d="M28 0l131 652h137l-108 -537h247l-22 -115h-385zM45 -168l18 87h283l-18 -87h-283z" />
    <glyph glyph-name="uni1E3B" unicode="&#x1e3b;" horiz-adv-x="275" 
d="M137 -12q-53 0 -76.5 26t-23.5 71q0 26 7 61l111 555h137l-113 -561q-1 -7 -1.5 -11t-0.5 -8q0 -13 6 -18t13 -5q5 0 8 0.5t10 1.5l-4 -101q-13 -4 -31 -7.5t-42 -3.5zM-62 -168l18 87h283l-18 -87h-283z" />
    <glyph glyph-name="uni1E3E" unicode="&#x1e3e;" horiz-adv-x="740" 
d="M28 0l131 652h145l47 -301l17 -117h4l60 117l164 301h146l-131 -652h-128l54 259q7 33 17 71.5t21 77t21 69.5h-3l-81 -150l-153 -267h-55l-48 267l-20 150h-4q-4 -48 -10 -109t-16 -109l-52 -259h-126zM410 686l-52 79l195 124l61 -101z" />
    <glyph glyph-name="uni1E3F" unicode="&#x1e3f;" horiz-adv-x="827" 
d="M14 0l100 496h111l-2 -66h4q35 32 75.5 55t82.5 23q56 0 80.5 -24t34.5 -63q41 38 83.5 62.5t84.5 24.5q62 0 89.5 -32.5t27.5 -94.5q0 -17 -2 -34.5t-6 -36.5l-62 -310h-137l59 293q3 15 5.5 26t2.5 21q0 51 -50 51q-16 0 -40.5 -15.5t-56.5 -48.5l-66 -327h-137l59 293
q3 15 5.5 26t2.5 21q0 51 -48 51q-18 0 -42.5 -15.5t-56.5 -48.5l-64 -327h-137zM478 578l-60 78l185 166l82 -104z" />
    <glyph glyph-name="uni1E40" unicode="&#x1e40;" horiz-adv-x="740" 
d="M28 0l131 652h145l47 -301l17 -117h4l60 117l164 301h146l-131 -652h-128l54 259q7 33 17 71.5t21 77t21 69.5h-3l-81 -150l-153 -267h-55l-48 267l-20 150h-4q-4 -48 -10 -109t-16 -109l-52 -259h-126zM460 703q-28 0 -51 16.5t-23 49.5t24.5 57t60.5 24q28 0 51 -17
t23 -49q0 -35 -25 -58t-60 -23z" />
    <glyph glyph-name="uni1E41" unicode="&#x1e41;" horiz-adv-x="827" 
d="M14 0l100 496h111l-2 -66h4q35 32 75.5 55t82.5 23q56 0 80.5 -24t34.5 -63q41 38 83.5 62.5t84.5 24.5q62 0 89.5 -32.5t27.5 -94.5q0 -17 -2 -34.5t-6 -36.5l-62 -310h-137l59 293q3 15 5.5 26t2.5 21q0 51 -50 51q-16 0 -40.5 -15.5t-56.5 -48.5l-66 -327h-137l59 293
q3 15 5.5 26t2.5 21q0 51 -48 51q-18 0 -42.5 -15.5t-56.5 -48.5l-64 -327h-137zM504 570q-28 0 -51 16.5t-23 49.5t25 57t60 24q29 0 51.5 -17t22.5 -49q0 -35 -24.5 -58t-60.5 -23z" />
    <glyph glyph-name="uni1E42" unicode="&#x1e42;" horiz-adv-x="740" 
d="M28 0l131 652h145l47 -301l17 -117h4l60 117l164 301h146l-131 -652h-128l54 259q7 33 17 71.5t21 77t21 69.5h-3l-81 -150l-153 -267h-55l-48 267l-20 150h-4q-4 -48 -10 -109t-16 -109l-52 -259h-126zM278 -245q-28 0 -51 16.5t-23 49.5t25 57t60 24q29 0 51.5 -17
t22.5 -49q0 -35 -24.5 -58t-60.5 -23z" />
    <glyph glyph-name="uni1E43" unicode="&#x1e43;" horiz-adv-x="827" 
d="M14 0l100 496h111l-2 -66h4q35 32 75.5 55t82.5 23q56 0 80.5 -24t34.5 -63q41 38 83.5 62.5t84.5 24.5q62 0 89.5 -32.5t27.5 -94.5q0 -17 -2 -34.5t-6 -36.5l-62 -310h-137l59 293q3 15 5.5 26t2.5 21q0 51 -50 51q-16 0 -40.5 -15.5t-56.5 -48.5l-66 -327h-137l59 293
q3 15 5.5 26t2.5 21q0 51 -48 51q-18 0 -42.5 -15.5t-56.5 -48.5l-64 -327h-137zM332 -237q-28 0 -51 16.5t-23 49.5t25 57t60 24q29 0 51.5 -17t22.5 -49q0 -35 -24.5 -58t-60.5 -23z" />
    <glyph glyph-name="uni1E44" unicode="&#x1e44;" horiz-adv-x="643" 
d="M28 0l131 652h133l106 -340l35 -143h4q5 51 10.5 115.5t16.5 120.5l50 247h130l-130 -652h-132l-107 339l-33 145h-4q-5 -55 -11.5 -116.5t-17.5 -117.5l-50 -250h-131zM422 703q-28 0 -51 16.5t-23 49.5t24.5 57t60.5 24q28 0 51 -17t23 -49q0 -35 -25 -58t-60 -23z" />
    <glyph glyph-name="uni1E45" unicode="&#x1e45;" horiz-adv-x="552" 
d="M14 0l100 496h111l-2 -66h4q36 32 77 55t88 23q62 0 90 -32.5t28 -94.5q0 -17 -2 -34.5t-6 -36.5l-62 -310h-137l59 293q3 15 5.5 26t2.5 21q0 51 -51 51q-23 0 -47.5 -15.5t-56.5 -48.5l-64 -327h-137zM372 570q-28 0 -51 16.5t-23 49.5t25 57t60 24q29 0 51.5 -17
t22.5 -49q0 -35 -24.5 -58t-60.5 -23z" />
    <glyph glyph-name="uni1E46" unicode="&#x1e46;" horiz-adv-x="643" 
d="M28 0l131 652h133l106 -340l35 -143h4q5 51 10.5 115.5t16.5 120.5l50 247h130l-130 -652h-132l-107 339l-33 145h-4q-5 -55 -11.5 -116.5t-17.5 -117.5l-50 -250h-131zM238 -245q-28 0 -51 16.5t-23 49.5t25 57t60 24q29 0 51.5 -17t22.5 -49q0 -35 -24.5 -58t-60.5 -23
z" />
    <glyph glyph-name="uni1E47" unicode="&#x1e47;" horiz-adv-x="552" 
d="M14 0l100 496h111l-2 -66h4q36 32 77 55t88 23q62 0 90 -32.5t28 -94.5q0 -17 -2 -34.5t-6 -36.5l-62 -310h-137l59 293q3 15 5.5 26t2.5 21q0 51 -51 51q-23 0 -47.5 -15.5t-56.5 -48.5l-64 -327h-137zM193 -237q-28 0 -51 16.5t-23 49.5t25 57t60 24q29 0 51.5 -17
t22.5 -49q0 -35 -24.5 -58t-60.5 -23z" />
    <glyph glyph-name="uni1E48" unicode="&#x1e48;" horiz-adv-x="643" 
d="M28 0l131 652h133l106 -340l35 -143h4q5 51 10.5 115.5t16.5 120.5l50 247h130l-130 -652h-132l-107 339l-33 145h-4q-5 -55 -11.5 -116.5t-17.5 -117.5l-50 -250h-131zM101 -176l18 87h283l-18 -87h-283z" />
    <glyph glyph-name="uni1E49" unicode="&#x1e49;" horiz-adv-x="552" 
d="M14 0l100 496h111l-2 -66h4q36 32 77 55t88 23q62 0 90 -32.5t28 -94.5q0 -17 -2 -34.5t-6 -36.5l-62 -310h-137l59 293q3 15 5.5 26t2.5 21q0 51 -51 51q-23 0 -47.5 -15.5t-56.5 -48.5l-64 -327h-137zM56 -168l18 87h283l-18 -87h-283z" />
    <glyph glyph-name="uni1E52" unicode="&#x1e52;" horiz-adv-x="660" 
d="M302 -12q-112 0 -178.5 73t-66.5 203q0 86 26.5 159t73 127t106 84t125.5 30q75 0 130 -33t85 -94.5t30 -148.5q0 -86 -26.5 -159t-72.5 -127t-106 -84t-126 -30zM309 106q35 0 68 21t59 58.5t41.5 87t15.5 106.5q0 78 -28.5 122t-82.5 44q-35 0 -68 -21t-59.5 -58.5
t-42 -86.5t-15.5 -106q0 -78 29 -122.5t83 -44.5zM273 720l18 88h287l-17 -88h-288zM453 828l-57 44l121 135l81 -63z" />
    <glyph glyph-name="uni1E53" unicode="&#x1e53;" horiz-adv-x="533" 
d="M222 -12q-87 0 -139.5 56t-52.5 148q0 72 24 130t64 100t89.5 64t100.5 22q58 0 101 -25.5t67 -71t24 -107.5q0 -72 -24 -130t-64 -100t-89.5 -64t-100.5 -22zM237 98q34 0 62 26.5t45.5 72.5t17.5 104q0 46 -17.5 71.5t-52.5 25.5q-33 0 -61.5 -26.5t-45.5 -72.5
t-17 -104q0 -45 17.5 -71t51.5 -26zM193 593l18 87h283l-18 -87h-283zM369 716l-49 40l101 125l68 -58z" />
    <glyph glyph-name="uni1E56" unicode="&#x1e56;" horiz-adv-x="583" 
d="M28 0l131 652h206q64 0 114 -17t79.5 -55t29.5 -101q0 -91 -41 -146.5t-109 -81t-151 -25.5h-77l-44 -226h-138zM233 335h69q73 0 112 31.5t39 92.5q0 44 -28.5 64t-81.5 20h-70zM402 703q-28 0 -51 16.5t-23 49.5t24.5 57t60.5 24q28 0 51 -17t23 -49q0 -35 -25 -58
t-60 -23z" />
    <glyph glyph-name="uni1E57" unicode="&#x1e57;" horiz-adv-x="553" 
d="M-23 -184l137 680h111l1 -57h3q34 31 73.5 50t77.5 19q66 0 103 -47t37 -135q0 -71 -22 -132.5t-59 -107.5t-84.5 -72t-98.5 -26q-31 0 -57.5 15.5t-43.5 43.5h-2l-14 -97l-25 -134h-137zM246 100q35 0 65 27.5t49 74.5t19 107q0 45 -16 66t-42 21q-23 0 -51.5 -13.5
t-50.5 -48.5l-38 -188q11 -24 28.5 -35t36.5 -11zM358 570q-28 0 -51 16.5t-23 49.5t25 57t60 24q29 0 51.5 -17t22.5 -49q0 -35 -24.5 -58t-60.5 -23z" />
    <glyph glyph-name="uni1E58" unicode="&#x1e58;" horiz-adv-x="596" 
d="M28 0l131 652h204q64 0 114.5 -16.5t79.5 -53t29 -97.5q0 -91 -47 -147t-119 -80l101 -258h-144l-84 239h-80l-47 -239h-138zM235 348h69q73 0 110 32t37 85q0 41 -28 59.5t-81 18.5h-69zM400 703q-28 0 -51 16.5t-23 49.5t24.5 57t60.5 24q28 0 51 -17t23 -49
q0 -35 -25 -58t-60 -23z" />
    <glyph glyph-name="uni1E59" unicode="&#x1e59;" horiz-adv-x="384" 
d="M14 0l100 496h111l-6 -96h4q29 47 68 77.5t82 30.5q19 0 31.5 -2.5t20.5 -7.5l-45 -118q-10 5 -23.5 6.5t-25.5 1.5q-33 0 -64 -24t-60 -77l-56 -287h-137zM300 570q-28 0 -51 16.5t-23 49.5t25 57t60 24q29 0 51.5 -17t22.5 -49q0 -35 -24.5 -58t-60.5 -23z" />
    <glyph glyph-name="uni1E5A" unicode="&#x1e5a;" horiz-adv-x="596" 
d="M28 0l131 652h204q64 0 114.5 -16.5t79.5 -53t29 -97.5q0 -91 -47 -147t-119 -80l101 -258h-144l-84 239h-80l-47 -239h-138zM235 348h69q73 0 110 32t37 85q0 41 -28 59.5t-81 18.5h-69zM243 -245q-28 0 -51 16.5t-23 49.5t25 57t60 24q29 0 51.5 -17t22.5 -49
q0 -35 -24.5 -58t-60.5 -23z" />
    <glyph glyph-name="uni1E5B" unicode="&#x1e5b;" horiz-adv-x="384" 
d="M14 0l100 496h111l-6 -96h4q29 47 68 77.5t82 30.5q19 0 31.5 -2.5t20.5 -7.5l-45 -118q-10 5 -23.5 6.5t-25.5 1.5q-33 0 -64 -24t-60 -77l-56 -287h-137zM43 -237q-28 0 -51 16.5t-23 49.5t25 57t60 24q29 0 51.5 -17t22.5 -49q0 -35 -24.5 -58t-60.5 -23z" />
    <glyph glyph-name="uni1E5C" unicode="&#x1e5c;" horiz-adv-x="596" 
d="M28 0l131 652h204q64 0 114.5 -16.5t79.5 -53t29 -97.5q0 -91 -47 -147t-119 -80l101 -258h-144l-84 239h-80l-47 -239h-138zM235 348h69q73 0 110 32t37 85q0 41 -28 59.5t-81 18.5h-69zM251 720l17 88h288l-18 -88h-287zM243 -245q-28 0 -51 16.5t-23 49.5t25 57t60 24
q29 0 51.5 -17t22.5 -49q0 -35 -24.5 -58t-60.5 -23z" />
    <glyph glyph-name="uni1E5D" unicode="&#x1e5d;" horiz-adv-x="384" 
d="M14 0l100 496h111l-6 -96h4q29 47 68 77.5t82 30.5q19 0 31.5 -2.5t20.5 -7.5l-45 -118q-10 5 -23.5 6.5t-25.5 1.5q-33 0 -64 -24t-60 -77l-56 -287h-137zM154 593l18 87h283l-18 -87h-283zM43 -237q-28 0 -51 16.5t-23 49.5t25 57t60 24q29 0 51.5 -17t22.5 -49
q0 -35 -24.5 -58t-60.5 -23z" />
    <glyph glyph-name="uni1E5E" unicode="&#x1e5e;" horiz-adv-x="596" 
d="M28 0l131 652h204q64 0 114.5 -16.5t79.5 -53t29 -97.5q0 -91 -47 -147t-119 -80l101 -258h-144l-84 239h-80l-47 -239h-138zM235 348h69q73 0 110 32t37 85q0 41 -28 59.5t-81 18.5h-69zM106 -176l18 87h283l-18 -87h-283z" />
    <glyph glyph-name="uni1E5F" unicode="&#x1e5f;" horiz-adv-x="384" 
d="M14 0l100 496h111l-6 -96h4q29 47 68 77.5t82 30.5q19 0 31.5 -2.5t20.5 -7.5l-45 -118q-10 5 -23.5 6.5t-25.5 1.5q-33 0 -64 -24t-60 -77l-56 -287h-137zM-94 -168l18 87h283l-18 -87h-283z" />
    <glyph glyph-name="uni1E60" unicode="&#x1e60;" horiz-adv-x="529" 
d="M238 -12q-64 0 -124.5 28.5t-108.5 93.5l98 77q26 -37 64.5 -59.5t80.5 -22.5t68 20t26 55q0 26 -20.5 42.5t-55.5 38.5l-62 38q-44 28 -70.5 65.5t-26.5 97.5q0 56 30.5 101.5t82.5 73t116 27.5q58 0 109.5 -27t88.5 -72l-87 -81q-25 26 -53 43.5t-64 17.5
q-40 0 -61.5 -20.5t-21.5 -49.5q0 -25 22 -41t60 -40l64 -39q47 -28 69 -63.5t22 -91.5q0 -59 -30.5 -107.5t-85.5 -76.5t-130 -28zM373 709q-28 0 -51 16.5t-23 49.5t24.5 57t60.5 24q28 0 51 -17t23 -49q0 -35 -25 -58t-60 -23z" />
    <glyph glyph-name="uni1E61" unicode="&#x1e61;" horiz-adv-x="424" 
d="M170 -12q-46 0 -96.5 25t-81.5 71l79 66q52 -62 107 -62q29 0 49.5 13.5t20.5 33.5q0 22 -22 36t-66 39q-39 22 -68.5 56t-29.5 80q0 47 25.5 83.5t69 57.5t96.5 21q51 0 92 -22t71 -54l-74 -70q-19 18 -41.5 31t-48.5 13q-28 0 -45 -13.5t-17 -33.5q0 -23 26.5 -37.5
t55.5 -31.5q44 -23 74 -54.5t30 -84.5q0 -48 -26.5 -85t-73 -57.5t-106.5 -20.5zM285 570q-28 0 -51 16.5t-23 49.5t25 57t60 24q29 0 51.5 -17t22.5 -49q0 -35 -24.5 -58t-60.5 -23z" />
    <glyph glyph-name="uni1E62" unicode="&#x1e62;" horiz-adv-x="529" 
d="M238 -12q-64 0 -124.5 28.5t-108.5 93.5l98 77q26 -37 64.5 -59.5t80.5 -22.5t68 20t26 55q0 26 -20.5 42.5t-55.5 38.5l-62 38q-44 28 -70.5 65.5t-26.5 97.5q0 56 30.5 101.5t82.5 73t116 27.5q58 0 109.5 -27t88.5 -72l-87 -81q-25 26 -53 43.5t-64 17.5
q-40 0 -61.5 -20.5t-21.5 -49.5q0 -25 22 -41t60 -40l64 -39q47 -28 69 -63.5t22 -91.5q0 -59 -30.5 -107.5t-85.5 -76.5t-130 -28zM189 -245q-28 0 -51 16.5t-23 49.5t25 57t60 24q29 0 51.5 -17t22.5 -49q0 -35 -24.5 -58t-60.5 -23z" />
    <glyph glyph-name="uni1E63" unicode="&#x1e63;" horiz-adv-x="424" 
d="M170 -12q-46 0 -96.5 25t-81.5 71l79 66q52 -62 107 -62q29 0 49.5 13.5t20.5 33.5q0 22 -22 36t-66 39q-39 22 -68.5 56t-29.5 80q0 47 25.5 83.5t69 57.5t96.5 21q51 0 92 -22t71 -54l-74 -70q-19 18 -41.5 31t-48.5 13q-28 0 -45 -13.5t-17 -33.5q0 -23 26.5 -37.5
t55.5 -31.5q44 -23 74 -54.5t30 -84.5q0 -48 -26.5 -85t-73 -57.5t-106.5 -20.5zM126 -237q-28 0 -51 16.5t-23 49.5t25 57t60 24q29 0 51.5 -17t22.5 -49q0 -35 -24.5 -58t-60.5 -23z" />
    <glyph glyph-name="uni1E6A" unicode="&#x1e6a;" horiz-adv-x="532" 
d="M149 0l106 536h-171l22 116h480l-23 -116h-171l-106 -536h-137zM363 703q-28 0 -51 16.5t-23 49.5t24.5 57t60.5 24q28 0 51 -17t23 -49q0 -35 -25 -58t-60 -23z" />
    <glyph glyph-name="uni1E6B" unicode="&#x1e6b;" horiz-adv-x="367" 
d="M203 -12q-75 0 -108 37t-33 94q0 16 2.5 31.5t5.5 31.5l43 207h-66l20 101l73 6l42 130h115l-25 -130h113l-21 -107h-116l-43 -213q-1 -9 -1.5 -17t-0.5 -16q0 -48 51 -48q11 0 21 3.5t20 7.5l24 -96q-19 -7 -48.5 -14.5t-67.5 -7.5zM268 710q-28 0 -51 16.5t-23 49.5
t25 57t60 24q29 0 51.5 -17t22.5 -49q0 -35 -24.5 -58t-60.5 -23z" />
    <glyph glyph-name="uni1E6C" unicode="&#x1e6c;" horiz-adv-x="532" 
d="M149 0l106 536h-171l22 116h480l-23 -116h-171l-106 -536h-137zM179 -237q-28 0 -51 16.5t-23 49.5t25 57t60 24q29 0 51.5 -17t22.5 -49q0 -35 -24.5 -58t-60.5 -23z" />
    <glyph glyph-name="uni1E6D" unicode="&#x1e6d;" horiz-adv-x="367" 
d="M203 -12q-75 0 -108 37t-33 94q0 16 2.5 31.5t5.5 31.5l43 207h-66l20 101l73 6l42 130h115l-25 -130h113l-21 -107h-116l-43 -213q-1 -9 -1.5 -17t-0.5 -16q0 -48 51 -48q11 0 21 3.5t20 7.5l24 -96q-19 -7 -48.5 -14.5t-67.5 -7.5zM140 -237q-28 0 -51 16.5t-23 49.5
t25 57t60 24q29 0 51.5 -17t22.5 -49q0 -35 -24.5 -58t-60.5 -23z" />
    <glyph glyph-name="uni1E6E" unicode="&#x1e6e;" horiz-adv-x="532" 
d="M149 0l106 536h-171l22 116h480l-23 -116h-171l-106 -536h-137zM42 -168l18 87h283l-18 -87h-283z" />
    <glyph glyph-name="uni1E6F" unicode="&#x1e6f;" horiz-adv-x="367" 
d="M203 -12q-75 0 -108 37t-33 94q0 16 2.5 31.5t5.5 31.5l43 207h-66l20 101l73 6l42 130h115l-25 -130h113l-21 -107h-116l-43 -213q-1 -9 -1.5 -17t-0.5 -16q0 -48 51 -48q11 0 21 3.5t20 7.5l24 -96q-19 -7 -48.5 -14.5t-67.5 -7.5zM3 -168l18 87h283l-18 -87h-283z" />
    <glyph glyph-name="Wgrave" unicode="&#x1e80;" horiz-adv-x="794" 
d="M77 0l23 652h140l-21 -313q-4 -52 -9 -104.5t-11 -104.5h4q20 52 43 105t42 104l134 313h116l2 -313q-1 -50 -3 -103l-4 -106h4q18 53 37.5 105.5t35.5 103.5l110 313h131l-253 -652h-173l4 312q0 32 2.5 73.5t6.5 78.5h-4q-13 -37 -29 -75.5t-30 -76.5l-128 -312h-170z
M511 676l-164 134l94 87l147 -154z" />
    <glyph glyph-name="wgrave" unicode="&#x1e81;" horiz-adv-x="748" 
d="M96 0l-24 496h135l1 -240q-1 -36 -2.5 -72.5t-3.5 -73.5h4q14 37 27 74t29 72l102 240h119l8 -240q1 -36 0.5 -72.5t-0.5 -73.5h4q14 37 26 73.5t26 72.5l93 240h127l-212 -496h-161l-4 208q1 35 1 70.5t1 74.5h-4q-14 -39 -26 -74.5t-26 -70.5l-85 -208h-155zM475 569
l-154 171l117 87l121 -193z" />
    <glyph glyph-name="Wacute" unicode="&#x1e82;" horiz-adv-x="794" 
d="M77 0l23 652h140l-21 -313q-4 -52 -9 -104.5t-11 -104.5h4q20 52 43 105t42 104l134 313h116l2 -313q-1 -50 -3 -103l-4 -106h4q18 53 37.5 105.5t35.5 103.5l110 313h131l-253 -652h-173l4 312q0 32 2.5 73.5t6.5 78.5h-4q-13 -37 -29 -75.5t-30 -76.5l-128 -312h-170z
M449 686l-52 79l195 124l61 -101z" />
    <glyph glyph-name="wacute" unicode="&#x1e83;" horiz-adv-x="748" 
d="M96 0l-24 496h135l1 -240q-1 -36 -2.5 -72.5t-3.5 -73.5h4q14 37 27 74t29 72l102 240h119l8 -240q1 -36 0.5 -72.5t-0.5 -73.5h4q14 37 26 73.5t26 72.5l93 240h127l-212 -496h-161l-4 208q1 35 1 70.5t1 74.5h-4q-14 -39 -26 -74.5t-26 -70.5l-85 -208h-155zM422 578
l-60 78l185 166l82 -104z" />
    <glyph glyph-name="Wdieresis" unicode="&#x1e84;" horiz-adv-x="794" 
d="M77 0l23 652h140l-21 -313q-4 -52 -9 -104.5t-11 -104.5h4q20 52 43 105t42 104l134 313h116l2 -313q-1 -50 -3 -103l-4 -106h4q18 53 37.5 105.5t35.5 103.5l110 313h131l-253 -652h-173l4 312q0 32 2.5 73.5t6.5 78.5h-4q-13 -37 -29 -75.5t-30 -76.5l-128 -312h-170z
M389 701q-25 0 -41.5 15.5t-16.5 42.5t21 51t53 24q23 0 40 -15t17 -42q0 -28 -20.5 -52t-52.5 -24zM599 701q-24 0 -40.5 15.5t-16.5 42.5t21 51t52 24q23 0 40 -15t17 -42q0 -28 -20.5 -52t-52.5 -24z" />
    <glyph glyph-name="wdieresis" unicode="&#x1e85;" horiz-adv-x="748" 
d="M96 0l-24 496h135l1 -240q-1 -36 -2.5 -72.5t-3.5 -73.5h4q14 37 27 74t29 72l102 240h119l8 -240q1 -36 0.5 -72.5t-0.5 -73.5h4q14 37 26 73.5t26 72.5l93 240h127l-212 -496h-161l-4 208q1 35 1 70.5t1 74.5h-4q-14 -39 -26 -74.5t-26 -70.5l-85 -208h-155zM340 572
q-25 0 -42 15.5t-17 43.5q0 30 22 52.5t53 22.5q25 0 42 -16t17 -44q0 -31 -21.5 -52.5t-53.5 -21.5zM550 572q-25 0 -41.5 15.5t-16.5 43.5q0 30 21.5 52.5t52.5 22.5q26 0 42.5 -16t16.5 -44q0 -31 -21.5 -52.5t-53.5 -21.5z" />
    <glyph glyph-name="uni1E8E" unicode="&#x1e8e;" horiz-adv-x="509" 
d="M138 0l46 236l-104 416h142l28 -157q7 -37 12.5 -71t12.5 -73h4q20 39 39 74t41 72l91 155h147l-276 -416l-47 -236h-136zM356 703q-28 0 -51 16.5t-23 49.5t24.5 57t60.5 24q28 0 51 -17t23 -49q0 -35 -25 -58t-60 -23z" />
    <glyph glyph-name="uni1E8F" unicode="&#x1e8f;" horiz-adv-x="499" 
d="M36 -194q-13 0 -34.5 6t-36.5 14l42 98q17 -10 37 -10q27 0 52.5 19.5t41.5 52.5l12 25l-86 485h136l23 -224q4 -32 6 -73t3 -76h4q16 35 33 75t33 74l104 224h133l-268 -507q-52 -89 -105 -136t-130 -47zM318 570q-28 0 -51 16.5t-23 49.5t25 57t60 24q29 0 51.5 -17
t22.5 -49q0 -35 -24.5 -58t-60.5 -23z" />
    <glyph glyph-name="uni1E92" unicode="&#x1e92;" horiz-adv-x="525" 
d="M-5 0l18 82l356 455h-257l23 115h421l-17 -83l-353 -454h283l-24 -115h-450zM188 -245q-28 0 -51 16.5t-23 49.5t25 57t60 24q29 0 51.5 -17t22.5 -49q0 -35 -24.5 -58t-60.5 -23z" />
    <glyph glyph-name="uni1E93" unicode="&#x1e93;" horiz-adv-x="443" 
d="M-10 0l15 77l263 312h-179l20 107h351l-15 -79l-263 -310h208l-21 -107h-379zM151 -237q-28 0 -51 16.5t-23 49.5t25 57t60 24q29 0 51.5 -17t22.5 -49q0 -35 -24.5 -58t-60.5 -23z" />
    <glyph glyph-name="uni1E94" unicode="&#x1e94;" horiz-adv-x="525" 
d="M-5 0l18 82l356 455h-257l23 115h421l-17 -83l-353 -454h283l-24 -115h-450zM51 -176l18 87h283l-18 -87h-283z" />
    <glyph glyph-name="uni1E95" unicode="&#x1e95;" horiz-adv-x="443" 
d="M-10 0l15 77l263 312h-179l20 107h351l-15 -79l-263 -310h208l-21 -107h-379zM14 -168l18 87h283l-18 -87h-283z" />
    <glyph glyph-name="uni1E96" unicode="&#x1e96;" horiz-adv-x="547" 
d="M14 0l141 701h137l-38 -183l-22 -80h4q33 29 72.5 49.5t83.5 20.5q62 0 90 -32.5t28 -94.5q0 -17 -1.5 -34.5t-6.5 -36.5l-62 -310h-137l59 293q3 15 5.5 26t2.5 21q0 51 -51 51q-23 0 -47.5 -15.5t-56.5 -48.5l-64 -327h-137zM53 -168l18 87h283l-18 -87h-283z" />
    <glyph glyph-name="uni1E97" unicode="&#x1e97;" horiz-adv-x="367" 
d="M203 -12q-75 0 -108 37t-33 94q0 16 2.5 31.5t5.5 31.5l43 207h-66l20 101l73 6l42 130h115l-25 -130h113l-21 -107h-116l-43 -213q-1 -9 -1.5 -17t-0.5 -16q0 -48 51 -48q11 0 21 3.5t20 7.5l24 -96q-19 -7 -48.5 -14.5t-67.5 -7.5zM160 712q-25 0 -42 15.5t-17 43.5
q0 30 22 52.5t53 22.5q25 0 42 -16t17 -44q0 -31 -21.5 -52.5t-53.5 -21.5zM370 712q-25 0 -41.5 15.5t-16.5 43.5q0 30 21.5 52.5t52.5 22.5q26 0 42.5 -16t16.5 -44q0 -31 -21.5 -52.5t-53.5 -21.5z" />
    <glyph glyph-name="uni1E9E" unicode="&#x1e9e;" horiz-adv-x="671" 
d="M420 -12q-51 0 -98 18.5t-83 57.5l78 85q15 -19 38.5 -35t54.5 -16t54.5 23t23.5 59q0 29 -31 58t-100 48l7 80l133 123q-12 36 -41 54.5t-68 18.5q-53 0 -90 -42t-53 -117l-79 -403h-138l87 430q13 67 47 122t92 87.5t143 32.5q61 0 112 -21t84 -65t38 -113l-134 -119
q58 -25 95 -66.5t37 -99.5q0 -56 -26.5 -101.5t-73.5 -72t-109 -26.5z" />
    <glyph glyph-name="uni1EA0" unicode="&#x1ea0;" horiz-adv-x="548" 
d="M255 353l-40 -86h140l-4 86q-2 48 -4 95t-4 99h-4q-21 -50 -41 -97.5t-43 -96.5zM-62 0l344 652h164l65 -652h-143l-8 164h-194l-77 -164h-151zM189 -237q-28 0 -51 16.5t-23 49.5t25 57t60 24q29 0 51.5 -17t22.5 -49q0 -35 -24.5 -58t-60.5 -23z" />
    <glyph glyph-name="uni1EA1" unicode="&#x1ea1;" horiz-adv-x="552" 
d="M171 -12q-65 0 -102.5 47t-37.5 135q0 71 22 132.5t59.5 107.5t85 72t98.5 26q34 0 64 -17.5t44 -47.5h2l22 53h109l-99 -496h-111l2 65h-3q-34 -35 -75 -56t-80 -21zM231 100q25 0 53.5 15.5t52.5 57.5l35 176q-12 25 -30.5 36t-35.5 11q-34 0 -64.5 -27.5t-49.5 -74.5
t-19 -107q0 -45 15.5 -66t42.5 -21zM199 -237q-28 0 -51 16.5t-23 49.5t25 57t60 24q29 0 51.5 -17t22.5 -49q0 -35 -24.5 -58t-60.5 -23z" />
    <glyph glyph-name="uni1EA2" unicode="&#x1ea2;" horiz-adv-x="548" 
d="M255 353l-40 -86h140l-4 86q-2 48 -4 95t-4 99h-4q-21 -50 -41 -97.5t-43 -96.5zM-62 0l344 652h164l65 -652h-143l-8 164h-194l-77 -164h-151zM320 690v59q21 4 35 11t16 20q2 14 -15 22t-59 11l31 73q92 -2 125 -26t26 -64q-9 -50 -54 -75.5t-105 -30.5z" />
    <glyph glyph-name="uni1EA3" unicode="&#x1ea3;" horiz-adv-x="552" 
d="M171 -12q-65 0 -102.5 47t-37.5 135q0 71 22 132.5t59.5 107.5t85 72t98.5 26q34 0 64 -17.5t44 -47.5h2l22 53h109l-99 -496h-111l2 65h-3q-34 -35 -75 -56t-80 -21zM231 100q25 0 53.5 15.5t52.5 57.5l35 176q-12 25 -30.5 36t-35.5 11q-34 0 -64.5 -27.5t-49.5 -74.5
t-19 -107q0 -45 15.5 -66t42.5 -21zM283 568v58q21 4 35 12.5t16 24.5q3 17 -13.5 27.5t-57.5 12.5l25 90q98 -2 131 -35t25 -84q-9 -50 -55 -75.5t-106 -30.5z" />
    <glyph glyph-name="uni1EA4" unicode="&#x1ea4;" horiz-adv-x="548" 
d="M255 353l-40 -86h140l-4 86q-2 48 -4 95t-4 99h-4q-21 -50 -41 -97.5t-43 -96.5zM-62 0l344 652h164l65 -652h-143l-8 164h-194l-77 -164h-151zM264 685l-53 39l107 100h126l72 -100l-64 -39l-79 72h-4zM512 763l-36 53l116 76l38 -64z" />
    <glyph glyph-name="uni1EA5" unicode="&#x1ea5;" horiz-adv-x="552" 
d="M171 -12q-65 0 -102.5 47t-37.5 135q0 71 22 132.5t59.5 107.5t85 72t98.5 26q34 0 64 -17.5t44 -47.5h2l22 53h109l-99 -496h-111l2 65h-3q-34 -35 -75 -56t-80 -21zM231 100q25 0 53.5 15.5t52.5 57.5l35 176q-12 25 -30.5 36t-35.5 11q-34 0 -64.5 -27.5t-49.5 -74.5
t-19 -107q0 -45 15.5 -66t42.5 -21zM224 566l-40 56l109 88h117l77 -95l-54 -49l-88 68h-4zM501 641l-47 48l100 119l69 -58z" />
    </font>
</defs>
</svg>
