<?xml version="1.0" standalone="no"?>
<!DOCTYPE svg PUBLIC "-//W3C//DTD SVG 1.1//EN" "http://www.w3.org/Graphics/SVG/1.1/DTD/svg11.dtd" >
<svg xmlns="http://www.w3.org/2000/svg" xmlns:xlink="http://www.w3.org/1999/xlink" version="1.1">
<metadata>
Created by FontForge 20170731 at Tue Sep 14 13:51:34 2021
 By Aleksey,,,
(c) 2010 - 2018 Adobe Systems Incorporated (http://www.adobe.com/), with Reserved Font Name `Source'.
</metadata>
<defs>
<font id="SourceSansPro-Bold" horiz-adv-x="0" >
  <font-face 
    font-family="Source Sans Pro"
    font-weight="700"
    font-stretch="normal"
    units-per-em="1000"
    panose-1="2 11 7 3 3 4 3 2 2 4"
    ascent="800"
    descent="-200"
    x-height="496"
    cap-height="652"
    bbox="-457 -276 2157 1009"
    underline-thickness="50"
    underline-position="-125"
    unicode-range="U+0021-1F16B"
  />
<missing-glyph horiz-adv-x="690" 
d="M80 0v660h530v-660h-530zM263 91h164l-39 77l-41 98h-4l-41 -98zM343 414h4l42 95l32 59h-152l31 -59zM178 155l95 185l-95 186v-371zM511 155v371l-94 -186z" />
    <glyph glyph-name="f_f" unicode="ff" horiz-adv-x="657" 
d="M406 0v381h-169v-381h-147v381h-66v109l66 5v23q0 51 19 93t60.5 67t108.5 25q32 0 59 -5.5t44 -12.5l-27 -109q-12 5 -25 8t-33 3q-25 0 -42 -16.5t-17 -51.5v-23h169v26q0 53 18 96t58 69t107 26q31 0 57 -6t42 -12l-27 -108q-13 5 -26 7.5t-25 2.5q-27 0 -42 -16.5
t-15 -54.5v-30h89v-115h-89v-381h-147z" />
    <glyph glyph-name="f_t" unicode="ft" horiz-adv-x="688" 
d="M90 0v381h-66v109l66 5v27q0 53 18 96t58 69t107 26q31 0 57 -6t42 -12l-27 -108q-13 5 -26 7.5t-25 2.5q-27 0 -42 -16.5t-15 -54.5v-30h161l17 132h122v-132h119v-115h-119v-199q0 -42 17.5 -60.5t46.5 -18.5q12 0 24.5 3t22.5 7l23 -107q-19 -6 -46.5 -12t-63.5 -6
q-92 0 -131.5 53t-39.5 139v201h-153v-381h-147z" />
    <glyph glyph-name="f_f_t" unicode="fft" horiz-adv-x="1004" 
d="M406 0v381h-169v-381h-147v381h-66v109l66 5v23q0 51 19 93t60.5 67t108.5 25q32 0 59 -5.5t44 -12.5l-27 -109q-12 5 -25 8t-33 3q-25 0 -42 -16.5t-17 -51.5v-23h169v26q0 53 18 96t58 69t107 26q31 0 57 -6t42 -12l-27 -108q-13 5 -26 7.5t-25 2.5q-27 0 -42 -16.5
t-15 -54.5v-30h161l17 132h122v-132h119v-115h-119v-199q0 -42 17.5 -60.5t46.5 -18.5q12 0 24.5 3t22.5 7l23 -107q-19 -6 -46.5 -12t-63.5 -6q-92 0 -131.5 53t-39.5 139v201h-153v-381h-147z" />
    <glyph glyph-name=".notdef" horiz-adv-x="690" 
d="M80 0v660h530v-660h-530zM263 91h164l-39 77l-41 98h-4l-41 -98zM343 414h4l42 95l32 59h-152l31 -59zM178 155l95 185l-95 186v-371zM511 155v371l-94 -186z" />
    <glyph glyph-name=".null" 
 />
    <glyph glyph-name="nonmarkingreturn" horiz-adv-x="333" 
 />
    <glyph glyph-name="space" unicode="&#xa0;" horiz-adv-x="200" 
 />
    <glyph glyph-name="space" unicode=" " horiz-adv-x="200" 
 />
    <glyph glyph-name="exclam" unicode="!" horiz-adv-x="340" 
d="M122 231l-21 306l-5 133h148l-5 -133l-21 -306h-96zM170 -12q-38 0 -63.5 26.5t-25.5 65.5q0 40 25.5 66.5t63.5 26.5t63.5 -26.5t25.5 -66.5q0 -39 -25.5 -65.5t-63.5 -26.5z" />
    <glyph glyph-name="quotedbl" unicode="&#x22;" horiz-adv-x="537" 
d="M110 354l-29 199l-5 133h148l-5 -133l-29 -199h-80zM347 354l-29 199l-5 133h148l-5 -133l-29 -199h-80z" />
    <glyph glyph-name="numbersign" unicode="#" horiz-adv-x="528" 
d="M86 0l22 187h-74v94h85l14 110h-79v94h91l21 165h84l-20 -165h104l21 165h84l-20 -165h79v-94h-91l-13 -110h84v-94h-95l-23 -187h-85l22 187h-103l-23 -187h-85zM205 281h103l14 110h-104z" />
    <glyph glyph-name="dollar" unicode="$" horiz-adv-x="528" 
d="M215 -110v100q-44 5 -92.5 24.5t-83.5 51.5l64 99q38 -28 72.5 -43t70.5 -15q81 0 81 69q0 26 -19 44.5t-49 34.5t-64 33t-64 39t-49 53.5t-19 76.5q0 74 41 122.5t111 62.5v103h97v-101q48 -7 84 -29t65 -53l-74 -84q-27 25 -52 37.5t-57 12.5q-36 0 -55 -15t-19 -49
q0 -24 19 -40.5t49 -31.5t64 -31t64 -39t49 -55.5t19 -80.5q0 -72 -39.5 -123.5t-116.5 -68.5v-104h-97z" />
    <glyph glyph-name="percent" unicode="%" horiz-adv-x="857" 
d="M188 250q-70 0 -116 55t-46 153t46 152t116 54q71 0 117 -54t46 -152t-46 -153t-117 -55zM188 332q25 0 42.5 28t17.5 98t-17.5 97t-42.5 27t-42.5 -27t-17.5 -97t17.5 -98t42.5 -28zM210 -12l352 676h85l-352 -676h-85zM669 -12q-70 0 -116 55t-46 153t46 152t116 54
q71 0 117 -54t46 -152t-46 -153t-117 -55zM669 70q25 0 42.5 28t17.5 98t-17.5 97t-42.5 27t-42.5 -27t-17.5 -97t17.5 -98t42.5 -28z" />
    <glyph glyph-name="ampersand" unicode="&#x26;" horiz-adv-x="667" 
d="M225 494q0 -18 5.5 -38t15.5 -40q35 21 59 44t24 56q0 23 -11 37t-34 14q-25 0 -42 -19.5t-17 -53.5zM242 -12q-71 0 -119.5 25.5t-73 68t-24.5 92.5q0 68 35.5 110.5t83.5 73.5q-19 35 -29.5 69.5t-10.5 65.5q0 47 21.5 85.5t61.5 62t94 23.5q74 0 117 -40t43 -108
q0 -42 -20 -75.5t-51 -60t-65 -49.5q28 -32 61.5 -62.5t69.5 -56.5q25 32 44 71t31 85h134q-18 -59 -44.5 -114t-64.5 -106q31 -16 59.5 -26.5t53.5 -14.5l-35 -119q-40 8 -82.5 25t-84.5 41q-41 -31 -92 -48.5t-113 -17.5zM164 183q0 -37 27 -60t70 -23q41 0 82 26
q-37 31 -71.5 65t-63.5 70q-19 -17 -31.5 -36t-12.5 -42z" />
    <glyph glyph-name="quotesingle" unicode="'" horiz-adv-x="300" 
d="M110 354l-29 199l-5 133h148l-5 -133l-29 -199h-80z" />
    <glyph glyph-name="parenleft" unicode="(" horiz-adv-x="344" 
d="M204 -179q-63 103 -97.5 214t-34.5 243t34.5 243t97.5 214l92 -38q-55 -97 -80 -204.5t-25 -214.5q0 -106 25 -213.5t80 -205.5z" />
    <glyph glyph-name="parenright" unicode=")" horiz-adv-x="344" 
d="M140 -179l-92 38q56 98 81 205.5t25 213.5q0 107 -25 214.5t-81 204.5l92 38q63 -103 97.5 -214t34.5 -243t-34.5 -243t-97.5 -214z" />
    <glyph glyph-name="asterisk" unicode="*" horiz-adv-x="457" 
d="M148 349l-61 44l59 104l-108 49l23 72l116 -24l13 118h77l13 -119l115 25l24 -72l-108 -49l59 -104l-61 -44l-80 89z" />
    <glyph glyph-name="plus" unicode="+" horiz-adv-x="528" 
d="M210 94v184h-176v104h176v184h108v-184h176v-104h-176v-184h-108z" />
    <glyph glyph-name="comma" unicode="," horiz-adv-x="300" 
d="M76 -194l-30 78q56 20 85 52.5t28 69.5h-4h-4q-35 0 -62 21.5t-27 61.5q0 38 27 61t65 23q50 0 76 -37t26 -102q0 -82 -46 -142t-134 -86z" />
    <glyph glyph-name="hyphen" unicode="&#x2011;" horiz-adv-x="332" 
d="M43 201v104h246v-104h-246z" />
    <glyph glyph-name="hyphen" unicode="&#x2010;" horiz-adv-x="332" 
d="M43 201v104h246v-104h-246z" />
    <glyph glyph-name="hyphen" unicode="&#xad;" horiz-adv-x="332" 
d="M43 201v104h246v-104h-246z" />
    <glyph glyph-name="hyphen" unicode="-" horiz-adv-x="332" 
d="M43 201v104h246v-104h-246z" />
    <glyph glyph-name="period" unicode="." horiz-adv-x="300" 
d="M150 -12q-38 0 -63.5 26.5t-25.5 65.5q0 40 25.5 66.5t63.5 26.5t63.5 -26.5t25.5 -66.5q0 -39 -25.5 -65.5t-63.5 -26.5z" />
    <glyph glyph-name="slash" unicode="/" horiz-adv-x="339" 
d="M13 -160l201 870h96l-201 -870h-96z" />
    <glyph glyph-name="zero" unicode="0" horiz-adv-x="528" 
d="M264 -12q-102 0 -164.5 85t-62.5 247t62.5 244.5t164.5 82.5t164.5 -82.5t62.5 -244.5t-62.5 -247t-164.5 -85zM264 102q25 0 45 18.5t31.5 65.5t11.5 134t-11.5 133t-31.5 63t-45 17q-24 0 -44 -17t-32 -63t-12 -133t12 -134t32 -65.5t44 -18.5z" />
    <glyph glyph-name="one" unicode="1" horiz-adv-x="528" 
d="M70 0v119h138v367h-119v91q52 10 88 24t70 34h108v-516h119v-119h-404z" />
    <glyph glyph-name="two" unicode="2" horiz-adv-x="528" 
d="M37 0v84q81 77 143.5 139.5t97.5 115t35 97.5q0 47 -24.5 71.5t-65.5 24.5q-34 0 -61.5 -19.5t-51.5 -45.5l-80 79q47 50 96 75.5t117 25.5q63 0 110 -25t73.5 -70.5t26.5 -106.5q0 -53 -29.5 -108.5t-75.5 -111t-98 -109.5q24 3 54 5.5t52 2.5h128v-124h-447z" />
    <glyph glyph-name="three" unicode="3" horiz-adv-x="528" 
d="M243 -12q-77 0 -131.5 25t-89.5 65l68 93q29 -28 64 -46t75 -18q47 0 75 19.5t28 55.5q0 28 -14 48.5t-51 31.5t-106 11v104q86 0 118 23.5t32 61.5q0 33 -20 51.5t-58 18.5q-34 0 -61.5 -15t-57.5 -41l-74 90q44 38 93 59.5t107 21.5q98 0 158.5 -45.5t60.5 -128.5
q0 -49 -27.5 -84t-78.5 -57v-4q55 -16 90.5 -54.5t35.5 -100.5q0 -59 -32.5 -100.5t-86 -63t-117.5 -21.5z" />
    <glyph glyph-name="four" unicode="4" horiz-adv-x="528" 
d="M160 264h134v103q0 31 2.5 71.5t3.5 70.5h-4q-12 -26 -25 -53t-27 -54zM294 0v152h-275v101l232 382h180v-371h73v-112h-73v-152h-137z" />
    <glyph glyph-name="five" unicode="5" horiz-adv-x="528" 
d="M247 -12q-78 0 -132 26t-92 63l66 93q29 -26 63 -44.5t74 -18.5q49 0 78 25t29 74q0 48 -28 73t-72 25q-28 0 -46.5 -7t-47.5 -25l-66 42l18 321h360v-124h-233l-11 -119q33 15 71 15q55 0 100.5 -21t73.5 -64.5t28 -111.5q0 -70 -32.5 -120t-85.5 -76t-115 -26z" />
    <glyph glyph-name="six" unicode="6" horiz-adv-x="528" 
d="M275 293q-25 0 -50.5 -14.5t-45.5 -48.5q10 -75 38 -103.5t61 -28.5t56.5 24.5t23.5 78.5q0 50 -23.5 71t-59.5 21zM281 -12q-61 0 -116 32.5t-89.5 102t-34.5 180.5q0 119 36.5 195t95 112.5t125.5 36.5q63 0 109 -22.5t76 -53.5l-77 -88q-16 18 -43.5 31.5t-55.5 13.5
q-35 0 -64 -18.5t-46.5 -62t-20.5 -117.5q25 32 61.5 49.5t65.5 17.5q82 0 135.5 -47.5t53.5 -148.5q0 -66 -29 -113.5t-76.5 -73.5t-105.5 -26z" />
    <glyph glyph-name="seven" unicode="7" horiz-adv-x="528" 
d="M159 0q6 106 23 190t52 161t95 160h-285v124h442v-90q-55 -67 -88.5 -126t-52 -120.5t-26.5 -133.5t-12 -165h-148z" />
    <glyph glyph-name="eight" unicode="8" horiz-adv-x="528" 
d="M263 -12q-63 0 -113 22t-79 61.5t-29 90.5q0 58 31.5 95t76.5 61v4q-37 28 -61 64t-24 86q0 54 26 93.5t72 60.5t105 21q87 0 140 -47.5t53 -126.5q0 -46 -25 -81.5t-58 -57.5v-4q46 -25 78 -64t32 -102q0 -50 -28 -90t-78.5 -63t-118.5 -23zM303 370q39 45 39 93
q0 37 -20.5 59.5t-56.5 22.5q-29 0 -50 -18t-21 -55q0 -39 30 -61t79 -41zM266 90q37 0 61 19.5t24 59.5q0 28 -17 46.5t-47 33t-70 31.5q-21 -19 -35 -45.5t-14 -55.5q0 -42 29 -65.5t69 -23.5z" />
    <glyph glyph-name="nine" unicode="9" horiz-adv-x="528" 
d="M168 434q0 -50 24 -71t60 -21q25 0 50.5 14.5t44.5 48.5q-10 75 -37.5 103.5t-61.5 28.5q-32 0 -56 -24.5t-24 -78.5zM229 -12q-63 0 -109.5 23t-76.5 53l78 88q16 -18 43 -31.5t55 -13.5q36 0 64.5 18.5t46.5 62t20 117.5q-25 -31 -61.5 -49t-65.5 -18q-54 0 -96.5 21
t-67.5 64.5t-25 110.5q0 66 29 114t77 73.5t105 25.5q62 0 117 -32.5t89.5 -101.5t34.5 -181q0 -118 -36.5 -194.5t-95 -113t-125.5 -36.5z" />
    <glyph glyph-name="colon" unicode=":" horiz-adv-x="300" 
d="M150 312q-38 0 -63.5 26.5t-25.5 65.5q0 40 25.5 66.5t63.5 26.5t63.5 -26.5t25.5 -66.5q0 -39 -25.5 -65.5t-63.5 -26.5zM150 -12q-38 0 -63.5 26.5t-25.5 65.5q0 40 25.5 66.5t63.5 26.5t63.5 -26.5t25.5 -66.5q0 -39 -25.5 -65.5t-63.5 -26.5z" />
    <glyph glyph-name="semicolon" unicode=";" horiz-adv-x="300" 
d="M150 312q-38 0 -63.5 26.5t-25.5 65.5q0 40 25.5 66.5t63.5 26.5t63.5 -26.5t25.5 -66.5q0 -39 -25.5 -65.5t-63.5 -26.5zM76 -194l-30 78q56 20 85 52.5t28 69.5h-4h-4q-35 0 -62 21.5t-27 61.5q0 38 27 61t65 23q50 0 76 -37t26 -102q0 -82 -46 -142t-134 -86z" />
    <glyph glyph-name="less" unicode="&#x3c;" horiz-adv-x="528" 
d="M494 104l-460 177v102l460 177v-121l-176 -58l-135 -47v-4l135 -47l176 -58v-121z" />
    <glyph glyph-name="equal" unicode="=" horiz-adv-x="528" 
d="M34 394v104h460v-104h-460zM34 162v104h460v-104h-460z" />
    <glyph glyph-name="greater" unicode="&#x3e;" horiz-adv-x="528" 
d="M34 104v121l176 58l135 47v4l-135 47l-176 58v121l460 -177v-102z" />
    <glyph glyph-name="question" unicode="?" horiz-adv-x="463" 
d="M154 231q-6 41 5 73.5t30.5 59t40.5 49t35.5 44t14.5 43.5q0 31 -18.5 47t-48.5 16q-28 0 -49.5 -13t-41.5 -33l-81 74q35 41 84 66t107 25q54 0 96.5 -18t67.5 -56t25 -97q0 -37 -15 -65.5t-37 -52.5t-43 -47.5t-34 -51t-9 -63.5h-129zM218 -12q-38 0 -63 26.5t-25 65.5
q0 40 25 66.5t63 26.5t63.5 -26.5t25.5 -66.5q0 -39 -25.5 -65.5t-63.5 -26.5z" />
    <glyph glyph-name="at" unicode="@" horiz-adv-x="903" 
d="M428 -172q-75 0 -143 23t-121.5 70t-84 117.5t-30.5 166.5q0 105 35.5 190.5t98 146.5t144 94t173.5 33q108 0 187.5 -45.5t123 -125.5t43.5 -185q0 -69 -20.5 -120.5t-54 -86t-74 -51.5t-79.5 -17q-43 0 -75 20t-40 56h-2q-21 -29 -55 -47.5t-65 -18.5q-59 0 -95.5 40.5
t-36.5 109.5q0 46 15 89.5t42.5 78.5t64.5 56t80 21q25 0 44 -11.5t32 -38.5h2l14 42h91l-46 -220q-21 -86 46 -86q30 0 57.5 22t44.5 62.5t17 95.5q0 72 -27.5 133.5t-87.5 99.5t-158 38q-64 0 -125 -26t-109.5 -75t-77 -117.5t-28.5 -152.5q0 -98 40.5 -163t107 -97
t144.5 -32q39 0 80 11.5t72 27.5l32 -80q-46 -25 -94.5 -36.5t-101.5 -11.5zM420 140q16 0 31.5 10t34.5 35l24 135q-15 29 -46 29q-30 0 -51.5 -23t-33 -56t-11.5 -63q0 -67 52 -67z" />
    <glyph glyph-name="A" unicode="A" horiz-adv-x="573" 
d="M230 330l-16 -60h139l-15 60q-13 49 -26.5 104t-26.5 106h-4q-12 -52 -24.5 -106.5t-26.5 -103.5zM-6 0l204 652h177l204 -652h-156l-40 155h-199l-40 -155h-150z" />
    <glyph glyph-name="B" unicode="B" horiz-adv-x="605" 
d="M77 0v652h223q68 0 122 -14.5t86 -49.5t32 -98q0 -43 -22.5 -84.5t-62.5 -56.5v-4q50 -13 83.5 -50.5t33.5 -102.5q0 -67 -34 -109t-91 -62.5t-128 -20.5h-242zM224 391h69q54 0 78.5 21t24.5 56q0 38 -25 54t-77 16h-70v-147zM224 114h83q121 0 121 88q0 43 -30 61.5
t-91 18.5h-83v-168z" />
    <glyph glyph-name="C" unicode="C" horiz-adv-x="582" 
d="M349 -12q-82 0 -151 38t-110.5 112.5t-41.5 183.5q0 108 42.5 184.5t113 117t152.5 40.5q63 0 113 -25.5t83 -59.5l-78 -94q-25 23 -52.5 37.5t-62.5 14.5q-44 0 -80.5 -25t-58 -72t-21.5 -113q0 -100 43 -156t115 -56q40 0 71.5 18t55.5 43l78 -92q-82 -96 -211 -96z
" />
    <glyph glyph-name="D" unicode="D" horiz-adv-x="635" 
d="M77 0v652h184q100 0 173 -34t113.5 -105.5t40.5 -183.5t-40 -185t-111.5 -108.5t-167.5 -35.5h-192zM224 119h28q56 0 97.5 20t64.5 66t23 124t-23 122.5t-64.5 63t-97.5 18.5h-28v-414z" />
    <glyph glyph-name="E" unicode="E" horiz-adv-x="548" 
d="M77 0v652h408v-124h-261v-131h222v-123h-222v-150h271v-124h-418z" />
    <glyph glyph-name="F" unicode="F" horiz-adv-x="524" 
d="M77 0v652h411v-124h-264v-151h226v-124h-226v-253h-147z" />
    <glyph glyph-name="G" unicode="G" horiz-adv-x="638" 
d="M365 -12q-89 0 -161.5 38t-115 112.5t-42.5 183.5q0 108 43.5 184.5t115.5 117t159 40.5q71 0 122 -26t83 -59l-77 -94q-25 22 -53 37t-70 15q-76 0 -124 -56t-48 -154q0 -100 46 -156t137 -56q20 0 39 5t31 15v112h-108v120h238v-300q-34 -33 -90.5 -56t-124.5 -23z" />
    <glyph glyph-name="H" unicode="H" horiz-adv-x="674" 
d="M77 0v652h147v-251h225v251h148v-652h-148v272h-225v-272h-147z" />
    <glyph glyph-name="I" unicode="I" horiz-adv-x="301" 
d="M77 0v652h147v-652h-147z" />
    <glyph glyph-name="J" unicode="J" horiz-adv-x="509" 
d="M226 -12q-74 0 -125 29.5t-85 88.5l100 74q18 -33 42 -49t49 -16q40 0 60.5 24.5t20.5 89.5v423h147v-435q0 -63 -22 -115t-68.5 -83t-118.5 -31z" />
    <glyph glyph-name="K" unicode="K" horiz-adv-x="614" 
d="M77 0v652h147v-267h4l194 267h162l-197 -260l233 -392h-161l-159 275l-76 -100v-175h-147z" />
    <glyph glyph-name="L" unicode="L" horiz-adv-x="518" 
d="M77 0v652h147v-528h258v-124h-405z" />
    <glyph glyph-name="M" unicode="M" horiz-adv-x="762" 
d="M77 0v652h161l105 -290q10 -28 19 -59t19 -61h4q10 30 18.5 61t18.5 59l103 290h160v-652h-134v239q0 32 3.5 71.5t8 79.5t7.5 71h-4l-53 -155l-93 -249h-81l-93 249l-52 155h-4q4 -31 8 -71t7.5 -79.5t3.5 -71.5v-239h-132z" />
    <glyph glyph-name="N" unicode="N" horiz-adv-x="665" 
d="M77 0v652h151l170 -324l64 -144h4q-4 52 -11 116t-7 122v230h140v-652h-151l-170 325l-64 142h-4q5 -54 11.5 -116t6.5 -120v-231h-140z" />
    <glyph glyph-name="O" unicode="O" horiz-adv-x="684" 
d="M342 -12q-88 0 -154.5 41t-104 117.5t-37.5 182.5q0 107 37.5 181.5t104 114t154.5 39.5t154.5 -39.5t104 -114.5t37.5 -181t-37.5 -182.5t-104 -117.5t-154.5 -41zM342 115q67 0 106 58t39 156t-39 153t-106 55t-106 -55t-39 -153t39 -156t106 -58z" />
    <glyph glyph-name="P" unicode="P" horiz-adv-x="596" 
d="M77 0v652h224q72 0 130.5 -19.5t93.5 -65.5t35 -125q0 -76 -35 -125t-93 -72.5t-127 -23.5h-81v-221h-147zM224 338h72q120 0 120 104q0 51 -32 72t-92 21h-68v-197z" />
    <glyph glyph-name="Q" unicode="Q" horiz-adv-x="684" 
d="M342 108q67 0 106 58.5t39 162.5q0 98 -39 153t-106 55t-106 -55t-39 -153q0 -104 39 -162.5t106 -58.5zM557 -182q-103 0 -175 50.5t-107 126.5q-104 22 -166.5 109t-62.5 225q0 107 37.5 181.5t104 114t154.5 39.5t154.5 -39.5t104 -114.5t37.5 -181q0 -131 -56 -216.5
t-151 -112.5q23 -34 62.5 -49t80.5 -15q21 0 39.5 3.5t32.5 7.5l26 -107q-18 -9 -47.5 -15.5t-67.5 -6.5z" />
    <glyph glyph-name="R" unicode="R" horiz-adv-x="613" 
d="M77 0v652h235q69 0 126 -18.5t91 -62.5t34 -122q0 -72 -31.5 -118.5t-84.5 -69.5l148 -261h-165l-125 235h-81v-235h-147zM224 352h76q58 0 88.5 24.5t30.5 72.5t-30.5 67t-88.5 19h-76v-183z" />
    <glyph glyph-name="S" unicode="S" horiz-adv-x="556" 
d="M276 -12q-64 0 -127.5 24t-113.5 70l84 101q35 -30 78 -49t83 -19q46 0 68.5 17t22.5 46q0 31 -25.5 45.5t-68.5 32.5l-85 36q-33 14 -63 37.5t-49 58.5t-19 82q0 54 29.5 98t82 70t120.5 26q56 0 112 -22t98 -64l-75 -93q-32 25 -64 38.5t-71 13.5q-38 0 -60.5 -15.5
t-22.5 -43.5q0 -30 28.5 -45t70.5 -32l84 -34q59 -24 94 -66t35 -111q0 -54 -29 -100t-84 -74t-133 -28z" />
    <glyph glyph-name="T" unicode="T" horiz-adv-x="556" 
d="M204 0v528h-179v124h506v-124h-179v-528h-148z" />
    <glyph glyph-name="U" unicode="U" horiz-adv-x="665" 
d="M334 -12q-127 0 -194 75t-67 239v350h148v-365q0 -96 29 -134t84 -38t85 38t30 134v365h142v-350q0 -164 -65.5 -239t-191.5 -75z" />
    <glyph glyph-name="V" unicode="V" horiz-adv-x="556" 
d="M190 0l-197 652h156l78 -304q15 -53 26.5 -104t26.5 -105h4q14 54 26 105t26 104l77 304h150l-196 -652h-177z" />
    <glyph glyph-name="W" unicode="W" horiz-adv-x="813" 
d="M135 0l-121 652h151l45 -305q6 -51 13 -102.5t13 -103.5h4q10 52 19.5 103.5t19.5 102.5l70 305h125l70 -305q10 -49 19.5 -101t19.5 -105h4q7 53 13.5 104.5t13.5 101.5l45 305h141l-116 -652h-185l-64 296q-8 38 -14.5 76.5t-11.5 74.5h-4q-6 -36 -12.5 -74.5
t-14.5 -76.5l-61 -296h-182z" />
    <glyph glyph-name="X" unicode="X" horiz-adv-x="567" 
d="M11 0l181 335l-170 317h164l57 -123q11 -22 22.5 -48t24.5 -57h4q11 31 21.5 57t20.5 48l52 123h157l-169 -324l180 -328h-164l-65 133q-12 26 -23.5 51.5t-25.5 55.5h-4q-11 -30 -22 -55.5t-22 -51.5l-61 -133h-158z" />
    <glyph glyph-name="Y" unicode="Y" horiz-adv-x="525" 
d="M189 0v232l-197 420h158l58 -150q14 -37 27 -71.5t26 -72.5h4q14 38 28 72.5t27 71.5l59 150h154l-197 -420v-232h-147z" />
    <glyph glyph-name="Z" unicode="Z" horiz-adv-x="541" 
d="M36 0v89l288 439h-261v124h442v-89l-288 -439h291v-124h-472z" />
    <glyph glyph-name="bracketleft" unicode="[" horiz-adv-x="344" 
d="M87 -152v860h211v-78h-101v-704h101v-78h-211z" />
    <glyph glyph-name="backslash" unicode="\" horiz-adv-x="339" 
d="M230 -160l-202 870h96l202 -870h-96z" />
    <glyph glyph-name="bracketright" unicode="]" horiz-adv-x="344" 
d="M46 -152v78h102v704h-102v78h211v-860h-211z" />
    <glyph glyph-name="asciicircum" unicode="^" horiz-adv-x="528" 
d="M50 274l155 396h118l155 -396h-121l-46 128l-45 135h-4l-45 -135l-46 -128h-121z" />
    <glyph glyph-name="underscore" unicode="_" horiz-adv-x="500" 
d="M12 -140v83h476v-83h-476z" />
    <glyph glyph-name="grave" unicode="`" horiz-adv-x="555" 
d="M268 572l-181 157l99 97l154 -182z" />
    <glyph glyph-name="a" unicode="a" horiz-adv-x="527" 
d="M190 -12q-68 0 -108 43.5t-40 106.5q0 78 66 122t213 59q-2 33 -19.5 52.5t-58.5 19.5q-31 0 -63 -12t-68 -33l-53 97q47 29 100.5 47t111.5 18q95 0 146 -55t51 -169v-284h-120l-10 51h-4q-31 -28 -66.5 -45.5t-77.5 -17.5zM240 102q25 0 43.5 11.5t37.5 30.5v87
q-78 -10 -108 -31.5t-30 -50.5q0 -24 15.5 -35.5t41.5 -11.5z" />
    <glyph glyph-name="b" unicode="b" horiz-adv-x="573" 
d="M325 -12q-33 0 -66.5 16.5t-62.5 48.5h-4l-12 -53h-115v701h147v-172l-4 -76q29 26 63 40.5t68 14.5q60 0 104 -31t67.5 -87.5t23.5 -132.5q0 -85 -30 -145.5t-77.5 -92t-101.5 -31.5zM291 108q38 0 65 35t27 111q0 134 -86 134q-44 0 -85 -45v-203q20 -18 40 -25t39 -7z
" />
    <glyph glyph-name="c" unicode="c" horiz-adv-x="467" 
d="M281 -12q-69 0 -124.5 30.5t-88 89t-32.5 140.5q0 83 36 141t95 88.5t127 30.5q46 0 81.5 -15t63.5 -38l-69 -95q-35 29 -67 29q-53 0 -84.5 -38t-31.5 -103q0 -64 31.5 -102.5t79.5 -38.5q24 0 47 10.5t42 25.5l58 -96q-37 -32 -80 -45.5t-84 -13.5z" />
    <glyph glyph-name="d" unicode="d" horiz-adv-x="573" 
d="M242 -12q-92 0 -147.5 69.5t-55.5 190.5q0 81 29.5 139.5t77 89.5t99.5 31q41 0 69 -14t53 -38l-6 76v169h147v-701h-120l-10 49h-4q-26 -26 -61 -43.5t-71 -17.5zM280 108q24 0 43.5 10t37.5 35v203q-19 18 -40.5 25t-41.5 7q-35 0 -62 -33.5t-27 -104.5
q0 -73 23.5 -107.5t66.5 -34.5z" />
    <glyph glyph-name="e" unicode="e" horiz-adv-x="518" 
d="M287 -12q-71 0 -128 31t-90 89t-33 140q0 81 33.5 139t87.5 89.5t113 31.5q71 0 117.5 -31.5t70 -85t23.5 -121.5q0 -19 -2 -37.5t-4 -27.5h-297q10 -54 45 -79.5t84 -25.5q53 0 107 33l49 -89q-38 -26 -85 -41t-91 -15zM177 302h179q0 41 -19.5 67.5t-63.5 26.5
q-34 0 -61 -23.5t-35 -70.5z" />
    <glyph glyph-name="f" unicode="f" horiz-adv-x="341" 
d="M90 0v381h-66v109l66 5v27q0 53 18 96t58 69t107 26q31 0 57 -6t42 -12l-27 -108q-13 5 -26 7.5t-25 2.5q-27 0 -42 -16.5t-15 -54.5v-30h89v-115h-89v-381h-147z" />
    <glyph glyph-name="g" unicode="g" horiz-adv-x="534" 
d="M242 -211q-58 0 -105 13t-75 41t-28 72q0 60 71 100v4q-19 13 -32.5 33t-13.5 51q0 27 16 52t40 41v4q-26 18 -46.5 52t-20.5 77q0 60 29 99.5t76 59.5t100 20q44 0 77 -12h181v-107h-79q7 -11 11.5 -28t4.5 -37q0 -57 -26 -94t-70 -55t-99 -18q-29 0 -60 10
q-18 -15 -18 -37q0 -19 17 -28t58 -9h80q92 0 140.5 -29.5t48.5 -96.5q0 -51 -34 -91.5t-96 -63.5t-147 -23zM253 246q29 0 48.5 21t19.5 62q0 39 -19.5 59.5t-48.5 20.5t-48.5 -20t-19.5 -60q0 -41 19.5 -62t48.5 -21zM265 -119q50 0 82 18t32 43q0 23 -19.5 31t-56.5 8
h-51q-25 0 -41.5 1.5t-28.5 4.5q-27 -24 -27 -49q0 -28 30.5 -42.5t79.5 -14.5z" />
    <glyph glyph-name="h" unicode="h" horiz-adv-x="571" 
d="M65 0v701h147v-172l-7 -89q28 25 65.5 46.5t87.5 21.5q81 0 117.5 -53.5t36.5 -146.5v-308h-147v289q0 54 -14.5 74t-46.5 20q-28 0 -48 -12.5t-44 -35.5v-335h-147z" />
    <glyph glyph-name="i" unicode="i" horiz-adv-x="276" 
d="M65 0v496h147v-496h-147zM138 569q-37 0 -60 21t-23 56t23 56t60 21t60 -21t23 -56t-23 -56t-60 -21z" />
    <glyph glyph-name="j" unicode="j" horiz-adv-x="278" 
d="M36 -196q-31 0 -51.5 4t-35.5 10l26 108q10 -3 19.5 -5t19.5 -2q29 0 40.5 19.5t11.5 60.5v497h147v-493q0 -54 -16 -99t-54.5 -72.5t-106.5 -27.5zM140 569q-37 0 -60 21t-23 56t23 56t60 21t60 -21t23 -56t-23 -56t-60 -21z" />
    <glyph glyph-name="k" unicode="k" horiz-adv-x="548" 
d="M65 0v701h143v-402h4l157 197h160l-174 -204l187 -292h-159l-112 193l-63 -71v-122h-143z" />
    <glyph glyph-name="l" unicode="l" horiz-adv-x="286" 
d="M200 -12q-76 0 -105.5 45.5t-29.5 120.5v547h147v-553q0 -23 8.5 -32t17.5 -9q5 0 8.5 0.5t9.5 1.5l18 -109q-12 -5 -30.5 -8.5t-43.5 -3.5z" />
    <glyph glyph-name="m" unicode="m" horiz-adv-x="857" 
d="M65 0v496h120l10 -64h4q31 31 66 53.5t84 22.5q53 0 85.5 -21.5t51.5 -61.5q33 34 70 58.5t86 24.5q80 0 117.5 -53.5t37.5 -146.5v-308h-147v289q0 54 -14.5 74t-46.5 20q-37 0 -85 -48v-335h-147v289q0 54 -14.5 74t-46.5 20q-37 0 -84 -48v-335h-147z" />
    <glyph glyph-name="n" unicode="n" horiz-adv-x="572" 
d="M65 0v496h120l10 -63h4q32 30 70.5 52.5t88.5 22.5q81 0 117.5 -53.5t36.5 -146.5v-308h-147v289q0 54 -14.5 74t-46.5 20q-28 0 -48 -12.5t-44 -35.5v-335h-147z" />
    <glyph glyph-name="o" unicode="o" horiz-adv-x="555" 
d="M278 -12q-63 0 -118.5 30.5t-89.5 89t-34 140.5q0 83 34 141t89.5 88.5t118.5 30.5t118 -30.5t89 -88.5t34 -141q0 -82 -34 -140.5t-89 -89t-118 -30.5zM278 107q45 0 68 38.5t23 102.5q0 65 -23 103t-68 38q-46 0 -68.5 -38t-22.5 -103q0 -64 22.5 -102.5t68.5 -38.5z
" />
    <glyph glyph-name="p" unicode="p" horiz-adv-x="573" 
d="M65 -184v680h120l10 -49h4q29 26 65.5 43.5t75.5 17.5q90 0 142 -68.5t52 -183.5q0 -85 -30 -145t-77.5 -91.5t-101.5 -31.5q-32 0 -62 13.5t-56 38.5l5 -79v-145h-147zM291 108q38 0 65 35t27 111q0 134 -86 134q-43 0 -85 -45v-203q20 -18 40 -25t39 -7z" />
    <glyph glyph-name="q" unicode="q" horiz-adv-x="573" 
d="M361 -184v151l6 76q-25 -24 -58 -39.5t-67 -15.5q-92 0 -147.5 69.5t-55.5 190.5q0 81 29.5 139.5t77 89.5t99.5 31q41 0 72 -14.5t60 -46.5h4l12 49h115v-680h-147zM280 108q24 0 43.5 10t37.5 35v203q-19 18 -40.5 25t-41.5 7q-35 0 -62 -33.5t-27 -104.5
q0 -73 23.5 -107.5t66.5 -34.5z" />
    <glyph glyph-name="r" unicode="r" horiz-adv-x="398" 
d="M65 0v496h120l10 -87h4q27 50 65 74.5t76 24.5q21 0 35 -2.5t24 -7.5l-24 -127q-13 4 -25.5 6t-28.5 2q-28 0 -58.5 -20.5t-50.5 -70.5v-288h-147z" />
    <glyph glyph-name="s" unicode="s" horiz-adv-x="443" 
d="M211 -12q-49 0 -100.5 19t-89.5 50l66 92q34 -25 65.5 -38.5t62.5 -13.5q33 0 48 11.5t15 30.5q0 17 -14.5 28t-37.5 20.5t-49 19.5q-30 12 -59.5 30t-49.5 46.5t-20 69.5q0 69 52.5 112t137.5 43q57 0 100.5 -19.5t74.5 -43.5l-66 -88q-26 20 -52 31t-52 11
q-57 0 -57 -39q0 -24 28.5 -36.5t66.5 -26.5q32 -11 62.5 -28.5t51 -46t20.5 -74.5q0 -67 -52 -113.5t-152 -46.5z" />
    <glyph glyph-name="t" unicode="t" horiz-adv-x="383" 
d="M256 -12q-92 0 -131.5 53t-39.5 139v201h-68v109l76 6l17 132h122v-132h119v-115h-119v-199q0 -42 17.5 -60.5t46.5 -18.5q12 0 24.5 3t22.5 7l23 -107q-19 -6 -46.5 -12t-63.5 -6z" />
    <glyph glyph-name="u" unicode="u" horiz-adv-x="568" 
d="M214 -12q-81 0 -117.5 53.5t-36.5 146.5v308h147v-289q0 -53 15 -73.5t47 -20.5q28 0 47 13t41 42v328h147v-496h-120l-11 69h-3q-31 -37 -68 -59t-88 -22z" />
    <glyph glyph-name="v" unicode="v" horiz-adv-x="523" 
d="M179 0l-167 496h148l64 -234q10 -37 19.5 -75.5t19.5 -77.5h4q9 39 18.5 77.5t19.5 75.5l65 234h141l-162 -496h-170z" />
    <glyph glyph-name="w" unicode="w" horiz-adv-x="776" 
d="M148 0l-124 496h146l48 -230q6 -37 11 -73t11 -74h4q7 38 13.5 75t15.5 72l55 230h127l56 -230q9 -37 16.5 -73t14.5 -74h4q7 38 11.5 74t11.5 73l47 230h136l-119 -496h-172l-45 198q-7 35 -13.5 70t-13.5 75h-4q-7 -40 -12.5 -75t-12.5 -70l-44 -198h-168z" />
    <glyph glyph-name="x" unicode="x" horiz-adv-x="514" 
d="M14 0l152 258l-143 238h158l44 -80q10 -21 21 -42.5t21 -42.5h4q8 21 17 42.5t17 42.5l34 80h152l-144 -255l153 -241h-158l-48 82q-12 21 -23.5 43t-23.5 43h-4q-9 -21 -19 -42.5t-19 -43.5l-39 -82h-152z" />
    <glyph glyph-name="y" unicode="y" horiz-adv-x="521" 
d="M120 -194q-22 0 -38.5 3t-31.5 7l26 112q7 -1 16 -3.5t17 -2.5q37 0 57 18t30 47l7 26l-191 483h148l71 -213q11 -34 20 -69t19 -72h4q8 35 16.5 70.5t17.5 70.5l60 213h141l-172 -501q-23 -62 -51 -104.5t-67.5 -63.5t-98.5 -21z" />
    <glyph glyph-name="z" unicode="z" horiz-adv-x="460" 
d="M38 0v79l208 302h-185v115h368v-78l-208 -303h215v-115h-398z" />
    <glyph glyph-name="braceleft" unicode="{" horiz-adv-x="344" 
d="M235 -152q-66 0 -97 30.5t-31 111.5q0 36 2.5 62.5t5 52t2.5 56.5q0 26 -18.5 49.5t-67.5 24.5v86q49 2 67.5 25t18.5 49q0 32 -2.5 57t-5 52t-2.5 62q0 81 31 111.5t97 30.5h63v-78h-19q-31 0 -42 -14.5t-11 -55.5q0 -40 2 -78.5t2 -84.5q0 -57 -18 -82.5t-56 -34.5v-4
q38 -9 56 -34.5t18 -82.5q0 -46 -2 -84t-2 -79t11 -55.5t42 -14.5h19v-78h-63z" />
    <glyph glyph-name="bar" unicode="|" horiz-adv-x="268" 
d="M86 -250v1000h96v-1000h-96z" />
    <glyph glyph-name="braceright" unicode="}" horiz-adv-x="344" 
d="M46 -152v78h19q32 0 42.5 14.5t10.5 55.5t-2 79t-2 84q0 57 18.5 82.5t55.5 34.5v4q-37 9 -55.5 34.5t-18.5 82.5q0 46 2 84.5t2 78.5q0 41 -10.5 55.5t-42.5 14.5h-19v78h63q66 0 97 -30.5t31 -111.5q0 -35 -2.5 -62t-5 -52t-2.5 -57q0 -26 18.5 -49t67.5 -25v-86
q-49 -1 -67.5 -24.5t-18.5 -49.5q0 -31 2.5 -56.5t5 -52t2.5 -62.5q0 -81 -31 -111.5t-97 -30.5h-63z" />
    <glyph glyph-name="asciitilde" unicode="~" horiz-adv-x="528" 
d="M349 240q-31 0 -54.5 11.5t-42 26.5t-36.5 26.5t-39 11.5q-39 0 -72 -58l-76 59q37 56 75 79.5t75 23.5q31 0 54.5 -11.5t42 -26.5t36.5 -26.5t39 -11.5t38.5 15t33.5 43l76 -59q-37 -56 -74.5 -79.5t-75.5 -23.5z" />
    <glyph glyph-name="exclamdown" unicode="&#xa1;" horiz-adv-x="340" 
d="M96 -174l5 133l21 306h96l21 -306l5 -133h-148zM170 323q-38 0 -63.5 26.5t-25.5 66.5q0 39 25.5 65.5t63.5 26.5t63.5 -26.5t25.5 -65.5q0 -40 -25.5 -66.5t-63.5 -26.5z" />
    <glyph glyph-name="cent" unicode="&#xa2;" horiz-adv-x="528" 
d="M275 -41v95q-97 13 -156 78.5t-59 174.5q0 71 28 123t76.5 85t110.5 43v97h81v-93q39 -4 70.5 -18.5t53.5 -37.5l-67 -90q-30 24 -57 27v-272q21 4 39 13.5t33 21.5l59 -93q-28 -25 -62.5 -39.5t-68.5 -19.5v-95h-81zM203 307q0 -45 18.5 -77.5t53.5 -47.5v250
q-36 -16 -54 -48t-18 -77z" />
    <glyph glyph-name="sterling" unicode="&#xa3;" horiz-adv-x="528" 
d="M48 0v91q45 20 75.5 60t30.5 93q0 7 -0.5 13.5t-1.5 13.5h-100v86l68 5h6q-7 20 -11.5 40.5t-4.5 39.5q0 63 27.5 109t76 71t110.5 25q56 0 97.5 -21t75.5 -60l-80 -80q-17 21 -36 31.5t-43 10.5q-40 0 -63.5 -23t-23.5 -71q0 -18 3.5 -36t7.5 -36h148v-91h-129
q1 -7 1.5 -13.5t0.5 -14.5q0 -36 -10.5 -62t-34.5 -53v-4h259v-124h-449z" />
    <glyph glyph-name="currency" unicode="&#xa4;" horiz-adv-x="528" 
d="M93 83l-73 74l61 62q-34 46 -34 111q0 63 33 109l-60 62l73 74l69 -70q48 25 102 25q52 0 102 -25l69 70l73 -74l-61 -62q34 -45 34 -109q0 -33 -9 -60.5t-25 -50.5l61 -62l-73 -74l-70 71q-23 -12 -49 -18t-52 -6q-54 0 -101 24zM264 232q36 0 61 26.5t25 71.5
q0 44 -25 71t-61 27t-61 -27t-25 -71q0 -45 25 -71.5t61 -26.5z" />
    <glyph glyph-name="yen" unicode="&#xa5;" horiz-adv-x="528" 
d="M190 0v147h-153v70h153v55h-153v70h122l-147 293h151l51 -133q12 -33 24.5 -66t25.5 -65h4q13 33 25 66t25 65l50 133h148l-147 -293h122v-70h-154v-55h154v-70h-154v-147h-147z" />
    <glyph glyph-name="brokenbar" unicode="&#xa6;" horiz-adv-x="268" 
d="M86 312v438h96v-438h-96zM86 -250v454h96v-454h-96z" />
    <glyph glyph-name="section" unicode="&#xa7;" horiz-adv-x="528" 
d="M240 -84q-55 0 -107.5 20.5t-86.5 63.5l85 75q49 -51 109 -51q31 0 45.5 12t14.5 31q0 20 -19 33.5t-49 26.5t-63.5 28.5t-63.5 37t-49 54t-19 79.5q0 38 21.5 72t58.5 56q-13 16 -21 36.5t-8 46.5q0 68 47 110.5t131 42.5q58 0 103.5 -20.5t76.5 -44.5l-67 -92
q-23 20 -51 34t-54 14q-54 0 -54 -39q0 -18 19.5 -31.5t50.5 -27t65.5 -29.5t65.5 -38.5t50.5 -54.5t19.5 -77q0 -43 -21.5 -76t-60.5 -57q11 -16 17 -35t6 -42q0 -67 -49 -112.5t-143 -45.5zM161 337q0 -24 16 -40.5t41.5 -29.5t55.5 -26t59 -28q34 21 34 59
q0 32 -26.5 51.5t-66 35.5t-78.5 36q-35 -23 -35 -58z" />
    <glyph glyph-name="dieresis" unicode="&#xa8;" horiz-adv-x="555" 
d="M169 569q-31 0 -51.5 20.5t-20.5 51.5q0 30 20.5 50.5t51.5 20.5q32 0 51.5 -20.5t19.5 -50.5q0 -31 -19.5 -51.5t-51.5 -20.5zM387 569q-31 0 -51 20.5t-20 51.5q0 30 20 50.5t51 20.5q32 0 52 -20.5t20 -50.5q0 -31 -20 -51.5t-52 -20.5z" />
    <glyph glyph-name="copyright" unicode="&#xa9;" horiz-adv-x="750" 
d="M375 -9q-66 0 -125.5 23t-105.5 66.5t-72.5 105t-26.5 139.5t26.5 139t72.5 103.5t105.5 65t125.5 22.5t125.5 -22.5t105.5 -65.5t72 -104t26 -138q0 -78 -26 -139.5t-72 -105t-105.5 -66.5t-125.5 -23zM375 52q74 0 133 34t94 95.5t35 143.5t-35 142.5t-94 94t-133 33.5
q-73 0 -132.5 -33.5t-94.5 -94t-35 -142.5t35 -143.5t94.5 -95.5t132.5 -34zM387 127q-56 0 -99.5 24t-68.5 68.5t-25 104.5q0 59 27 102t71.5 66.5t94.5 23.5q46 0 77 -17.5t55 -41.5l-55 -61q-16 17 -32 25.5t-36 8.5q-47 0 -72 -31t-25 -75q0 -51 25 -81t67 -30
q25 0 43 9.5t37 24.5l48 -68q-28 -22 -60.5 -37t-71.5 -15z" />
    <glyph glyph-name="ordfeminine" unicode="&#xaa;" horiz-adv-x="359" 
d="M130 367q-46 0 -73.5 30t-27.5 70q0 53 44.5 82t142.5 38q-2 21 -13.5 32.5t-35.5 11.5q-20 0 -43 -8.5t-47 -21.5l-37 68q33 20 69.5 32t75.5 12q64 0 99.5 -37t35.5 -112v-189h-83l-10 34h-4q-18 -18 -41 -30t-52 -12zM165 446q15 0 26.5 7t24.5 19v55
q-49 -5 -68.5 -19.5t-19.5 -31.5q0 -30 37 -30z" />
    <glyph glyph-name="guillemotleft" unicode="&#xab;" horiz-adv-x="480" 
d="M183 56l-134 144v104l134 144l55 -44l-111 -152l111 -152zM371 56l-134 144v104l134 144l55 -44l-111 -152l111 -152z" />
    <glyph glyph-name="logicalnot" unicode="&#xac;" horiz-adv-x="528" 
d="M386 94v184h-352v104h460v-288h-108z" />
    <glyph glyph-name="registered" unicode="&#xae;" horiz-adv-x="462" 
d="M231 311q-55 0 -100 26t-72 71.5t-27 104.5t27 104.5t72 71.5t100 26t99.5 -26t71.5 -71.5t27 -104.5t-27 -104.5t-71.5 -71.5t-99.5 -26zM231 360q63 0 103 41.5t40 111.5t-40 111.5t-103 41.5t-103.5 -41.5t-40.5 -111.5t40.5 -111.5t103.5 -41.5zM150 416v197h89
q35 0 58 -16t23 -50q0 -37 -35 -54l41 -77h-60l-30 60h-29v-60h-57zM207 516h21q15 0 22.5 8.5t7.5 19.5t-7.5 18.5t-22.5 7.5h-21v-54z" />
    <glyph glyph-name="macron" unicode="&#xaf;" horiz-adv-x="555" 
d="M130 592v93h296v-93h-296z" />
    <glyph glyph-name="degree" unicode="&#xb0;" horiz-adv-x="365" 
d="M183 398q-40 0 -72.5 18.5t-52 51t-19.5 74.5t19.5 74.5t52 51t72.5 18.5q41 0 73.5 -18.5t52 -51t19.5 -74.5t-19.5 -74.5t-52 -51t-73.5 -18.5zM183 468q30 0 48.5 20.5t18.5 53.5q0 32 -18.5 52.5t-48.5 20.5q-29 0 -48 -20.5t-19 -52.5q0 -33 19 -53.5t48 -20.5z" />
    <glyph glyph-name="plusminus" unicode="&#xb1;" horiz-adv-x="528" 
d="M210 158v136h-176v104h176v168h108v-168h176v-104h-176v-136h-108zM34 0v104h460v-104h-460z" />
    <glyph glyph-name="two.sups" unicode="&#xb2;" horiz-adv-x="376" 
d="M45 375v58q75 62 123 109.5t48 84.5q0 29 -15 45t-42 16q-19 0 -36.5 -12.5t-34.5 -34.5l-61 56q60 80 149 80q65 0 104.5 -34.5t39.5 -97.5q0 -47 -31.5 -90.5t-72.5 -89.5h118v-90h-289z" />
    <glyph glyph-name="three.sups" unicode="&#xb3;" horiz-adv-x="376" 
d="M186 363q-51 0 -92 20.5t-67 58.5l65 51q35 -48 83 -48q23 0 39.5 12.5t16.5 34.5q0 51 -93 51v62q36 0 57.5 11.5t21.5 36.5q0 20 -13 31t-36 11q-19 0 -34.5 -11t-29.5 -28l-61 54q32 35 65 51t79 16q36 0 67 -13t50 -37.5t19 -58.5q0 -31 -15 -52.5t-42 -37.5
q30 -12 50.5 -35.5t20.5 -58.5q0 -36 -21 -63t-55.5 -42.5t-74.5 -15.5z" />
    <glyph glyph-name="acute" unicode="&#xb4;" horiz-adv-x="555" 
d="M288 572l-72 72l154 182l99 -97z" />
    <glyph glyph-name="mu" unicode="&#x3bc;" horiz-adv-x="594" 
d="M65 -177v673h147v-289q0 -52 15 -73t46 -21q25 0 45.5 14.5t39.5 50.5v318h148q-1 -58 -3.5 -122.5t-4.5 -123.5t-2 -101q0 -24 12 -33t32 -9q16 0 32 6l17 -109q-16 -7 -35.5 -11.5t-51.5 -4.5q-104 0 -128 83h-4q-37 -78 -105 -78q-18 0 -34 4.5t-28 18.5q1 -55 3 -98
t7 -95h-148z" />
    <glyph glyph-name="mu" unicode="&#xb5;" horiz-adv-x="594" 
d="M65 -177v673h147v-289q0 -52 15 -73t46 -21q25 0 45.5 14.5t39.5 50.5v318h148q-1 -58 -3.5 -122.5t-4.5 -123.5t-2 -101q0 -24 12 -33t32 -9q16 0 32 6l17 -109q-16 -7 -35.5 -11.5t-51.5 -4.5q-104 0 -128 83h-4q-37 -78 -105 -78q-18 0 -34 4.5t-28 18.5q1 -55 3 -98
t7 -95h-148z" />
    <glyph glyph-name="paragraph" unicode="&#xb6;" horiz-adv-x="636" 
d="M393 -80v732h147v-732h-147zM297 197q-71 0 -129.5 26t-93.5 78t-35 128q0 84 34.5 133t92.5 69.5t127 20.5h44v-455h-40z" />
    <glyph glyph-name="periodcentered" unicode="&#xb7;" horiz-adv-x="300" 
d="M150 228q-38 0 -63.5 26.5t-25.5 65.5q0 40 25.5 66.5t63.5 26.5t63.5 -26.5t25.5 -66.5q0 -39 -25.5 -65.5t-63.5 -26.5z" />
    <glyph glyph-name="cedilla" unicode="&#xb8;" horiz-adv-x="555" 
d="M177 -239l-11 59q59 3 81 13t22 31q0 15 -15.5 25.5t-61.5 16.5l48 98h86l-28 -65q38 -9 57 -26t19 -49q0 -51 -51.5 -75.5t-145.5 -27.5z" />
    <glyph glyph-name="one.sups" unicode="&#xb9;" horiz-adv-x="376" 
d="M165 375v281h-89v66q41 6 64 16t48 27h86v-390h-109z" />
    <glyph glyph-name="ordmasculine" unicode="&#xba;" horiz-adv-x="373" 
d="M186 367q-42 0 -79 20.5t-60 59t-23 92.5q0 55 23 93.5t60 59.5t79 21q43 0 79.5 -21t59.5 -59.5t23 -93.5q0 -54 -23 -92.5t-59.5 -59t-79.5 -20.5zM186 449q29 0 43 25t14 65q0 41 -14 66.5t-43 25.5t-42.5 -25.5t-13.5 -66.5q0 -40 13.5 -65t42.5 -25z" />
    <glyph glyph-name="guillemotright" unicode="&#xbb;" horiz-adv-x="480" 
d="M109 56l-55 44l111 152l-111 152l55 44l134 -144v-104zM297 56l-55 44l111 152l-111 152l55 44l134 -144v-104z" />
    <glyph glyph-name="onequarter" unicode="&#xbc;" horiz-adv-x="809" 
d="M135 262v281h-89v66q41 6 64 16t48 27h86v-390h-109zM185 -12l352 676h85l-352 -676h-85zM567 157h80v41l6 117h-4l-40 -77zM647 0v87h-179v54l141 249h134v-233h58v-70h-58v-87h-96z" />
    <glyph glyph-name="onehalf" unicode="&#xbd;" horiz-adv-x="846" 
d="M135 262v281h-89v66q41 6 64 16t48 27h86v-390h-109zM170 -12l352 676h85l-352 -676h-85zM514 0v58q75 62 123 109.5t48 84.5q0 29 -15 45t-42 16q-19 0 -36.5 -12.5t-34.5 -34.5l-61 56q60 80 149 80q65 0 104.5 -34.5t39.5 -97.5q0 -47 -31.5 -90.5t-72.5 -89.5h118
v-90h-289z" />
    <glyph glyph-name="threequarters" unicode="&#xbe;" horiz-adv-x="818" 
d="M183 250q-51 0 -92 20.5t-67 58.5l65 51q35 -48 83 -48q23 0 39.5 12.5t16.5 34.5q0 51 -93 51v62q36 0 57.5 11.5t21.5 36.5q0 20 -13 31t-36 11q-19 0 -34.5 -11t-29.5 -28l-61 54q32 35 65 51t79 16q36 0 67 -13t50 -37.5t19 -58.5q0 -31 -15 -52.5t-42 -37.5
q30 -12 50.5 -35.5t20.5 -58.5q0 -36 -21 -63t-55.5 -42.5t-74.5 -15.5zM207 -12l352 676h85l-352 -676h-85zM575 157h80v41l6 117h-4l-40 -77zM655 0v87h-179v54l141 249h134v-233h58v-70h-58v-87h-96z" />
    <glyph glyph-name="questiondown" unicode="&#xbf;" horiz-adv-x="463" 
d="M232 -186q-54 0 -97 18t-68 56.5t-25 97.5q0 37 15 65t37 52t43 48t34 51.5t10 62.5h128q6 -41 -5 -73.5t-30.5 -59t-40.5 -49t-35.5 -43.5t-14.5 -44q0 -31 19 -47t48 -16q28 0 49.5 13t41.5 33l81 -74q-36 -40 -83.5 -65.5t-106.5 -25.5zM245 323q-38 0 -63.5 26.5
t-25.5 66.5q0 39 25.5 65.5t63.5 26.5t63.5 -26.5t25.5 -65.5q0 -40 -25.5 -66.5t-63.5 -26.5z" />
    <glyph glyph-name="Agrave" unicode="&#xc0;" horiz-adv-x="573" 
d="M230 330l-16 -60h139l-15 60q-13 49 -26.5 104t-26.5 106h-4q-12 -52 -24.5 -106.5t-26.5 -103.5zM-6 0l204 652h177l204 -652h-156l-40 155h-199l-40 -155h-150zM295 680l-183 119l78 95l171 -140z" />
    <glyph glyph-name="Aacute" unicode="&#xc1;" horiz-adv-x="573" 
d="M230 330l-16 -60h139l-15 60q-13 49 -26.5 104t-26.5 106h-4q-12 -52 -24.5 -106.5t-26.5 -103.5zM-6 0l204 652h177l204 -652h-156l-40 155h-199l-40 -155h-150zM275 680l-66 74l171 140l78 -95z" />
    <glyph glyph-name="Acircumflex" unicode="&#xc2;" horiz-adv-x="573" 
d="M230 330l-16 -60h139l-15 60q-13 49 -26.5 104t-26.5 106h-4q-12 -52 -24.5 -106.5t-26.5 -103.5zM-6 0l204 652h177l204 -652h-156l-40 155h-199l-40 -155h-150zM179 685l-64 39l90 111h160l90 -111l-64 -39l-104 84h-4z" />
    <glyph glyph-name="Atilde" unicode="&#xc3;" horiz-adv-x="573" 
d="M230 330l-16 -60h139l-15 60q-13 49 -26.5 104t-26.5 106h-4q-12 -52 -24.5 -106.5t-26.5 -103.5zM-6 0l204 652h177l204 -652h-156l-40 155h-199l-40 -155h-150zM356 692q-35 0 -59.5 14.5t-42.5 29t-35 14.5q-14 0 -24 -11t-13 -38l-95 7q4 76 39.5 110t87.5 34
q36 0 60 -14.5t42.5 -29t34.5 -14.5q14 0 24 11t13 38l95 -7q-4 -75 -39 -109.5t-88 -34.5z" />
    <glyph glyph-name="Adieresis" unicode="&#xc4;" horiz-adv-x="573" 
d="M230 330l-16 -60h139l-15 60q-13 49 -26.5 104t-26.5 106h-4q-12 -52 -24.5 -106.5t-26.5 -103.5zM-6 0l204 652h177l204 -652h-156l-40 155h-199l-40 -155h-150zM174 700q-31 0 -50.5 20t-19.5 50t19.5 50t50.5 20t50.5 -20t19.5 -50t-19.5 -50t-50.5 -20zM396 700
q-31 0 -50.5 20t-19.5 50t19.5 50t50.5 20t50.5 -20t19.5 -50t-19.5 -50t-50.5 -20z" />
    <glyph glyph-name="Aring" unicode="&#xc5;" horiz-adv-x="573" 
d="M230 330l-16 -60h139l-15 60q-13 49 -26.5 104t-26.5 106h-4q-12 -52 -24.5 -106.5t-26.5 -103.5zM-6 0l204 652h177l204 -652h-156l-40 155h-199l-40 -155h-150zM285 697q-51 0 -82.5 27t-31.5 72t31.5 71.5t82.5 26.5q50 0 82 -26.5t32 -71.5t-32 -72t-82 -27zM285 752
q17 0 29.5 12t12.5 32t-12.5 31.5t-29.5 11.5t-29.5 -11.5t-12.5 -31.5t12.5 -32t29.5 -12z" />
    <glyph glyph-name="AE" unicode="&#xc6;" horiz-adv-x="845" 
d="M303 356l-42 -93h125v278h-4q-20 -48 -39.5 -95t-39.5 -90zM-14 0l310 652h487v-124h-250v-131h211v-123h-211v-150h260v-124h-407v149h-177l-68 -149h-155z" />
    <glyph glyph-name="Ccedilla" unicode="&#xc7;" horiz-adv-x="582" 
d="M349 -12q-82 0 -151 38t-110.5 112.5t-41.5 183.5q0 108 42.5 184.5t113 117t152.5 40.5q63 0 113 -25.5t83 -59.5l-78 -94q-25 23 -52.5 37.5t-62.5 14.5q-44 0 -80.5 -25t-58 -72t-21.5 -113q0 -100 43 -156t115 -56q40 0 71.5 18t55.5 43l78 -92q-82 -96 -211 -96z
M248 -239l-11 59q59 3 81 13t22 31q0 15 -15.5 25.5t-61.5 16.5l48 98h86l-28 -65q38 -9 57 -26t19 -49q0 -51 -51.5 -75.5t-145.5 -27.5z" />
    <glyph glyph-name="Egrave" unicode="&#xc8;" horiz-adv-x="548" 
d="M77 0v652h408v-124h-261v-131h222v-123h-222v-150h271v-124h-418zM300 680l-183 119l78 95l171 -140z" />
    <glyph glyph-name="Eacute" unicode="&#xc9;" horiz-adv-x="548" 
d="M77 0v652h408v-124h-261v-131h222v-123h-222v-150h271v-124h-418zM280 680l-66 74l171 140l78 -95z" />
    <glyph glyph-name="Ecircumflex" unicode="&#xca;" horiz-adv-x="548" 
d="M77 0v652h408v-124h-261v-131h222v-123h-222v-150h271v-124h-418zM184 685l-64 39l90 111h160l90 -111l-64 -39l-104 84h-4z" />
    <glyph glyph-name="Edieresis" unicode="&#xcb;" horiz-adv-x="548" 
d="M77 0v652h408v-124h-261v-131h222v-123h-222v-150h271v-124h-418zM179 700q-31 0 -50.5 20t-19.5 50t19.5 50t50.5 20t50.5 -20t19.5 -50t-19.5 -50t-50.5 -20zM401 700q-31 0 -50.5 20t-19.5 50t19.5 50t50.5 20t50.5 -20t19.5 -50t-19.5 -50t-50.5 -20z" />
    <glyph glyph-name="Igrave" unicode="&#xcc;" horiz-adv-x="301" 
d="M77 0v652h147v-652h-147zM162 680l-183 119l78 95l171 -140z" />
    <glyph glyph-name="Iacute" unicode="&#xcd;" horiz-adv-x="301" 
d="M77 0v652h147v-652h-147zM142 680l-66 74l171 140l78 -95z" />
    <glyph glyph-name="Icircumflex" unicode="&#xce;" horiz-adv-x="301" 
d="M77 0v652h147v-652h-147zM46 685l-64 39l90 111h160l90 -111l-64 -39l-104 84h-4z" />
    <glyph glyph-name="Idieresis" unicode="&#xcf;" horiz-adv-x="301" 
d="M77 0v652h147v-652h-147zM41 700q-31 0 -50.5 20t-19.5 50t19.5 50t50.5 20t50.5 -20t19.5 -50t-19.5 -50t-50.5 -20zM263 700q-31 0 -50.5 20t-19.5 50t19.5 50t50.5 20t50.5 -20t19.5 -50t-19.5 -50t-50.5 -20z" />
    <glyph glyph-name="Eth" unicode="&#xd0;" horiz-adv-x="660" 
d="M102 0v301h-76v66l76 5v280h184q100 0 173 -34t113.5 -105.5t40.5 -183.5t-40 -185t-111.5 -108.5t-167.5 -35.5h-192zM249 119h28q56 0 97.5 20t64.5 66t23 124t-23 122.5t-64.5 63t-97.5 18.5h-28v-161h125v-71h-125v-182z" />
    <glyph glyph-name="Ntilde" unicode="&#xd1;" horiz-adv-x="665" 
d="M77 0v652h151l170 -324l64 -144h4q-4 52 -11 116t-7 122v230h140v-652h-151l-170 325l-64 142h-4q5 -54 11.5 -116t6.5 -120v-231h-140zM409 692q-35 0 -59.5 14.5t-42.5 29t-35 14.5q-14 0 -24 -11t-13 -38l-95 7q4 76 39.5 110t87.5 34q36 0 60 -14.5t42.5 -29
t34.5 -14.5q14 0 24 11t13 38l95 -7q-4 -75 -39 -109.5t-88 -34.5z" />
    <glyph glyph-name="Ograve" unicode="&#xd2;" horiz-adv-x="684" 
d="M342 -12q-88 0 -154.5 41t-104 117.5t-37.5 182.5q0 107 37.5 181.5t104 114t154.5 39.5t154.5 -39.5t104 -114.5t37.5 -181t-37.5 -182.5t-104 -117.5t-154.5 -41zM342 115q67 0 106 58t39 156t-39 153t-106 55t-106 -55t-39 -153t39 -156t106 -58zM352 680l-183 119
l78 95l171 -140z" />
    <glyph glyph-name="Oacute" unicode="&#xd3;" horiz-adv-x="684" 
d="M342 -12q-88 0 -154.5 41t-104 117.5t-37.5 182.5q0 107 37.5 181.5t104 114t154.5 39.5t154.5 -39.5t104 -114.5t37.5 -181t-37.5 -182.5t-104 -117.5t-154.5 -41zM342 115q67 0 106 58t39 156t-39 153t-106 55t-106 -55t-39 -153t39 -156t106 -58zM332 680l-66 74
l171 140l78 -95z" />
    <glyph glyph-name="Ocircumflex" unicode="&#xd4;" horiz-adv-x="684" 
d="M342 -12q-88 0 -154.5 41t-104 117.5t-37.5 182.5q0 107 37.5 181.5t104 114t154.5 39.5t154.5 -39.5t104 -114.5t37.5 -181t-37.5 -182.5t-104 -117.5t-154.5 -41zM342 115q67 0 106 58t39 156t-39 153t-106 55t-106 -55t-39 -153t39 -156t106 -58zM236 685l-64 39
l90 111h160l90 -111l-64 -39l-104 84h-4z" />
    <glyph glyph-name="Otilde" unicode="&#xd5;" horiz-adv-x="684" 
d="M342 -12q-88 0 -154.5 41t-104 117.5t-37.5 182.5q0 107 37.5 181.5t104 114t154.5 39.5t154.5 -39.5t104 -114.5t37.5 -181t-37.5 -182.5t-104 -117.5t-154.5 -41zM342 115q67 0 106 58t39 156t-39 153t-106 55t-106 -55t-39 -153t39 -156t106 -58zM413 692
q-35 0 -59.5 14.5t-42.5 29t-35 14.5q-14 0 -24 -11t-13 -38l-95 7q4 76 39.5 110t87.5 34q36 0 60 -14.5t42.5 -29t34.5 -14.5q14 0 24 11t13 38l95 -7q-4 -75 -39 -109.5t-88 -34.5z" />
    <glyph glyph-name="Odieresis" unicode="&#xd6;" horiz-adv-x="684" 
d="M342 -12q-88 0 -154.5 41t-104 117.5t-37.5 182.5q0 107 37.5 181.5t104 114t154.5 39.5t154.5 -39.5t104 -114.5t37.5 -181t-37.5 -182.5t-104 -117.5t-154.5 -41zM342 115q67 0 106 58t39 156t-39 153t-106 55t-106 -55t-39 -153t39 -156t106 -58zM231 700
q-31 0 -50.5 20t-19.5 50t19.5 50t50.5 20t50.5 -20t19.5 -50t-19.5 -50t-50.5 -20zM453 700q-31 0 -50.5 20t-19.5 50t19.5 50t50.5 20t50.5 -20t19.5 -50t-19.5 -50t-50.5 -20z" />
    <glyph glyph-name="multiply" unicode="&#xd7;" horiz-adv-x="528" 
d="M121 112l-73 74l142 143l-142 144l73 74l143 -144l143 144l73 -74l-142 -144l142 -143l-73 -74l-143 144z" />
    <glyph glyph-name="Oslash" unicode="&#xd8;" horiz-adv-x="684" 
d="M116 -41l-76 58l69 86q-29 43 -45.5 100t-16.5 126q0 107 37.5 181.5t104 114t154.5 39.5q102 0 175 -53l66 82l76 -59l-76 -94q26 -40 40.5 -93t14.5 -118q0 -106 -37.5 -182.5t-104 -117.5t-154.5 -41q-94 0 -165 48zM198 329q0 -28 3.5 -53t9.5 -46l220 273
q-36 34 -88 34q-67 0 -106 -55t-39 -153zM343 115q67 0 106 58t39 156q0 45 -9 81l-215 -267q34 -28 79 -28z" />
    <glyph glyph-name="Ugrave" unicode="&#xd9;" horiz-adv-x="665" 
d="M334 -12q-127 0 -194 75t-67 239v350h148v-365q0 -96 29 -134t84 -38t85 38t30 134v365h142v-350q0 -164 -65.5 -239t-191.5 -75zM342 680l-183 119l78 95l171 -140z" />
    <glyph glyph-name="Uacute" unicode="&#xda;" horiz-adv-x="665" 
d="M334 -12q-127 0 -194 75t-67 239v350h148v-365q0 -96 29 -134t84 -38t85 38t30 134v365h142v-350q0 -164 -65.5 -239t-191.5 -75zM322 680l-66 74l171 140l78 -95z" />
    <glyph glyph-name="Ucircumflex" unicode="&#xdb;" horiz-adv-x="665" 
d="M334 -12q-127 0 -194 75t-67 239v350h148v-365q0 -96 29 -134t84 -38t85 38t30 134v365h142v-350q0 -164 -65.5 -239t-191.5 -75zM226 685l-64 39l90 111h160l90 -111l-64 -39l-104 84h-4z" />
    <glyph glyph-name="Udieresis" unicode="&#xdc;" horiz-adv-x="665" 
d="M334 -12q-127 0 -194 75t-67 239v350h148v-365q0 -96 29 -134t84 -38t85 38t30 134v365h142v-350q0 -164 -65.5 -239t-191.5 -75zM221 700q-31 0 -50.5 20t-19.5 50t19.5 50t50.5 20t50.5 -20t19.5 -50t-19.5 -50t-50.5 -20zM443 700q-31 0 -50.5 20t-19.5 50t19.5 50
t50.5 20t50.5 -20t19.5 -50t-19.5 -50t-50.5 -20z" />
    <glyph glyph-name="Yacute" unicode="&#xdd;" horiz-adv-x="525" 
d="M189 0v232l-197 420h158l58 -150q14 -37 27 -71.5t26 -72.5h4q14 38 28 72.5t27 71.5l59 150h154l-197 -420v-232h-147zM252 680l-66 74l171 140l78 -95z" />
    <glyph glyph-name="Thorn" unicode="&#xde;" horiz-adv-x="617" 
d="M77 0v652h147v-99h91q71 0 128.5 -19.5t92 -65t34.5 -124.5q0 -77 -35 -126t-93 -72t-127 -23h-91v-123h-147zM224 240h82q120 0 120 104q0 51 -30.5 71.5t-89.5 20.5h-82v-196z" />
    <glyph glyph-name="germandbls" unicode="&#xdf;" horiz-adv-x="632" 
d="M421 -12q-44 0 -79.5 12t-71.5 33l51 100q49 -36 95 -36q26 0 40.5 13.5t14.5 34.5q0 23 -18 38.5t-44 29t-52 30.5t-44 42t-18 65q0 29 10.5 50t25 40t25 39.5t10.5 47.5q0 29 -16.5 48.5t-47.5 19.5q-46 0 -69 -33.5t-23 -91.5v-470h-145v487q0 65 25.5 115.5
t78.5 79.5t133 29q69 0 114.5 -24t68 -62t22.5 -81q0 -36 -12 -61t-27 -43.5t-27 -35.5t-12 -36q0 -20 18 -33.5t44 -27t52 -32t44 -48t18 -75.5q0 -45 -21 -82.5t-61.5 -59.5t-101.5 -22z" />
    <glyph glyph-name="agrave" unicode="&#xe0;" horiz-adv-x="527" 
d="M190 -12q-68 0 -108 43.5t-40 106.5q0 78 66 122t213 59q-2 33 -19.5 52.5t-58.5 19.5q-31 0 -63 -12t-68 -33l-53 97q47 29 100.5 47t111.5 18q95 0 146 -55t51 -169v-284h-120l-10 51h-4q-31 -28 -66.5 -45.5t-77.5 -17.5zM240 102q25 0 43.5 11.5t37.5 30.5v87
q-78 -10 -108 -31.5t-30 -50.5q0 -24 15.5 -35.5t41.5 -11.5zM266 572l-181 157l99 97l154 -182z" />
    <glyph glyph-name="aacute" unicode="&#xe1;" horiz-adv-x="527" 
d="M190 -12q-68 0 -108 43.5t-40 106.5q0 78 66 122t213 59q-2 33 -19.5 52.5t-58.5 19.5q-31 0 -63 -12t-68 -33l-53 97q47 29 100.5 47t111.5 18q95 0 146 -55t51 -169v-284h-120l-10 51h-4q-31 -28 -66.5 -45.5t-77.5 -17.5zM240 102q25 0 43.5 11.5t37.5 30.5v87
q-78 -10 -108 -31.5t-30 -50.5q0 -24 15.5 -35.5t41.5 -11.5zM286 572l-72 72l154 182l99 -97z" />
    <glyph glyph-name="acircumflex" unicode="&#xe2;" horiz-adv-x="527" 
d="M190 -12q-68 0 -108 43.5t-40 106.5q0 78 66 122t213 59q-2 33 -19.5 52.5t-58.5 19.5q-31 0 -63 -12t-68 -33l-53 97q47 29 100.5 47t111.5 18q95 0 146 -55t51 -169v-284h-120l-10 51h-4q-31 -28 -66.5 -45.5t-77.5 -17.5zM240 102q25 0 43.5 11.5t37.5 30.5v87
q-78 -10 -108 -31.5t-30 -50.5q0 -24 15.5 -35.5t41.5 -11.5zM93 613l108 131h150l108 -131l-56 -52l-125 92h-4l-125 -92z" />
    <glyph glyph-name="atilde" unicode="&#xe3;" horiz-adv-x="527" 
d="M190 -12q-68 0 -108 43.5t-40 106.5q0 78 66 122t213 59q-2 33 -19.5 52.5t-58.5 19.5q-31 0 -63 -12t-68 -33l-53 97q47 29 100.5 47t111.5 18q95 0 146 -55t51 -169v-284h-120l-10 51h-4q-31 -28 -66.5 -45.5t-77.5 -17.5zM240 102q25 0 43.5 11.5t37.5 30.5v87
q-78 -10 -108 -31.5t-30 -50.5q0 -24 15.5 -35.5t41.5 -11.5zM342 573q-24 0 -42.5 9.5t-34 22.5t-28 22.5t-24.5 9.5q-15 0 -23.5 -13t-11.5 -42l-92 5q2 77 34 114.5t90 37.5q24 0 42.5 -9.5t34 -22.5t28 -22.5t24.5 -9.5q29 0 35 55l92 -5q-2 -77 -34 -114.5t-90 -37.5z
" />
    <glyph glyph-name="adieresis" unicode="&#xe4;" horiz-adv-x="527" 
d="M190 -12q-68 0 -108 43.5t-40 106.5q0 78 66 122t213 59q-2 33 -19.5 52.5t-58.5 19.5q-31 0 -63 -12t-68 -33l-53 97q47 29 100.5 47t111.5 18q95 0 146 -55t51 -169v-284h-120l-10 51h-4q-31 -28 -66.5 -45.5t-77.5 -17.5zM240 102q25 0 43.5 11.5t37.5 30.5v87
q-78 -10 -108 -31.5t-30 -50.5q0 -24 15.5 -35.5t41.5 -11.5zM167 569q-31 0 -51.5 20.5t-20.5 51.5q0 30 20.5 50.5t51.5 20.5q32 0 51.5 -20.5t19.5 -50.5q0 -31 -19.5 -51.5t-51.5 -20.5zM385 569q-31 0 -51 20.5t-20 51.5q0 30 20 50.5t51 20.5q32 0 52 -20.5t20 -50.5
q0 -31 -20 -51.5t-52 -20.5z" />
    <glyph glyph-name="aring" unicode="&#xe5;" horiz-adv-x="527" 
d="M190 -12q-68 0 -108 43.5t-40 106.5q0 78 66 122t213 59q-2 33 -19.5 52.5t-58.5 19.5q-31 0 -63 -12t-68 -33l-53 97q47 29 100.5 47t111.5 18q95 0 146 -55t51 -169v-284h-120l-10 51h-4q-31 -28 -66.5 -45.5t-77.5 -17.5zM240 102q25 0 43.5 11.5t37.5 30.5v87
q-78 -10 -108 -31.5t-30 -50.5q0 -24 15.5 -35.5t41.5 -11.5zM276 564q-65 0 -98.5 30.5t-33.5 73.5q0 44 33.5 74t98.5 30t98.5 -30t33.5 -74q0 -43 -33.5 -73.5t-98.5 -30.5zM276 619q18 0 30.5 13.5t12.5 35.5t-12.5 35.5t-30.5 13.5t-30.5 -13.5t-12.5 -35.5t12.5 -35.5
t30.5 -13.5z" />
    <glyph glyph-name="ae" unicode="&#xe6;" horiz-adv-x="786" 
d="M194 -12q-45 0 -78 20t-51 54t-18 75q0 79 65 123.5t211 59.5q-2 32 -19 51.5t-58 19.5q-30 0 -62 -12t-68 -33l-52 97q47 29 98 47t105 18q46 0 81 -20t57 -55q32 36 67.5 55.5t79.5 19.5q66 0 109.5 -32t65.5 -86.5t22 -122.5q0 -20 -2 -36.5t-4 -25.5h-286
q8 -52 41 -77t78 -25q28 0 53 10t52 26l50 -95q-38 -26 -84.5 -41t-90.5 -15q-55 0 -97 21.5t-74 55.5q-52 -42 -96.5 -59.5t-94.5 -17.5zM244 102q26 0 49.5 11.5t43.5 30.5q-11 31 -14 66l-1 21q-73 -10 -104 -31.5t-31 -50.5q0 -24 15.5 -35.5t41.5 -11.5zM457 295h167
q0 45 -18 73t-59 28q-34 0 -59 -24.5t-31 -76.5z" />
    <glyph glyph-name="ccedilla" unicode="&#xe7;" horiz-adv-x="467" 
d="M281 -12q-69 0 -124.5 30.5t-88 89t-32.5 140.5q0 83 36 141t95 88.5t127 30.5q46 0 81.5 -15t63.5 -38l-69 -95q-35 29 -67 29q-53 0 -84.5 -38t-31.5 -103q0 -64 31.5 -102.5t79.5 -38.5q24 0 47 10.5t42 25.5l58 -96q-37 -32 -80 -45.5t-84 -13.5zM160 -239l-11 59
q59 3 81 13t22 31q0 15 -15.5 25.5t-61.5 16.5l48 98h86l-28 -65q38 -9 57 -26t19 -49q0 -51 -51.5 -75.5t-145.5 -27.5z" />
    <glyph glyph-name="egrave" unicode="&#xe8;" horiz-adv-x="518" 
d="M287 -12q-71 0 -128 31t-90 89t-33 140q0 81 33.5 139t87.5 89.5t113 31.5q71 0 117.5 -31.5t70 -85t23.5 -121.5q0 -19 -2 -37.5t-4 -27.5h-297q10 -54 45 -79.5t84 -25.5q53 0 107 33l49 -89q-38 -26 -85 -41t-91 -15zM177 302h179q0 41 -19.5 67.5t-63.5 26.5
q-34 0 -61 -23.5t-35 -70.5zM258 572l-181 157l99 97l154 -182z" />
    <glyph glyph-name="eacute" unicode="&#xe9;" horiz-adv-x="518" 
d="M287 -12q-71 0 -128 31t-90 89t-33 140q0 81 33.5 139t87.5 89.5t113 31.5q71 0 117.5 -31.5t70 -85t23.5 -121.5q0 -19 -2 -37.5t-4 -27.5h-297q10 -54 45 -79.5t84 -25.5q53 0 107 33l49 -89q-38 -26 -85 -41t-91 -15zM177 302h179q0 41 -19.5 67.5t-63.5 26.5
q-34 0 -61 -23.5t-35 -70.5zM278 572l-72 72l154 182l99 -97z" />
    <glyph glyph-name="ecircumflex" unicode="&#xea;" horiz-adv-x="518" 
d="M287 -12q-71 0 -128 31t-90 89t-33 140q0 81 33.5 139t87.5 89.5t113 31.5q71 0 117.5 -31.5t70 -85t23.5 -121.5q0 -19 -2 -37.5t-4 -27.5h-297q10 -54 45 -79.5t84 -25.5q53 0 107 33l49 -89q-38 -26 -85 -41t-91 -15zM177 302h179q0 41 -19.5 67.5t-63.5 26.5
q-34 0 -61 -23.5t-35 -70.5zM85 613l108 131h150l108 -131l-56 -52l-125 92h-4l-125 -92z" />
    <glyph glyph-name="edieresis" unicode="&#xeb;" horiz-adv-x="518" 
d="M287 -12q-71 0 -128 31t-90 89t-33 140q0 81 33.5 139t87.5 89.5t113 31.5q71 0 117.5 -31.5t70 -85t23.5 -121.5q0 -19 -2 -37.5t-4 -27.5h-297q10 -54 45 -79.5t84 -25.5q53 0 107 33l49 -89q-38 -26 -85 -41t-91 -15zM177 302h179q0 41 -19.5 67.5t-63.5 26.5
q-34 0 -61 -23.5t-35 -70.5zM159 569q-31 0 -51.5 20.5t-20.5 51.5q0 30 20.5 50.5t51.5 20.5q32 0 51.5 -20.5t19.5 -50.5q0 -31 -19.5 -51.5t-51.5 -20.5zM377 569q-31 0 -51 20.5t-20 51.5q0 30 20 50.5t51 20.5q32 0 52 -20.5t20 -50.5q0 -31 -20 -51.5t-52 -20.5z" />
    <glyph glyph-name="igrave" unicode="&#xec;" horiz-adv-x="276" 
d="M65 0v496h147v-496h-147zM128 572l-181 157l99 97l154 -182z" />
    <glyph glyph-name="iacute" unicode="&#xed;" horiz-adv-x="276" 
d="M65 0v496h147v-496h-147zM148 572l-72 72l154 182l99 -97z" />
    <glyph glyph-name="icircumflex" unicode="&#xee;" horiz-adv-x="276" 
d="M65 0v496h147v-496h-147zM-45 613l108 131h150l108 -131l-56 -52l-125 92h-4l-125 -92z" />
    <glyph glyph-name="idieresis" unicode="&#xef;" horiz-adv-x="276" 
d="M65 0v496h147v-496h-147zM29 569q-31 0 -51.5 20.5t-20.5 51.5q0 30 20.5 50.5t51.5 20.5q32 0 51.5 -20.5t19.5 -50.5q0 -31 -19.5 -51.5t-51.5 -20.5zM247 569q-31 0 -51 20.5t-20 51.5q0 30 20 50.5t51 20.5q32 0 52 -20.5t20 -50.5q0 -31 -20 -51.5t-52 -20.5z" />
    <glyph glyph-name="eth" unicode="&#xf0;" horiz-adv-x="560" 
d="M176 228q0 -59 30.5 -90t71.5 -31q42 0 68.5 37t26.5 114v23t-1 22q-22 25 -46.5 34t-50.5 9q-43 0 -71 -29t-28 -89zM273 -12q-62 0 -114.5 29.5t-84.5 83.5t-32 127q0 72 29 122.5t75.5 77.5t98.5 27q29 0 57 -9.5t49 -32.5q-26 77 -85 133l-142 -71l-38 65l116 58
q-20 14 -42.5 27t-47.5 26l64 89q35 -18 70 -39t68 -46l143 72l38 -65l-120 -61q59 -60 97 -141.5t38 -193.5q0 -80 -28.5 -143t-81.5 -99t-127 -36z" />
    <glyph glyph-name="ntilde" unicode="&#xf1;" horiz-adv-x="572" 
d="M65 0v496h120l10 -63h4q32 30 70.5 52.5t88.5 22.5q81 0 117.5 -53.5t36.5 -146.5v-308h-147v289q0 54 -14.5 74t-46.5 20q-28 0 -48 -12.5t-44 -35.5v-335h-147zM379 573q-24 0 -42.5 9.5t-34 22.5t-28 22.5t-24.5 9.5q-15 0 -23.5 -13t-11.5 -42l-92 5q2 77 34 114.5
t90 37.5q24 0 42.5 -9.5t34 -22.5t28 -22.5t24.5 -9.5q29 0 35 55l92 -5q-2 -77 -34 -114.5t-90 -37.5z" />
    <glyph glyph-name="ograve" unicode="&#xf2;" horiz-adv-x="555" 
d="M278 -12q-63 0 -118.5 30.5t-89.5 89t-34 140.5q0 83 34 141t89.5 88.5t118.5 30.5t118 -30.5t89 -88.5t34 -141q0 -82 -34 -140.5t-89 -89t-118 -30.5zM278 107q45 0 68 38.5t23 102.5q0 65 -23 103t-68 38q-46 0 -68.5 -38t-22.5 -103q0 -64 22.5 -102.5t68.5 -38.5z
M268 572l-181 157l99 97l154 -182z" />
    <glyph glyph-name="oacute" unicode="&#xf3;" horiz-adv-x="555" 
d="M278 -12q-63 0 -118.5 30.5t-89.5 89t-34 140.5q0 83 34 141t89.5 88.5t118.5 30.5t118 -30.5t89 -88.5t34 -141q0 -82 -34 -140.5t-89 -89t-118 -30.5zM278 107q45 0 68 38.5t23 102.5q0 65 -23 103t-68 38q-46 0 -68.5 -38t-22.5 -103q0 -64 22.5 -102.5t68.5 -38.5z
M288 572l-72 72l154 182l99 -97z" />
    <glyph glyph-name="ocircumflex" unicode="&#xf4;" horiz-adv-x="555" 
d="M278 -12q-63 0 -118.5 30.5t-89.5 89t-34 140.5q0 83 34 141t89.5 88.5t118.5 30.5t118 -30.5t89 -88.5t34 -141q0 -82 -34 -140.5t-89 -89t-118 -30.5zM278 107q45 0 68 38.5t23 102.5q0 65 -23 103t-68 38q-46 0 -68.5 -38t-22.5 -103q0 -64 22.5 -102.5t68.5 -38.5z
M95 613l108 131h150l108 -131l-56 -52l-125 92h-4l-125 -92z" />
    <glyph glyph-name="otilde" unicode="&#xf5;" horiz-adv-x="555" 
d="M278 -12q-63 0 -118.5 30.5t-89.5 89t-34 140.5q0 83 34 141t89.5 88.5t118.5 30.5t118 -30.5t89 -88.5t34 -141q0 -82 -34 -140.5t-89 -89t-118 -30.5zM278 107q45 0 68 38.5t23 102.5q0 65 -23 103t-68 38q-46 0 -68.5 -38t-22.5 -103q0 -64 22.5 -102.5t68.5 -38.5z
M344 573q-24 0 -42.5 9.5t-34 22.5t-28 22.5t-24.5 9.5q-15 0 -23.5 -13t-11.5 -42l-92 5q2 77 34 114.5t90 37.5q24 0 42.5 -9.5t34 -22.5t28 -22.5t24.5 -9.5q29 0 35 55l92 -5q-2 -77 -34 -114.5t-90 -37.5z" />
    <glyph glyph-name="odieresis" unicode="&#xf6;" horiz-adv-x="555" 
d="M278 -12q-63 0 -118.5 30.5t-89.5 89t-34 140.5q0 83 34 141t89.5 88.5t118.5 30.5t118 -30.5t89 -88.5t34 -141q0 -82 -34 -140.5t-89 -89t-118 -30.5zM278 107q45 0 68 38.5t23 102.5q0 65 -23 103t-68 38q-46 0 -68.5 -38t-22.5 -103q0 -64 22.5 -102.5t68.5 -38.5z
M169 569q-31 0 -51.5 20.5t-20.5 51.5q0 30 20.5 50.5t51.5 20.5q32 0 51.5 -20.5t19.5 -50.5q0 -31 -19.5 -51.5t-51.5 -20.5zM387 569q-31 0 -51 20.5t-20 51.5q0 30 20 50.5t51 20.5q32 0 52 -20.5t20 -50.5q0 -31 -20 -51.5t-52 -20.5z" />
    <glyph glyph-name="divide" unicode="&#xf7;" horiz-adv-x="528" 
d="M34 278v104h460v-104h-460zM264 73q-34 0 -57.5 21.5t-23.5 55.5t23.5 55.5t57.5 21.5q35 0 58 -21.5t23 -55.5t-23 -55.5t-58 -21.5zM264 433q-34 0 -57.5 21.5t-23.5 55.5t23.5 55.5t57.5 21.5q35 0 58 -21.5t23 -55.5t-23 -55.5t-58 -21.5z" />
    <glyph glyph-name="oslash" unicode="&#xf8;" horiz-adv-x="555" 
d="M178 256q0 -40 7 -67l149 186q-22 19 -56 19q-46 0 -73 -38t-27 -100zM101 -25l-55 42l47 58q-26 32 -41.5 75.5t-15.5 97.5q0 83 34 141t89.5 88.5t118.5 30.5q71 0 132 -39l44 54l55 -43l-47 -58q26 -33 41.5 -76.5t15.5 -97.5q0 -82 -34 -140.5t-89 -89t-118 -30.5
q-74 0 -134 40zM278 102q45 0 72 38t27 100q0 20 -1.5 37t-5.5 31l-150 -186q23 -20 58 -20z" />
    <glyph glyph-name="ugrave" unicode="&#xf9;" horiz-adv-x="568" 
d="M214 -12q-81 0 -117.5 53.5t-36.5 146.5v308h147v-289q0 -53 15 -73.5t47 -20.5q28 0 47 13t41 42v328h147v-496h-120l-11 69h-3q-31 -37 -68 -59t-88 -22zM275 572l-181 157l99 97l154 -182z" />
    <glyph glyph-name="uacute" unicode="&#xfa;" horiz-adv-x="568" 
d="M214 -12q-81 0 -117.5 53.5t-36.5 146.5v308h147v-289q0 -53 15 -73.5t47 -20.5q28 0 47 13t41 42v328h147v-496h-120l-11 69h-3q-31 -37 -68 -59t-88 -22zM295 572l-72 72l154 182l99 -97z" />
    <glyph glyph-name="ucircumflex" unicode="&#xfb;" horiz-adv-x="568" 
d="M214 -12q-81 0 -117.5 53.5t-36.5 146.5v308h147v-289q0 -53 15 -73.5t47 -20.5q28 0 47 13t41 42v328h147v-496h-120l-11 69h-3q-31 -37 -68 -59t-88 -22zM102 613l108 131h150l108 -131l-56 -52l-125 92h-4l-125 -92z" />
    <glyph glyph-name="udieresis" unicode="&#xfc;" horiz-adv-x="568" 
d="M214 -12q-81 0 -117.5 53.5t-36.5 146.5v308h147v-289q0 -53 15 -73.5t47 -20.5q28 0 47 13t41 42v328h147v-496h-120l-11 69h-3q-31 -37 -68 -59t-88 -22zM176 569q-31 0 -51.5 20.5t-20.5 51.5q0 30 20.5 50.5t51.5 20.5q32 0 51.5 -20.5t19.5 -50.5q0 -31 -19.5 -51.5
t-51.5 -20.5zM394 569q-31 0 -51 20.5t-20 51.5q0 30 20 50.5t51 20.5q32 0 52 -20.5t20 -50.5q0 -31 -20 -51.5t-52 -20.5z" />
    <glyph glyph-name="yacute" unicode="&#xfd;" horiz-adv-x="521" 
d="M120 -194q-22 0 -38.5 3t-31.5 7l26 112q7 -1 16 -3.5t17 -2.5q37 0 57 18t30 47l7 26l-191 483h148l71 -213q11 -34 20 -69t19 -72h4q8 35 16.5 70.5t17.5 70.5l60 213h141l-172 -501q-23 -62 -51 -104.5t-67.5 -63.5t-98.5 -21zM277 572l-72 72l154 182l99 -97z" />
    <glyph glyph-name="thorn" unicode="&#xfe;" horiz-adv-x="573" 
d="M65 -184v885h147v-171l-4 -71q26 23 58 36t66 13q94 0 148 -68.5t54 -183.5q0 -85 -30 -145t-77.5 -91.5t-101.5 -31.5q-36 0 -63.5 12.5t-53.5 34.5l4 -74v-145h-147zM291 108q38 0 65 35t27 111q0 134 -86 134q-43 0 -85 -45v-203q20 -18 40 -25t39 -7z" />
    <glyph glyph-name="ydieresis" unicode="&#xff;" horiz-adv-x="521" 
d="M120 -194q-22 0 -38.5 3t-31.5 7l26 112q7 -1 16 -3.5t17 -2.5q37 0 57 18t30 47l7 26l-191 483h148l71 -213q11 -34 20 -69t19 -72h4q8 35 16.5 70.5t17.5 70.5l60 213h141l-172 -501q-23 -62 -51 -104.5t-67.5 -63.5t-98.5 -21zM158 569q-31 0 -51.5 20.5t-20.5 51.5
q0 30 20.5 50.5t51.5 20.5q32 0 51.5 -20.5t19.5 -50.5q0 -31 -19.5 -51.5t-51.5 -20.5zM376 569q-31 0 -51 20.5t-20 51.5q0 30 20 50.5t51 20.5q32 0 52 -20.5t20 -50.5q0 -31 -20 -51.5t-52 -20.5z" />
    <glyph glyph-name="Amacron" unicode="&#x100;" horiz-adv-x="573" 
d="M230 330l-16 -60h139l-15 60q-13 49 -26.5 104t-26.5 106h-4q-12 -52 -24.5 -106.5t-26.5 -103.5zM-6 0l204 652h177l204 -652h-156l-40 155h-199l-40 -155h-150zM134 721v94h302v-94h-302z" />
    <glyph glyph-name="amacron" unicode="&#x101;" horiz-adv-x="527" 
d="M190 -12q-68 0 -108 43.5t-40 106.5q0 78 66 122t213 59q-2 33 -19.5 52.5t-58.5 19.5q-31 0 -63 -12t-68 -33l-53 97q47 29 100.5 47t111.5 18q95 0 146 -55t51 -169v-284h-120l-10 51h-4q-31 -28 -66.5 -45.5t-77.5 -17.5zM240 102q25 0 43.5 11.5t37.5 30.5v87
q-78 -10 -108 -31.5t-30 -50.5q0 -24 15.5 -35.5t41.5 -11.5zM128 592v93h296v-93h-296z" />
    <glyph glyph-name="Abreve" unicode="&#x102;" horiz-adv-x="573" 
d="M230 330l-16 -60h139l-15 60q-13 49 -26.5 104t-26.5 106h-4q-12 -52 -24.5 -106.5t-26.5 -103.5zM-6 0l204 652h177l204 -652h-156l-40 155h-199l-40 -155h-150zM285 697q-74 0 -115 35t-48 102l80 14q7 -31 28 -48.5t55 -17.5t55 17.5t28 48.5l80 -14q-7 -67 -48 -102
t-115 -35z" />
    <glyph glyph-name="abreve" unicode="&#x103;" horiz-adv-x="527" 
d="M190 -12q-68 0 -108 43.5t-40 106.5q0 78 66 122t213 59q-2 33 -19.5 52.5t-58.5 19.5q-31 0 -63 -12t-68 -33l-53 97q47 29 100.5 47t111.5 18q95 0 146 -55t51 -169v-284h-120l-10 51h-4q-31 -28 -66.5 -45.5t-77.5 -17.5zM240 102q25 0 43.5 11.5t37.5 30.5v87
q-78 -10 -108 -31.5t-30 -50.5q0 -24 15.5 -35.5t41.5 -11.5zM276 572q-85 0 -126 45.5t-43 111.5l84 14q5 -32 25 -55.5t60 -23.5t60.5 23.5t24.5 55.5l84 -14q-2 -66 -42.5 -111.5t-126.5 -45.5z" />
    <glyph glyph-name="Aogonek" unicode="&#x104;" horiz-adv-x="573" 
d="M230 330l-16 -60h139l-15 60q-13 49 -26.5 104t-26.5 106h-4q-12 -52 -24.5 -106.5t-26.5 -103.5zM496 -223q-48 0 -81 24.5t-33 69.5q0 31 13.5 56.5t32.5 44.5t35 28h-40l-40 155h-199l-40 -155h-150l204 652h177l204 -652q-41 -4 -65.5 -32t-24.5 -58
q0 -19 11.5 -28.5t27.5 -9.5q11 0 21.5 4.5t17.5 9.5l34 -74q-19 -15 -49 -25t-56 -10z" />
    <glyph glyph-name="aogonek" unicode="&#x105;" horiz-adv-x="527" 
d="M387 -210q-43 0 -74.5 23t-31.5 68q0 30 12 53t28.5 39.5t28.5 24.5l-12 53h-4q-31 -28 -66.5 -45.5t-77.5 -17.5q-45 0 -78.5 20t-51.5 54t-18 75q0 79 66 123t213 59q-2 33 -19.5 52.5t-58.5 19.5q-31 0 -63 -12t-68 -33l-53 97q47 29 100.5 47t111.5 18q95 0 146 -55
t51 -169v-284q-48 -13 -67.5 -37.5t-19.5 -47.5q0 -20 12.5 -29t28.5 -9q10 0 19.5 4t16.5 8l31 -66q-19 -15 -48.5 -24t-53.5 -9zM240 102q25 0 43.5 11.5t37.5 30.5v87q-78 -10 -108 -31.5t-30 -50.5q0 -24 15.5 -35.5t41.5 -11.5z" />
    <glyph glyph-name="Cacute" unicode="&#x106;" horiz-adv-x="582" 
d="M349 -12q-82 0 -151 38t-110.5 112.5t-41.5 183.5q0 108 42.5 184.5t113 117t152.5 40.5q63 0 113 -25.5t83 -59.5l-78 -94q-25 23 -52.5 37.5t-62.5 14.5q-44 0 -80.5 -25t-58 -72t-21.5 -113q0 -100 43 -156t115 -56q40 0 71.5 18t55.5 43l78 -92q-82 -96 -211 -96z
M333 680l-66 74l171 140l78 -95z" />
    <glyph glyph-name="cacute" unicode="&#x107;" horiz-adv-x="467" 
d="M281 -12q-69 0 -124.5 30.5t-88 89t-32.5 140.5q0 83 36 141t95 88.5t127 30.5q46 0 81.5 -15t63.5 -38l-69 -95q-35 29 -67 29q-53 0 -84.5 -38t-31.5 -103q0 -64 31.5 -102.5t79.5 -38.5q24 0 47 10.5t42 25.5l58 -96q-37 -32 -80 -45.5t-84 -13.5zM288 572l-72 72
l154 182l99 -97z" />
    <glyph glyph-name="Ccircumflex" unicode="&#x108;" horiz-adv-x="582" 
d="M349 -12q-82 0 -151 38t-110.5 112.5t-41.5 183.5q0 108 42.5 184.5t113 117t152.5 40.5q63 0 113 -25.5t83 -59.5l-78 -94q-25 23 -52.5 37.5t-62.5 14.5q-44 0 -80.5 -25t-58 -72t-21.5 -113q0 -100 43 -156t115 -56q40 0 71.5 18t55.5 43l78 -92q-82 -96 -211 -96z
M237 685l-64 39l90 111h160l90 -111l-64 -39l-104 84h-4z" />
    <glyph glyph-name="ccircumflex" unicode="&#x109;" horiz-adv-x="467" 
d="M281 -12q-69 0 -124.5 30.5t-88 89t-32.5 140.5q0 83 36 141t95 88.5t127 30.5q46 0 81.5 -15t63.5 -38l-69 -95q-35 29 -67 29q-53 0 -84.5 -38t-31.5 -103q0 -64 31.5 -102.5t79.5 -38.5q24 0 47 10.5t42 25.5l58 -96q-37 -32 -80 -45.5t-84 -13.5zM95 613l108 131h150
l108 -131l-56 -52l-125 92h-4l-125 -92z" />
    <glyph glyph-name="Cdotaccent" unicode="&#x10a;" horiz-adv-x="582" 
d="M349 -12q-82 0 -151 38t-110.5 112.5t-41.5 183.5q0 108 42.5 184.5t113 117t152.5 40.5q63 0 113 -25.5t83 -59.5l-78 -94q-25 23 -52.5 37.5t-62.5 14.5q-44 0 -80.5 -25t-58 -72t-21.5 -113q0 -100 43 -156t115 -56q40 0 71.5 18t55.5 43l78 -92q-82 -96 -211 -96z
M343 701q-37 0 -61 21.5t-24 55.5t24 55.5t61 21.5t61 -21.5t24 -55.5t-24 -55.5t-61 -21.5z" />
    <glyph glyph-name="cdotaccent" unicode="&#x10b;" horiz-adv-x="467" 
d="M281 -12q-69 0 -124.5 30.5t-88 89t-32.5 140.5q0 83 36 141t95 88.5t127 30.5q46 0 81.5 -15t63.5 -38l-69 -95q-35 29 -67 29q-53 0 -84.5 -38t-31.5 -103q0 -64 31.5 -102.5t79.5 -38.5q24 0 47 10.5t42 25.5l58 -96q-37 -32 -80 -45.5t-84 -13.5zM278 569
q-37 0 -60 21t-23 56t23 56t60 21t60 -21t23 -56t-23 -56t-60 -21z" />
    <glyph glyph-name="Ccaron" unicode="&#x10c;" horiz-adv-x="582" 
d="M349 -12q-82 0 -151 38t-110.5 112.5t-41.5 183.5q0 108 42.5 184.5t113 117t152.5 40.5q63 0 113 -25.5t83 -59.5l-78 -94q-25 23 -52.5 37.5t-62.5 14.5q-44 0 -80.5 -25t-58 -72t-21.5 -113q0 -100 43 -156t115 -56q40 0 71.5 18t55.5 43l78 -92q-82 -96 -211 -96z
M263 702l-90 110l64 40l104 -84h4l104 84l64 -40l-90 -110h-160z" />
    <glyph glyph-name="ccaron" unicode="&#x10d;" horiz-adv-x="467" 
d="M281 -12q-69 0 -124.5 30.5t-88 89t-32.5 140.5q0 83 36 141t95 88.5t127 30.5q46 0 81.5 -15t63.5 -38l-69 -95q-35 29 -67 29q-53 0 -84.5 -38t-31.5 -103q0 -64 31.5 -102.5t79.5 -38.5q24 0 47 10.5t42 25.5l58 -96q-37 -32 -80 -45.5t-84 -13.5zM203 577l-108 131
l56 52l125 -92h4l125 92l56 -52l-108 -131h-150z" />
    <glyph glyph-name="Dcaron" unicode="&#x10e;" horiz-adv-x="635" 
d="M77 0v652h184q100 0 173 -34t113.5 -105.5t40.5 -183.5t-40 -185t-111.5 -108.5t-167.5 -35.5h-192zM224 119h28q56 0 97.5 20t64.5 66t23 124t-23 122.5t-64.5 63t-97.5 18.5h-28v-414zM238 702l-90 110l64 40l104 -84h4l104 84l64 -40l-90 -110h-160z" />
    <glyph glyph-name="dcaron" unicode="&#x10f;" horiz-adv-x="614" 
d="M242 -12q-92 0 -147.5 69.5t-55.5 190.5q0 81 29.5 139.5t77 89.5t99.5 31q41 0 69 -14t53 -38l-6 76v169h147v-701h-120l-10 49h-4q-26 -26 -61 -43.5t-71 -17.5zM280 108q24 0 43.5 10t37.5 35v203q-19 18 -40.5 25t-41.5 7q-35 0 -62 -33.5t-27 -104.5
q0 -73 23.5 -107.5t66.5 -34.5zM552 548l-6 222h95l-2 -69l-24 -153h-63z" />
    <glyph glyph-name="Dcroat" unicode="&#x110;" horiz-adv-x="660" 
d="M102 0v301h-76v66l76 5v280h184q100 0 173 -34t113.5 -105.5t40.5 -183.5t-40 -185t-111.5 -108.5t-167.5 -35.5h-192zM249 119h28q56 0 97.5 20t64.5 66t23 124t-23 122.5t-64.5 63t-97.5 18.5h-28v-161h125v-71h-125v-182z" />
    <glyph glyph-name="dcroat" unicode="&#x111;" horiz-adv-x="573" 
d="M242 -12q-61 0 -107 29.5t-71 83t-25 124.5t29.5 123.5t77 82t99.5 29.5q41 0 69 -14.5t53 -37.5l-6 75v73h-149v71h149v74h147v-74h68v-65l-68 -5v-557h-123l-9 44h-4q-25 -25 -58.5 -40.5t-71.5 -15.5zM280 108q24 0 43.5 10t37.5 35v155q-19 17 -40.5 24t-41.5 7
q-35 0 -62 -28.5t-27 -83.5q0 -58 23.5 -88.5t66.5 -30.5z" />
    <glyph glyph-name="Emacron" unicode="&#x112;" horiz-adv-x="548" 
d="M77 0v652h408v-124h-261v-131h222v-123h-222v-150h271v-124h-418zM139 721v94h302v-94h-302z" />
    <glyph glyph-name="emacron" unicode="&#x113;" horiz-adv-x="518" 
d="M287 -12q-71 0 -128 31t-90 89t-33 140q0 81 33.5 139t87.5 89.5t113 31.5q71 0 117.5 -31.5t70 -85t23.5 -121.5q0 -19 -2 -37.5t-4 -27.5h-297q10 -54 45 -79.5t84 -25.5q53 0 107 33l49 -89q-38 -26 -85 -41t-91 -15zM177 302h179q0 41 -19.5 67.5t-63.5 26.5
q-34 0 -61 -23.5t-35 -70.5zM120 592v93h296v-93h-296z" />
    <glyph glyph-name="Ebreve" unicode="&#x114;" horiz-adv-x="548" 
d="M77 0v652h408v-124h-261v-131h222v-123h-222v-150h271v-124h-418zM290 697q-74 0 -115 35t-48 102l80 14q7 -31 28 -48.5t55 -17.5t55 17.5t28 48.5l80 -14q-7 -67 -48 -102t-115 -35z" />
    <glyph glyph-name="ebreve" unicode="&#x115;" horiz-adv-x="518" 
d="M287 -12q-71 0 -128 31t-90 89t-33 140q0 81 33.5 139t87.5 89.5t113 31.5q71 0 117.5 -31.5t70 -85t23.5 -121.5q0 -19 -2 -37.5t-4 -27.5h-297q10 -54 45 -79.5t84 -25.5q53 0 107 33l49 -89q-38 -26 -85 -41t-91 -15zM177 302h179q0 41 -19.5 67.5t-63.5 26.5
q-34 0 -61 -23.5t-35 -70.5zM268 572q-85 0 -126 45.5t-43 111.5l84 14q5 -32 25 -55.5t60 -23.5t60.5 23.5t24.5 55.5l84 -14q-2 -66 -42.5 -111.5t-126.5 -45.5z" />
    <glyph glyph-name="Edotaccent" unicode="&#x116;" horiz-adv-x="548" 
d="M77 0v652h408v-124h-261v-131h222v-123h-222v-150h271v-124h-418zM290 701q-37 0 -61 21.5t-24 55.5t24 55.5t61 21.5t61 -21.5t24 -55.5t-24 -55.5t-61 -21.5z" />
    <glyph glyph-name="edotaccent" unicode="&#x117;" horiz-adv-x="518" 
d="M287 -12q-71 0 -128 31t-90 89t-33 140q0 81 33.5 139t87.5 89.5t113 31.5q71 0 117.5 -31.5t70 -85t23.5 -121.5q0 -19 -2 -37.5t-4 -27.5h-297q10 -54 45 -79.5t84 -25.5q53 0 107 33l49 -89q-38 -26 -85 -41t-91 -15zM177 302h179q0 41 -19.5 67.5t-63.5 26.5
q-34 0 -61 -23.5t-35 -70.5zM268 569q-37 0 -60 21t-23 56t23 56t60 21t60 -21t23 -56t-23 -56t-60 -21z" />
    <glyph glyph-name="Eogonek" unicode="&#x118;" horiz-adv-x="548" 
d="M411 -223q-48 0 -81.5 24.5t-33.5 69.5q0 30 12.5 55t31 44.5t35.5 29.5h-298v652h408v-124h-261v-131h222v-123h-222v-150h271v-124h-5q-23 -1 -42.5 -14.5t-31.5 -34t-12 -41.5q0 -19 13 -28.5t29 -9.5q10 0 19.5 4.5t16.5 9.5l34 -74q-19 -15 -49 -25t-56 -10z" />
    <glyph glyph-name="eogonek" unicode="&#x119;" horiz-adv-x="518" 
d="M362 -210q-44 0 -74 23t-30 68q0 37 18.5 65.5t37.5 44.5q-9 -2 -15.5 -2.5t-11.5 -0.5q-71 0 -128 31t-90 89t-33 140q0 81 33.5 139t87.5 89.5t113 31.5q71 0 117.5 -31.5t70 -85t23.5 -121.5q0 -19 -2 -37.5t-4 -27.5h-297q10 -54 45 -79.5t84 -25.5q53 0 107 33
l49 -89q-44 -30 -67.5 -52t-32 -39.5t-8.5 -37.5q0 -19 12.5 -28.5t30.5 -9.5q10 0 19 4t16 8l30 -66q-19 -15 -48 -24t-53 -9zM177 302h179q0 41 -19.5 67.5t-63.5 26.5q-34 0 -61 -23.5t-35 -70.5z" />
    <glyph glyph-name="Ecaron" unicode="&#x11a;" horiz-adv-x="548" 
d="M77 0v652h408v-124h-261v-131h222v-123h-222v-150h271v-124h-418zM210 702l-90 110l64 40l104 -84h4l104 84l64 -40l-90 -110h-160z" />
    <glyph glyph-name="ecaron" unicode="&#x11b;" horiz-adv-x="518" 
d="M287 -12q-71 0 -128 31t-90 89t-33 140q0 81 33.5 139t87.5 89.5t113 31.5q71 0 117.5 -31.5t70 -85t23.5 -121.5q0 -19 -2 -37.5t-4 -27.5h-297q10 -54 45 -79.5t84 -25.5q53 0 107 33l49 -89q-38 -26 -85 -41t-91 -15zM177 302h179q0 41 -19.5 67.5t-63.5 26.5
q-34 0 -61 -23.5t-35 -70.5zM193 577l-108 131l56 52l125 -92h4l125 92l56 -52l-108 -131h-150z" />
    <glyph glyph-name="Gcircumflex" unicode="&#x11c;" horiz-adv-x="638" 
d="M365 -12q-89 0 -161.5 38t-115 112.5t-42.5 183.5q0 108 43.5 184.5t115.5 117t159 40.5q71 0 122 -26t83 -59l-77 -94q-25 22 -53 37t-70 15q-76 0 -124 -56t-48 -154q0 -100 46 -156t137 -56q20 0 39 5t31 15v112h-108v120h238v-300q-34 -33 -90.5 -56t-124.5 -23z
M259 685l-64 39l90 111h160l90 -111l-64 -39l-104 84h-4z" />
    <glyph glyph-name="gcircumflex" unicode="&#x11d;" horiz-adv-x="534" 
d="M242 -211q-58 0 -105 13t-75 41t-28 72q0 60 71 100v4q-19 13 -32.5 33t-13.5 51q0 27 16 52t40 41v4q-26 18 -46.5 52t-20.5 77q0 60 29 99.5t76 59.5t100 20q44 0 77 -12h181v-107h-79q7 -11 11.5 -28t4.5 -37q0 -57 -26 -94t-70 -55t-99 -18q-29 0 -60 10
q-18 -15 -18 -37q0 -19 17 -28t58 -9h80q92 0 140.5 -29.5t48.5 -96.5q0 -51 -34 -91.5t-96 -63.5t-147 -23zM253 246q29 0 48.5 21t19.5 62q0 39 -19.5 59.5t-48.5 20.5t-48.5 -20t-19.5 -60q0 -41 19.5 -62t48.5 -21zM265 -119q50 0 82 18t32 43q0 23 -19.5 31t-56.5 8
h-51q-25 0 -41.5 1.5t-28.5 4.5q-27 -24 -27 -49q0 -28 30.5 -42.5t79.5 -14.5zM88 613l108 131h150l108 -131l-56 -52l-125 92h-4l-125 -92z" />
    <glyph glyph-name="Gbreve" unicode="&#x11e;" horiz-adv-x="638" 
d="M365 -12q-89 0 -161.5 38t-115 112.5t-42.5 183.5q0 108 43.5 184.5t115.5 117t159 40.5q71 0 122 -26t83 -59l-77 -94q-25 22 -53 37t-70 15q-76 0 -124 -56t-48 -154q0 -100 46 -156t137 -56q20 0 39 5t31 15v112h-108v120h238v-300q-34 -33 -90.5 -56t-124.5 -23z
M365 697q-74 0 -115 35t-48 102l80 14q7 -31 28 -48.5t55 -17.5t55 17.5t28 48.5l80 -14q-7 -67 -48 -102t-115 -35z" />
    <glyph glyph-name="gbreve" unicode="&#x11f;" horiz-adv-x="534" 
d="M242 -211q-58 0 -105 13t-75 41t-28 72q0 60 71 100v4q-19 13 -32.5 33t-13.5 51q0 27 16 52t40 41v4q-26 18 -46.5 52t-20.5 77q0 60 29 99.5t76 59.5t100 20q44 0 77 -12h181v-107h-79q7 -11 11.5 -28t4.5 -37q0 -57 -26 -94t-70 -55t-99 -18q-29 0 -60 10
q-18 -15 -18 -37q0 -19 17 -28t58 -9h80q92 0 140.5 -29.5t48.5 -96.5q0 -51 -34 -91.5t-96 -63.5t-147 -23zM253 246q29 0 48.5 21t19.5 62q0 39 -19.5 59.5t-48.5 20.5t-48.5 -20t-19.5 -60q0 -41 19.5 -62t48.5 -21zM265 -119q50 0 82 18t32 43q0 23 -19.5 31t-56.5 8
h-51q-25 0 -41.5 1.5t-28.5 4.5q-27 -24 -27 -49q0 -28 30.5 -42.5t79.5 -14.5zM271 572q-85 0 -126 45.5t-43 111.5l84 14q5 -32 25 -55.5t60 -23.5t60.5 23.5t24.5 55.5l84 -14q-2 -66 -42.5 -111.5t-126.5 -45.5z" />
    <glyph glyph-name="Gdotaccent" unicode="&#x120;" horiz-adv-x="638" 
d="M365 -12q-89 0 -161.5 38t-115 112.5t-42.5 183.5q0 108 43.5 184.5t115.5 117t159 40.5q71 0 122 -26t83 -59l-77 -94q-25 22 -53 37t-70 15q-76 0 -124 -56t-48 -154q0 -100 46 -156t137 -56q20 0 39 5t31 15v112h-108v120h238v-300q-34 -33 -90.5 -56t-124.5 -23z
M365 701q-37 0 -61 21.5t-24 55.5t24 55.5t61 21.5t61 -21.5t24 -55.5t-24 -55.5t-61 -21.5z" />
    <glyph glyph-name="gdotaccent" unicode="&#x121;" horiz-adv-x="534" 
d="M242 -211q-58 0 -105 13t-75 41t-28 72q0 60 71 100v4q-19 13 -32.5 33t-13.5 51q0 27 16 52t40 41v4q-26 18 -46.5 52t-20.5 77q0 60 29 99.5t76 59.5t100 20q44 0 77 -12h181v-107h-79q7 -11 11.5 -28t4.5 -37q0 -57 -26 -94t-70 -55t-99 -18q-29 0 -60 10
q-18 -15 -18 -37q0 -19 17 -28t58 -9h80q92 0 140.5 -29.5t48.5 -96.5q0 -51 -34 -91.5t-96 -63.5t-147 -23zM253 246q29 0 48.5 21t19.5 62q0 39 -19.5 59.5t-48.5 20.5t-48.5 -20t-19.5 -60q0 -41 19.5 -62t48.5 -21zM265 -119q50 0 82 18t32 43q0 23 -19.5 31t-56.5 8
h-51q-25 0 -41.5 1.5t-28.5 4.5q-27 -24 -27 -49q0 -28 30.5 -42.5t79.5 -14.5zM271 569q-37 0 -60 21t-23 56t23 56t60 21t60 -21t23 -56t-23 -56t-60 -21z" />
    <glyph glyph-name="uni0122" unicode="&#x122;" horiz-adv-x="638" 
d="M365 -12q-89 0 -161.5 38t-115 112.5t-42.5 183.5q0 108 43.5 184.5t115.5 117t159 40.5q71 0 122 -26t83 -59l-77 -94q-25 22 -53 37t-70 15q-76 0 -124 -56t-48 -154q0 -100 46 -156t137 -56q20 0 39 5t31 15v112h-108v120h238v-300q-34 -33 -90.5 -56t-124.5 -23z
M263 -239l-11 59q59 3 81 12.5t22 26.5q0 14 -15 23t-49 12l28 54q80 -7 110.5 -27t30.5 -57q0 -51 -51.5 -75.5t-145.5 -27.5z" />
    <glyph glyph-name="uni0123" unicode="&#x123;" horiz-adv-x="534" 
d="M242 -211q-58 0 -105 13t-75 41t-28 72q0 60 71 100v4q-19 13 -32.5 33t-13.5 51q0 27 16 52t40 41v4q-26 18 -46.5 52t-20.5 77q0 60 29 99.5t76 59.5t100 20q44 0 77 -12h181v-107h-79q7 -11 11.5 -28t4.5 -37q0 -57 -26 -94t-70 -55t-99 -18q-29 0 -60 10
q-18 -15 -18 -37q0 -19 17 -28t58 -9h80q92 0 140.5 -29.5t48.5 -96.5q0 -51 -34 -91.5t-96 -63.5t-147 -23zM253 246q29 0 48.5 21t19.5 62q0 39 -19.5 59.5t-48.5 20.5t-48.5 -20t-19.5 -60q0 -41 19.5 -62t48.5 -21zM265 -119q50 0 82 18t32 43q0 23 -19.5 31t-56.5 8
h-51q-25 0 -41.5 1.5t-28.5 4.5q-27 -24 -27 -49q0 -28 30.5 -42.5t79.5 -14.5zM317 568q-80 7 -110.5 27t-30.5 57q0 51 51.5 75.5t145.5 27.5l11 -59q-58 -3 -80.5 -12t-22.5 -27q0 -14 15 -23t49 -12z" />
    <glyph glyph-name="Hcircumflex" unicode="&#x124;" horiz-adv-x="674" 
d="M77 0v652h147v-251h225v251h148v-652h-148v272h-225v-272h-147zM230 685l-64 39l90 111h160l90 -111l-64 -39l-104 84h-4z" />
    <glyph glyph-name="hcircumflex" unicode="&#x125;" horiz-adv-x="571" 
d="M65 0v701h147v-172l-7 -89q28 25 65.5 46.5t87.5 21.5q81 0 117.5 -53.5t36.5 -146.5v-308h-147v289q0 54 -14.5 74t-46.5 20q-28 0 -48 -12.5t-44 -35.5v-335h-147zM207 733l-64 39l90 111h160l90 -111l-64 -39l-104 84h-4z" />
    <glyph glyph-name="Hbar" unicode="&#x126;" horiz-adv-x="712" 
d="M97 0v475h-72v91l72 6v80h147v-80h225v80h148v-80h70v-97h-70v-475h-148v272h-225v-272h-147zM244 401h225v74h-225v-74z" />
    <glyph glyph-name="hbar" unicode="&#x127;" horiz-adv-x="571" 
d="M65 0v530h-68v91l68 5v75h147v-74h169v-97h-169v-49l-7 -90q28 26 65.5 47.5t87.5 21.5q81 0 117.5 -53.5t36.5 -146.5v-260h-147v241q0 53 -14.5 73t-46.5 20q-28 0 -48 -12.5t-44 -35.5v-286h-147z" />
    <glyph glyph-name="Itilde" unicode="&#x128;" horiz-adv-x="301" 
d="M77 0v652h147v-652h-147zM223 692q-35 0 -59.5 14.5t-42.5 29t-35 14.5q-14 0 -24 -11t-13 -38l-95 7q4 76 39.5 110t87.5 34q36 0 60 -14.5t42.5 -29t34.5 -14.5q14 0 24 11t13 38l95 -7q-4 -75 -39 -109.5t-88 -34.5z" />
    <glyph glyph-name="itilde" unicode="&#x129;" horiz-adv-x="276" 
d="M65 0v496h147v-496h-147zM204 573q-24 0 -42.5 9.5t-34 22.5t-28 22.5t-24.5 9.5q-15 0 -23.5 -13t-11.5 -42l-92 5q2 77 34 114.5t90 37.5q24 0 42.5 -9.5t34 -22.5t28 -22.5t24.5 -9.5q29 0 35 55l92 -5q-2 -77 -34 -114.5t-90 -37.5z" />
    <glyph glyph-name="Imacron" unicode="&#x12a;" horiz-adv-x="301" 
d="M77 0v652h147v-652h-147zM1 721v94h302v-94h-302z" />
    <glyph glyph-name="imacron" unicode="&#x12b;" horiz-adv-x="276" 
d="M65 0v496h147v-496h-147zM-10 592v93h296v-93h-296z" />
    <glyph glyph-name="uni012C" unicode="&#x12c;" horiz-adv-x="301" 
d="M77 0v652h147v-652h-147zM152 697q-74 0 -115 35t-48 102l80 14q7 -31 28 -48.5t55 -17.5t55 17.5t28 48.5l80 -14q-7 -67 -48 -102t-115 -35z" />
    <glyph glyph-name="uni012D" unicode="&#x12d;" horiz-adv-x="276" 
d="M65 0v496h147v-496h-147zM138 572q-85 0 -126 45.5t-43 111.5l84 14q5 -32 25 -55.5t60 -23.5t60.5 23.5t24.5 55.5l84 -14q-2 -66 -42.5 -111.5t-126.5 -45.5z" />
    <glyph glyph-name="Iogonek" unicode="&#x12e;" horiz-adv-x="301" 
d="M157 -223q-48 0 -81.5 24.5t-33.5 69.5q0 44 26 78t51 51h-42v652h147v-652q-40 -16 -57 -40t-17 -50q0 -19 13 -28.5t28 -9.5q11 0 20.5 4.5t16.5 9.5l33 -74q-19 -15 -48.5 -25t-55.5 -10z" />
    <glyph glyph-name="iogonek" unicode="&#x12f;" horiz-adv-x="276" 
d="M147 -210q-44 0 -75 23t-31 68q0 29 11 52t26.5 40t27.5 27h-41v496h147v-496q-40 -15 -56 -38.5t-16 -46.5q0 -19 13 -28.5t30 -9.5q9 0 17.5 4t17.5 8l30 -66q-19 -15 -48.5 -24t-52.5 -9zM138 569q-37 0 -61 21.5t-24 55.5t24 55t61 21t61 -21t24 -55t-24 -55.5
t-61 -21.5z" />
    <glyph glyph-name="Idotaccent" unicode="&#x130;" horiz-adv-x="301" 
d="M77 0v652h147v-652h-147zM152 701q-37 0 -61 21.5t-24 55.5t24 55.5t61 21.5t61 -21.5t24 -55.5t-24 -55.5t-61 -21.5z" />
    <glyph glyph-name="dotlessi" unicode="&#x131;" horiz-adv-x="276" 
d="M65 0v496h147v-496h-147z" />
    <glyph glyph-name="uni0132" unicode="&#x132;" horiz-adv-x="602" 
d="M77 0v652h147v-652h-147zM348 -182q-31 0 -51.5 4t-36.5 10l27 109q10 -3 19 -5t19 -2q30 0 41.5 19.5t11.5 60.5v638h148v-634q0 -54 -16.5 -99.5t-55 -73t-106.5 -27.5z" />
    <glyph glyph-name="uni0133" unicode="&#x133;" horiz-adv-x="554" 
d="M65 0v496h147v-496h-147zM138 569q-37 0 -60 21t-23 56t23 56t60 21t60 -21t23 -56t-23 -56t-60 -21zM312 -196q-31 0 -51.5 4t-35.5 10l26 108q10 -3 19.5 -5t19.5 -2q29 0 40.5 19.5t11.5 60.5v497h147v-493q0 -54 -16 -99t-54.5 -72.5t-106.5 -27.5zM416 569
q-37 0 -60 21t-23 56t23 56t60 21t60 -21t23 -56t-23 -56t-60 -21z" />
    <glyph glyph-name="Jcircumflex" unicode="&#x134;" horiz-adv-x="509" 
d="M226 -12q-74 0 -125 29.5t-85 88.5l100 74q18 -33 42 -49t49 -16q40 0 60.5 24.5t20.5 89.5v423h147v-435q0 -63 -22 -115t-68.5 -83t-118.5 -31zM253 685l-64 39l90 111h160l90 -111l-64 -39l-104 84h-4z" />
    <glyph glyph-name="jcircumflex" unicode="&#x135;" horiz-adv-x="278" 
d="M36 -196q-31 0 -51.5 4t-35.5 10l26 108q10 -3 19.5 -5t19.5 -2q29 0 40.5 19.5t11.5 60.5v497h147v-493q0 -54 -16 -99t-54.5 -72.5t-106.5 -27.5zM-43 613l108 131h150l108 -131l-56 -52l-125 92h-4l-125 -92z" />
    <glyph glyph-name="uni0136" unicode="&#x136;" horiz-adv-x="614" 
d="M77 0v652h147v-267h4l194 267h162l-197 -260l233 -392h-161l-159 275l-76 -100v-175h-147zM230 -239l-11 59q59 3 81 12.5t22 26.5q0 14 -15 23t-49 12l28 54q80 -7 110.5 -27t30.5 -57q0 -51 -51.5 -75.5t-145.5 -27.5z" />
    <glyph glyph-name="uni0137" unicode="&#x137;" horiz-adv-x="548" 
d="M65 0v701h143v-402h4l157 197h160l-174 -204l187 -292h-159l-112 193l-63 -71v-122h-143zM191 -239l-11 59q59 3 81 12.5t22 26.5q0 14 -15 23t-49 12l28 54q80 -7 110.5 -27t30.5 -57q0 -51 -51.5 -75.5t-145.5 -27.5z" />
    <glyph glyph-name="kgreenlandic" unicode="&#x138;" horiz-adv-x="548" 
d="M65 0v496h147v-200h3l154 200h160l-170 -204l183 -292h-159l-112 189l-59 -72v-117h-147z" />
    <glyph glyph-name="Lacute" unicode="&#x139;" horiz-adv-x="518" 
d="M77 0v652h147v-528h258v-124h-405zM144 680l-66 74l171 140l78 -95z" />
    <glyph glyph-name="lacute" unicode="&#x13a;" horiz-adv-x="286" 
d="M200 -12q-76 0 -105.5 45.5t-29.5 120.5v547h147v-553q0 -23 8.5 -32t17.5 -9q5 0 8.5 0.5t9.5 1.5l18 -109q-12 -5 -30.5 -8.5t-43.5 -3.5zM133 728l-66 74l171 140l78 -95z" />
    <glyph glyph-name="uni013B" unicode="&#x13b;" horiz-adv-x="518" 
d="M77 0v652h147v-528h258v-124h-405zM188 -239l-11 59q59 3 81 12.5t22 26.5q0 14 -15 23t-49 12l28 54q80 -7 110.5 -27t30.5 -57q0 -51 -51.5 -75.5t-145.5 -27.5z" />
    <glyph glyph-name="uni013C" unicode="&#x13c;" horiz-adv-x="286" 
d="M200 -12q-76 0 -105.5 45.5t-29.5 120.5v547h147v-553q0 -23 8.5 -32t17.5 -9q5 0 8.5 0.5t9.5 1.5l18 -109q-12 -5 -30.5 -8.5t-43.5 -3.5zM61 -239l-11 59q59 3 81 12.5t22 26.5q0 14 -15 23t-49 12l28 54q80 -7 110.5 -27t30.5 -57q0 -51 -51.5 -75.5t-145.5 -27.5z
" />
    <glyph glyph-name="Lcaron" unicode="&#x13d;" horiz-adv-x="518" 
d="M77 0v652h147v-528h258v-124h-405zM353 510l-6 222h95l-2 -69l-24 -153h-63z" />
    <glyph glyph-name="lcaron" unicode="&#x13e;" horiz-adv-x="318" 
d="M200 -12q-76 0 -105.5 45.5t-29.5 120.5v547h147v-553q0 -23 8.5 -32t17.5 -9q5 0 8.5 0.5t9.5 1.5l18 -109q-12 -5 -30.5 -8.5t-43.5 -3.5zM255 548l-6 222h95l-2 -69l-24 -153h-63z" />
    <glyph glyph-name="Ldot" unicode="&#x13f;" horiz-adv-x="518" 
d="M77 0v652h147v-528h258v-124h-405zM410 236q-38 0 -63.5 26.5t-25.5 65.5q0 40 25.5 66.5t63.5 26.5t63.5 -26.5t25.5 -66.5q0 -39 -25.5 -65.5t-63.5 -26.5z" />
    <glyph glyph-name="ldot" unicode="&#x140;" horiz-adv-x="453" 
d="M200 -12q-76 0 -105.5 45.5t-29.5 120.5v547h147v-553q0 -23 8.5 -32t17.5 -9q5 0 8.5 0.5t9.5 1.5l18 -109q-12 -5 -30.5 -8.5t-43.5 -3.5zM364 236q-38 0 -63.5 26.5t-25.5 65.5q0 40 25.5 66.5t63.5 26.5t63.5 -26.5t25.5 -66.5q0 -39 -25.5 -65.5t-63.5 -26.5z" />
    <glyph glyph-name="Lslash" unicode="&#x141;" horiz-adv-x="524" 
d="M84 0v210l-57 -34l-50 88l107 60v328h147v-260l158 87l50 -88l-208 -113v-154h258v-124h-405z" />
    <glyph glyph-name="lslash" unicode="&#x142;" horiz-adv-x="339" 
d="M226 -12q-76 0 -105.5 45.5t-29.5 120.5v124l-62 -37l-49 91l111 60v309h147v-239l73 42l48 -91l-121 -64v-201q0 -23 8.5 -32t17.5 -9q5 0 8.5 0.5t9.5 1.5l18 -109q-12 -5 -30.5 -8.5t-43.5 -3.5z" />
    <glyph glyph-name="Nacute" unicode="&#x143;" horiz-adv-x="665" 
d="M77 0v652h151l170 -324l64 -144h4q-4 52 -11 116t-7 122v230h140v-652h-151l-170 325l-64 142h-4q5 -54 11.5 -116t6.5 -120v-231h-140zM328 680l-66 74l171 140l78 -95z" />
    <glyph glyph-name="nacute" unicode="&#x144;" horiz-adv-x="572" 
d="M65 0v496h120l10 -63h4q32 30 70.5 52.5t88.5 22.5q81 0 117.5 -53.5t36.5 -146.5v-308h-147v289q0 54 -14.5 74t-46.5 20q-28 0 -48 -12.5t-44 -35.5v-335h-147zM323 572l-72 72l154 182l99 -97z" />
    <glyph glyph-name="uni0145" unicode="&#x145;" horiz-adv-x="665" 
d="M77 0v652h151l170 -324l64 -144h4q-4 52 -11 116t-7 122v230h140v-652h-151l-170 325l-64 142h-4q5 -54 11.5 -116t6.5 -120v-231h-140zM243 -239l-11 59q59 3 81 12.5t22 26.5q0 14 -15 23t-49 12l28 54q80 -7 110.5 -27t30.5 -57q0 -51 -51.5 -75.5t-145.5 -27.5z" />
    <glyph glyph-name="uni0146" unicode="&#x146;" horiz-adv-x="572" 
d="M65 0v496h120l10 -63h4q32 30 70.5 52.5t88.5 22.5q81 0 117.5 -53.5t36.5 -146.5v-308h-147v289q0 54 -14.5 74t-46.5 20q-28 0 -48 -12.5t-44 -35.5v-335h-147zM184 -239l-11 59q59 3 81 12.5t22 26.5q0 14 -15 23t-49 12l28 54q80 -7 110.5 -27t30.5 -57
q0 -51 -51.5 -75.5t-145.5 -27.5z" />
    <glyph glyph-name="Ncaron" unicode="&#x147;" horiz-adv-x="665" 
d="M77 0v652h151l170 -324l64 -144h4q-4 52 -11 116t-7 122v230h140v-652h-151l-170 325l-64 142h-4q5 -54 11.5 -116t6.5 -120v-231h-140zM258 702l-90 110l64 40l104 -84h4l104 84l64 -40l-90 -110h-160z" />
    <glyph glyph-name="ncaron" unicode="&#x148;" horiz-adv-x="572" 
d="M65 0v496h120l10 -63h4q32 30 70.5 52.5t88.5 22.5q81 0 117.5 -53.5t36.5 -146.5v-308h-147v289q0 54 -14.5 74t-46.5 20q-28 0 -48 -12.5t-44 -35.5v-335h-147zM238 577l-108 131l56 52l125 -92h4l125 92l56 -52l-108 -131h-150z" />
    <glyph glyph-name="napostrophe" unicode="&#x149;" horiz-adv-x="850" 
d="M103 352l-32 64q45 23 67.5 53t22.5 74q-3 -1 -9 -1q-32 0 -54.5 19.5t-22.5 53.5q0 38 21.5 60t55.5 22q46 0 70 -34.5t24 -96.5q0 -144 -143 -214zM343 0v496h120l10 -63h4q32 30 70.5 52.5t88.5 22.5q81 0 117.5 -53.5t36.5 -146.5v-308h-147v289q0 54 -14.5 74
t-46.5 20q-28 0 -48 -12.5t-44 -35.5v-335h-147z" />
    <glyph glyph-name="uni014A" unicode="&#x14a;" horiz-adv-x="666" 
d="M412 -12q-23 0 -49 4.5t-41 14.5l32 127q8 -4 18 -6.5t23 -2.5q20 0 37 16.5t27 61t10 128.5q0 113 -31 159.5t-86 46.5q-31 0 -67 -21t-61 -61v-455h-147v652h142v-70q38 40 82.5 61t94.5 21q64 0 114.5 -32.5t80 -105.5t29.5 -195q0 -174 -50.5 -258.5t-157.5 -84.5z
" />
    <glyph glyph-name="uni014B" unicode="&#x14b;" horiz-adv-x="572" 
d="M335 -196q-31 0 -51.5 4t-36.5 10l27 108q10 -3 19 -5t19 -2q30 0 41.5 19.5t11.5 60.5v290q0 54 -14.5 74t-46.5 20q-28 0 -48 -12.5t-44 -35.5v-335h-147v496h120l10 -63h4q32 30 70.5 52.5t88.5 22.5q81 0 117.5 -53.5t36.5 -146.5v-305q0 -54 -16 -99t-54.5 -72.5
t-106.5 -27.5z" />
    <glyph glyph-name="Omacron" unicode="&#x14c;" horiz-adv-x="684" 
d="M342 -12q-88 0 -154.5 41t-104 117.5t-37.5 182.5q0 107 37.5 181.5t104 114t154.5 39.5t154.5 -39.5t104 -114.5t37.5 -181t-37.5 -182.5t-104 -117.5t-154.5 -41zM342 115q67 0 106 58t39 156t-39 153t-106 55t-106 -55t-39 -153t39 -156t106 -58zM191 721v94h302v-94
h-302z" />
    <glyph glyph-name="omacron" unicode="&#x14d;" horiz-adv-x="555" 
d="M278 -12q-63 0 -118.5 30.5t-89.5 89t-34 140.5q0 83 34 141t89.5 88.5t118.5 30.5t118 -30.5t89 -88.5t34 -141q0 -82 -34 -140.5t-89 -89t-118 -30.5zM278 107q45 0 68 38.5t23 102.5q0 65 -23 103t-68 38q-46 0 -68.5 -38t-22.5 -103q0 -64 22.5 -102.5t68.5 -38.5z
M130 592v93h296v-93h-296z" />
    <glyph glyph-name="uni014E" unicode="&#x14e;" horiz-adv-x="684" 
d="M342 -12q-88 0 -154.5 41t-104 117.5t-37.5 182.5q0 107 37.5 181.5t104 114t154.5 39.5t154.5 -39.5t104 -114.5t37.5 -181t-37.5 -182.5t-104 -117.5t-154.5 -41zM342 115q67 0 106 58t39 156t-39 153t-106 55t-106 -55t-39 -153t39 -156t106 -58zM342 697
q-74 0 -115 35t-48 102l80 14q7 -31 28 -48.5t55 -17.5t55 17.5t28 48.5l80 -14q-7 -67 -48 -102t-115 -35z" />
    <glyph glyph-name="uni014F" unicode="&#x14f;" horiz-adv-x="555" 
d="M278 -12q-63 0 -118.5 30.5t-89.5 89t-34 140.5q0 83 34 141t89.5 88.5t118.5 30.5t118 -30.5t89 -88.5t34 -141q0 -82 -34 -140.5t-89 -89t-118 -30.5zM278 107q45 0 68 38.5t23 102.5q0 65 -23 103t-68 38q-46 0 -68.5 -38t-22.5 -103q0 -64 22.5 -102.5t68.5 -38.5z
M278 572q-85 0 -126 45.5t-43 111.5l84 14q5 -32 25 -55.5t60 -23.5t60.5 23.5t24.5 55.5l84 -14q-2 -66 -42.5 -111.5t-126.5 -45.5z" />
    <glyph glyph-name="Ohungarumlaut" unicode="&#x150;" horiz-adv-x="684" 
d="M342 -12q-88 0 -154.5 41t-104 117.5t-37.5 182.5q0 107 37.5 181.5t104 114t154.5 39.5t154.5 -39.5t104 -114.5t37.5 -181t-37.5 -182.5t-104 -117.5t-154.5 -41zM342 115q67 0 106 58t39 156t-39 153t-106 55t-106 -55t-39 -153t39 -156t106 -58zM279 694l-72 34
l101 161l93 -52zM467 694l-73 34l101 161l94 -52z" />
    <glyph glyph-name="ohungarumlaut" unicode="&#x151;" horiz-adv-x="555" 
d="M278 -12q-63 0 -118.5 30.5t-89.5 89t-34 140.5q0 83 34 141t89.5 88.5t118.5 30.5t118 -30.5t89 -88.5t34 -141q0 -82 -34 -140.5t-89 -89t-118 -30.5zM278 107q45 0 68 38.5t23 102.5q0 65 -23 103t-68 38q-46 0 -68.5 -38t-22.5 -103q0 -64 22.5 -102.5t68.5 -38.5z
M226 565l-77 35l87 181l99 -44zM405 565l-77 35l87 181l99 -44z" />
    <glyph glyph-name="OE" unicode="&#x152;" horiz-adv-x="871" 
d="M373 0q-93 0 -167 35.5t-117 108.5t-43 185t43.5 183.5t119 105.5t172.5 34h427v-124h-247v-131h208v-123h-208v-150h257v-124h-445zM390 119h23v414h-23q-57 0 -100.5 -18.5t-68 -62.5t-24.5 -123t24.5 -125t68 -65.5t100.5 -19.5z" />
    <glyph glyph-name="oe" unicode="&#x153;" horiz-adv-x="822" 
d="M267 -12q-63 0 -115.5 30.5t-84 89t-31.5 140.5q0 83 32 141t85.5 88.5t116.5 30.5q53 0 93 -23t68 -64q30 41 71 64t86 23q66 0 110 -32t66 -86.5t22 -122.5q0 -20 -2 -36.5t-4 -25.5h-287q8 -52 41 -77t78 -25q28 0 53 10t52 26l51 -95q-38 -26 -85 -41t-91 -15
q-45 0 -87 23t-73 64q-31 -43 -70.5 -65t-94.5 -22zM270 107q41 0 64 38.5t23 102.5q0 65 -23 103t-64 38q-40 0 -62.5 -38t-22.5 -103q0 -64 22.5 -102.5t62.5 -38.5zM493 295h167q0 45 -18 73t-59 28q-34 0 -59 -24.5t-31 -76.5z" />
    <glyph glyph-name="Racute" unicode="&#x154;" horiz-adv-x="613" 
d="M77 0v652h235q69 0 126 -18.5t91 -62.5t34 -122q0 -72 -31.5 -118.5t-84.5 -69.5l148 -261h-165l-125 235h-81v-235h-147zM224 352h76q58 0 88.5 24.5t30.5 72.5t-30.5 67t-88.5 19h-76v-183zM300 680l-66 74l171 140l78 -95z" />
    <glyph glyph-name="racute" unicode="&#x155;" horiz-adv-x="398" 
d="M65 0v496h120l10 -87h4q27 50 65 74.5t76 24.5q21 0 35 -2.5t24 -7.5l-24 -127q-13 4 -25.5 6t-28.5 2q-28 0 -58.5 -20.5t-50.5 -70.5v-288h-147zM259 572l-72 72l154 182l99 -97z" />
    <glyph glyph-name="uni0156" unicode="&#x156;" horiz-adv-x="613" 
d="M77 0v652h235q69 0 126 -18.5t91 -62.5t34 -122q0 -72 -31.5 -118.5t-84.5 -69.5l148 -261h-165l-125 235h-81v-235h-147zM224 352h76q58 0 88.5 24.5t30.5 72.5t-30.5 67t-88.5 19h-76v-183zM225 -239l-11 59q59 3 81 12.5t22 26.5q0 14 -15 23t-49 12l28 54
q80 -7 110.5 -27t30.5 -57q0 -51 -51.5 -75.5t-145.5 -27.5z" />
    <glyph glyph-name="uni0157" unicode="&#x157;" horiz-adv-x="398" 
d="M65 0v496h120l10 -87h4q27 50 65 74.5t76 24.5q21 0 35 -2.5t24 -7.5l-24 -127q-13 4 -25.5 6t-28.5 2q-28 0 -58.5 -20.5t-50.5 -70.5v-288h-147zM33 -239l-11 59q59 3 81 12.5t22 26.5q0 14 -15 23t-49 12l28 54q80 -7 110.5 -27t30.5 -57q0 -51 -51.5 -75.5
t-145.5 -27.5z" />
    <glyph glyph-name="Rcaron" unicode="&#x158;" horiz-adv-x="613" 
d="M77 0v652h235q69 0 126 -18.5t91 -62.5t34 -122q0 -72 -31.5 -118.5t-84.5 -69.5l148 -261h-165l-125 235h-81v-235h-147zM224 352h76q58 0 88.5 24.5t30.5 72.5t-30.5 67t-88.5 19h-76v-183zM230 702l-90 110l64 40l104 -84h4l104 84l64 -40l-90 -110h-160z" />
    <glyph glyph-name="rcaron" unicode="&#x159;" horiz-adv-x="398" 
d="M65 0v496h120l10 -87h4q27 50 65 74.5t76 24.5q21 0 35 -2.5t24 -7.5l-24 -127q-13 4 -25.5 6t-28.5 2q-28 0 -58.5 -20.5t-50.5 -70.5v-288h-147zM174 577l-108 131l56 52l125 -92h4l125 92l56 -52l-108 -131h-150z" />
    <glyph glyph-name="Sacute" unicode="&#x15a;" horiz-adv-x="556" 
d="M276 -12q-64 0 -127.5 24t-113.5 70l84 101q35 -30 78 -49t83 -19q46 0 68.5 17t22.5 46q0 31 -25.5 45.5t-68.5 32.5l-85 36q-33 14 -63 37.5t-49 58.5t-19 82q0 54 29.5 98t82 70t120.5 26q56 0 112 -22t98 -64l-75 -93q-32 25 -64 38.5t-71 13.5q-38 0 -60.5 -15.5
t-22.5 -43.5q0 -30 28.5 -45t70.5 -32l84 -34q59 -24 94 -66t35 -111q0 -54 -29 -100t-84 -74t-133 -28zM281 680l-66 74l171 140l78 -95z" />
    <glyph glyph-name="sacute" unicode="&#x15b;" horiz-adv-x="443" 
d="M211 -12q-49 0 -100.5 19t-89.5 50l66 92q34 -25 65.5 -38.5t62.5 -13.5q33 0 48 11.5t15 30.5q0 17 -14.5 28t-37.5 20.5t-49 19.5q-30 12 -59.5 30t-49.5 46.5t-20 69.5q0 69 52.5 112t137.5 43q57 0 100.5 -19.5t74.5 -43.5l-66 -88q-26 20 -52 31t-52 11
q-57 0 -57 -39q0 -24 28.5 -36.5t66.5 -26.5q32 -11 62.5 -28.5t51 -46t20.5 -74.5q0 -67 -52 -113.5t-152 -46.5zM245 572l-72 72l154 182l99 -97z" />
    <glyph glyph-name="Scircumflex" unicode="&#x15c;" horiz-adv-x="556" 
d="M276 -12q-64 0 -127.5 24t-113.5 70l84 101q35 -30 78 -49t83 -19q46 0 68.5 17t22.5 46q0 31 -25.5 45.5t-68.5 32.5l-85 36q-33 14 -63 37.5t-49 58.5t-19 82q0 54 29.5 98t82 70t120.5 26q56 0 112 -22t98 -64l-75 -93q-32 25 -64 38.5t-71 13.5q-38 0 -60.5 -15.5
t-22.5 -43.5q0 -30 28.5 -45t70.5 -32l84 -34q59 -24 94 -66t35 -111q0 -54 -29 -100t-84 -74t-133 -28zM185 685l-64 39l90 111h160l90 -111l-64 -39l-104 84h-4z" />
    <glyph glyph-name="scircumflex" unicode="&#x15d;" horiz-adv-x="443" 
d="M211 -12q-49 0 -100.5 19t-89.5 50l66 92q34 -25 65.5 -38.5t62.5 -13.5q33 0 48 11.5t15 30.5q0 17 -14.5 28t-37.5 20.5t-49 19.5q-30 12 -59.5 30t-49.5 46.5t-20 69.5q0 69 52.5 112t137.5 43q57 0 100.5 -19.5t74.5 -43.5l-66 -88q-26 20 -52 31t-52 11
q-57 0 -57 -39q0 -24 28.5 -36.5t66.5 -26.5q32 -11 62.5 -28.5t51 -46t20.5 -74.5q0 -67 -52 -113.5t-152 -46.5zM50 613l108 131h150l108 -131l-56 -52l-125 92h-4l-125 -92z" />
    <glyph glyph-name="uni015E" unicode="&#x15e;" horiz-adv-x="556" 
d="M276 -12q-64 0 -127.5 24t-113.5 70l84 101q35 -30 78 -49t83 -19q46 0 68.5 17t22.5 46q0 31 -25.5 45.5t-68.5 32.5l-85 36q-33 14 -63 37.5t-49 58.5t-19 82q0 54 29.5 98t82 70t120.5 26q56 0 112 -22t98 -64l-75 -93q-32 25 -64 38.5t-71 13.5q-38 0 -60.5 -15.5
t-22.5 -43.5q0 -30 28.5 -45t70.5 -32l84 -34q59 -24 94 -66t35 -111q0 -54 -29 -100t-84 -74t-133 -28zM178 -239l-11 59q59 3 81 13t22 31q0 15 -15.5 25.5t-61.5 16.5l48 98h86l-28 -65q38 -9 57 -26t19 -49q0 -51 -51.5 -75.5t-145.5 -27.5z" />
    <glyph glyph-name="uni015F" unicode="&#x15f;" horiz-adv-x="443" 
d="M211 -12q-49 0 -100.5 19t-89.5 50l66 92q34 -25 65.5 -38.5t62.5 -13.5q33 0 48 11.5t15 30.5q0 17 -14.5 28t-37.5 20.5t-49 19.5q-30 12 -59.5 30t-49.5 46.5t-20 69.5q0 69 52.5 112t137.5 43q57 0 100.5 -19.5t74.5 -43.5l-66 -88q-26 20 -52 31t-52 11
q-57 0 -57 -39q0 -24 28.5 -36.5t66.5 -26.5q32 -11 62.5 -28.5t51 -46t20.5 -74.5q0 -67 -52 -113.5t-152 -46.5zM116 -239l-11 59q59 3 81 13t22 31q0 15 -15.5 25.5t-61.5 16.5l48 98h86l-28 -65q38 -9 57 -26t19 -49q0 -51 -51.5 -75.5t-145.5 -27.5z" />
    <glyph glyph-name="Scaron" unicode="&#x160;" horiz-adv-x="556" 
d="M276 -12q-64 0 -127.5 24t-113.5 70l84 101q35 -30 78 -49t83 -19q46 0 68.5 17t22.5 46q0 31 -25.5 45.5t-68.5 32.5l-85 36q-33 14 -63 37.5t-49 58.5t-19 82q0 54 29.5 98t82 70t120.5 26q56 0 112 -22t98 -64l-75 -93q-32 25 -64 38.5t-71 13.5q-38 0 -60.5 -15.5
t-22.5 -43.5q0 -30 28.5 -45t70.5 -32l84 -34q59 -24 94 -66t35 -111q0 -54 -29 -100t-84 -74t-133 -28zM211 702l-90 110l64 40l104 -84h4l104 84l64 -40l-90 -110h-160z" />
    <glyph glyph-name="scaron" unicode="&#x161;" horiz-adv-x="443" 
d="M211 -12q-49 0 -100.5 19t-89.5 50l66 92q34 -25 65.5 -38.5t62.5 -13.5q33 0 48 11.5t15 30.5q0 17 -14.5 28t-37.5 20.5t-49 19.5q-30 12 -59.5 30t-49.5 46.5t-20 69.5q0 69 52.5 112t137.5 43q57 0 100.5 -19.5t74.5 -43.5l-66 -88q-26 20 -52 31t-52 11
q-57 0 -57 -39q0 -24 28.5 -36.5t66.5 -26.5q32 -11 62.5 -28.5t51 -46t20.5 -74.5q0 -67 -52 -113.5t-152 -46.5zM158 577l-108 131l56 52l125 -92h4l125 92l56 -52l-108 -131h-150z" />
    <glyph glyph-name="uni0162" unicode="&#x162;" horiz-adv-x="556" 
d="M204 0v528h-179v124h506v-124h-179v-528h-148zM173 -239l-11 59q59 3 81 13t22 31q0 15 -15.5 25.5t-61.5 16.5l48 98h86l-28 -65q38 -9 57 -26t19 -49q0 -51 -51.5 -75.5t-145.5 -27.5z" />
    <glyph glyph-name="uni0163" unicode="&#x163;" horiz-adv-x="383" 
d="M256 -12q-92 0 -131.5 53t-39.5 139v201h-68v109l76 6l17 132h122v-132h119v-115h-119v-199q0 -42 17.5 -60.5t46.5 -18.5q12 0 24.5 3t22.5 7l23 -107q-19 -6 -46.5 -12t-63.5 -6zM131 -239l-11 59q59 3 81 13t22 31q0 15 -15.5 25.5t-61.5 16.5l48 98h86l-28 -65
q38 -9 57 -26t19 -49q0 -51 -51.5 -75.5t-145.5 -27.5z" />
    <glyph glyph-name="Tcaron" unicode="&#x164;" horiz-adv-x="556" 
d="M204 0v528h-179v124h506v-124h-179v-528h-148zM196 702l-90 110l64 40l104 -84h4l104 84l64 -40l-90 -110h-160z" />
    <glyph glyph-name="tcaron" unicode="&#x165;" horiz-adv-x="383" 
d="M256 -12q-92 0 -131.5 53t-39.5 139v201h-68v109l76 6l17 132h122v-132h119v-115h-119v-199q0 -42 17.5 -60.5t46.5 -18.5q12 0 24.5 3t22.5 7l23 -107q-19 -6 -46.5 -12t-63.5 -6zM280 548l-6 222h95l-2 -69l-24 -153h-63z" />
    <glyph glyph-name="uni0166" unicode="&#x166;" horiz-adv-x="556" 
d="M204 0v267h-118v92l94 5h24v164h-179v124h506v-124h-179v-164h118v-97h-118v-267h-148z" />
    <glyph glyph-name="uni0167" unicode="&#x167;" horiz-adv-x="383" 
d="M256 -12q-92 0 -131.5 53t-39.5 139v20h-68v92l68 4v85h-68v109l76 6l17 132h122v-132h119v-115h-119v-84h119v-97h-119v-18q0 -42 17.5 -60.5t46.5 -18.5q12 0 24.5 3t22.5 7l23 -107q-19 -6 -46.5 -12t-63.5 -6z" />
    <glyph glyph-name="Utilde" unicode="&#x168;" horiz-adv-x="665" 
d="M334 -12q-127 0 -194 75t-67 239v350h148v-365q0 -96 29 -134t84 -38t85 38t30 134v365h142v-350q0 -164 -65.5 -239t-191.5 -75zM403 692q-35 0 -59.5 14.5t-42.5 29t-35 14.5q-14 0 -24 -11t-13 -38l-95 7q4 76 39.5 110t87.5 34q36 0 60 -14.5t42.5 -29t34.5 -14.5
q14 0 24 11t13 38l95 -7q-4 -75 -39 -109.5t-88 -34.5z" />
    <glyph glyph-name="utilde" unicode="&#x169;" horiz-adv-x="568" 
d="M214 -12q-81 0 -117.5 53.5t-36.5 146.5v308h147v-289q0 -53 15 -73.5t47 -20.5q28 0 47 13t41 42v328h147v-496h-120l-11 69h-3q-31 -37 -68 -59t-88 -22zM351 573q-24 0 -42.5 9.5t-34 22.5t-28 22.5t-24.5 9.5q-15 0 -23.5 -13t-11.5 -42l-92 5q2 77 34 114.5t90 37.5
q24 0 42.5 -9.5t34 -22.5t28 -22.5t24.5 -9.5q29 0 35 55l92 -5q-2 -77 -34 -114.5t-90 -37.5z" />
    <glyph glyph-name="Umacron" unicode="&#x16a;" horiz-adv-x="665" 
d="M334 -12q-127 0 -194 75t-67 239v350h148v-365q0 -96 29 -134t84 -38t85 38t30 134v365h142v-350q0 -164 -65.5 -239t-191.5 -75zM181 721v94h302v-94h-302z" />
    <glyph glyph-name="umacron" unicode="&#x16b;" horiz-adv-x="568" 
d="M214 -12q-81 0 -117.5 53.5t-36.5 146.5v308h147v-289q0 -53 15 -73.5t47 -20.5q28 0 47 13t41 42v328h147v-496h-120l-11 69h-3q-31 -37 -68 -59t-88 -22zM137 592v93h296v-93h-296z" />
    <glyph glyph-name="Ubreve" unicode="&#x16c;" horiz-adv-x="665" 
d="M334 -12q-127 0 -194 75t-67 239v350h148v-365q0 -96 29 -134t84 -38t85 38t30 134v365h142v-350q0 -164 -65.5 -239t-191.5 -75zM332 697q-74 0 -115 35t-48 102l80 14q7 -31 28 -48.5t55 -17.5t55 17.5t28 48.5l80 -14q-7 -67 -48 -102t-115 -35z" />
    <glyph glyph-name="ubreve" unicode="&#x16d;" horiz-adv-x="568" 
d="M214 -12q-81 0 -117.5 53.5t-36.5 146.5v308h147v-289q0 -53 15 -73.5t47 -20.5q28 0 47 13t41 42v328h147v-496h-120l-11 69h-3q-31 -37 -68 -59t-88 -22zM285 572q-85 0 -126 45.5t-43 111.5l84 14q5 -32 25 -55.5t60 -23.5t60.5 23.5t24.5 55.5l84 -14
q-2 -66 -42.5 -111.5t-126.5 -45.5z" />
    <glyph glyph-name="Uring" unicode="&#x16e;" horiz-adv-x="665" 
d="M334 -12q-127 0 -194 75t-67 239v350h148v-365q0 -96 29 -134t84 -38t85 38t30 134v365h142v-350q0 -164 -65.5 -239t-191.5 -75zM332 697q-51 0 -82.5 27t-31.5 72t31.5 71.5t82.5 26.5q50 0 82 -26.5t32 -71.5t-32 -72t-82 -27zM332 752q17 0 29.5 12t12.5 32
t-12.5 31.5t-29.5 11.5t-29.5 -11.5t-12.5 -31.5t12.5 -32t29.5 -12z" />
    <glyph glyph-name="uring" unicode="&#x16f;" horiz-adv-x="568" 
d="M214 -12q-81 0 -117.5 53.5t-36.5 146.5v308h147v-289q0 -53 15 -73.5t47 -20.5q28 0 47 13t41 42v328h147v-496h-120l-11 69h-3q-31 -37 -68 -59t-88 -22zM285 564q-65 0 -98.5 30.5t-33.5 73.5q0 44 33.5 74t98.5 30t98.5 -30t33.5 -74q0 -43 -33.5 -73.5t-98.5 -30.5z
M285 619q18 0 30.5 13.5t12.5 35.5t-12.5 35.5t-30.5 13.5t-30.5 -13.5t-12.5 -35.5t12.5 -35.5t30.5 -13.5z" />
    <glyph glyph-name="Uhungarumlaut" unicode="&#x170;" horiz-adv-x="665" 
d="M334 -12q-127 0 -194 75t-67 239v350h148v-365q0 -96 29 -134t84 -38t85 38t30 134v365h142v-350q0 -164 -65.5 -239t-191.5 -75zM269 694l-72 34l101 161l93 -52zM457 694l-73 34l101 161l94 -52z" />
    <glyph glyph-name="uhungarumlaut" unicode="&#x171;" horiz-adv-x="568" 
d="M214 -12q-81 0 -117.5 53.5t-36.5 146.5v308h147v-289q0 -53 15 -73.5t47 -20.5q28 0 47 13t41 42v328h147v-496h-120l-11 69h-3q-31 -37 -68 -59t-88 -22zM233 565l-77 35l87 181l99 -44zM412 565l-77 35l87 181l99 -44z" />
    <glyph glyph-name="Uogonek" unicode="&#x172;" horiz-adv-x="665" 
d="M346 -223q-48 0 -81.5 24.5t-33.5 69.5q0 35 18.5 67t41.5 52q-106 12 -162 87t-56 225v350h148v-365q0 -96 29 -134t84 -38t85 38t30 134v365h142v-350q0 -139 -44.5 -210t-139.5 -100q-36 -11 -52 -36t-16 -46q0 -19 13 -28.5t29 -9.5q10 0 19 4.5t16 9.5l34 -74
q-19 -15 -48.5 -25t-55.5 -10z" />
    <glyph glyph-name="uogonek" unicode="&#x173;" horiz-adv-x="568" 
d="M423 -210q-44 0 -75 23t-31 68q0 30 11.5 53t28 39t29.5 25l-13 71h-3q-31 -37 -68 -59t-88 -22q-81 0 -117.5 53.5t-36.5 146.5v308h147v-289q0 -53 15 -73.5t47 -20.5q28 0 47 13t41 42v328h147v-496q-49 -15 -68.5 -38.5t-19.5 -46.5q0 -19 13 -28.5t29 -9.5
q10 0 19.5 4t16.5 8l30 -66q-19 -15 -48.5 -24t-52.5 -9z" />
    <glyph glyph-name="Wcircumflex" unicode="&#x174;" horiz-adv-x="813" 
d="M135 0l-121 652h151l45 -305q6 -51 13 -102.5t13 -103.5h4q10 52 19.5 103.5t19.5 102.5l70 305h125l70 -305q10 -49 19.5 -101t19.5 -105h4q7 53 13.5 104.5t13.5 101.5l45 305h141l-116 -652h-185l-64 296q-8 38 -14.5 76.5t-11.5 74.5h-4q-6 -36 -12.5 -74.5
t-14.5 -76.5l-61 -296h-182zM301 685l-64 39l90 111h160l90 -111l-64 -39l-104 84h-4z" />
    <glyph glyph-name="wcircumflex" unicode="&#x175;" horiz-adv-x="776" 
d="M148 0l-124 496h146l48 -230q6 -37 11 -73t11 -74h4q7 38 13.5 75t15.5 72l55 230h127l56 -230q9 -37 16.5 -73t14.5 -74h4q7 38 11.5 74t11.5 73l47 230h136l-119 -496h-172l-45 198q-7 35 -13.5 70t-13.5 75h-4q-7 -40 -12.5 -75t-12.5 -70l-44 -198h-168zM206 613
l108 131h150l108 -131l-56 -52l-125 92h-4l-125 -92z" />
    <glyph glyph-name="Ycircumflex" unicode="&#x176;" horiz-adv-x="525" 
d="M189 0v232l-197 420h158l58 -150q14 -37 27 -71.5t26 -72.5h4q14 38 28 72.5t27 71.5l59 150h154l-197 -420v-232h-147zM156 685l-64 39l90 111h160l90 -111l-64 -39l-104 84h-4z" />
    <glyph glyph-name="ycircumflex" unicode="&#x177;" horiz-adv-x="521" 
d="M120 -194q-22 0 -38.5 3t-31.5 7l26 112q7 -1 16 -3.5t17 -2.5q37 0 57 18t30 47l7 26l-191 483h148l71 -213q11 -34 20 -69t19 -72h4q8 35 16.5 70.5t17.5 70.5l60 213h141l-172 -501q-23 -62 -51 -104.5t-67.5 -63.5t-98.5 -21zM84 613l108 131h150l108 -131l-56 -52
l-125 92h-4l-125 -92z" />
    <glyph glyph-name="Ydieresis" unicode="&#x178;" horiz-adv-x="525" 
d="M189 0v232l-197 420h158l58 -150q14 -37 27 -71.5t26 -72.5h4q14 38 28 72.5t27 71.5l59 150h154l-197 -420v-232h-147zM151 700q-31 0 -50.5 20t-19.5 50t19.5 50t50.5 20t50.5 -20t19.5 -50t-19.5 -50t-50.5 -20zM373 700q-31 0 -50.5 20t-19.5 50t19.5 50t50.5 20
t50.5 -20t19.5 -50t-19.5 -50t-50.5 -20z" />
    <glyph glyph-name="Zacute" unicode="&#x179;" horiz-adv-x="541" 
d="M36 0v89l288 439h-261v124h442v-89l-288 -439h291v-124h-472zM273 680l-66 74l171 140l78 -95z" />
    <glyph glyph-name="zacute" unicode="&#x17a;" horiz-adv-x="460" 
d="M38 0v79l208 302h-185v115h368v-78l-208 -303h215v-115h-398zM255 572l-72 72l154 182l99 -97z" />
    <glyph glyph-name="Zdotaccent" unicode="&#x17b;" horiz-adv-x="541" 
d="M36 0v89l288 439h-261v124h442v-89l-288 -439h291v-124h-472zM283 701q-37 0 -61 21.5t-24 55.5t24 55.5t61 21.5t61 -21.5t24 -55.5t-24 -55.5t-61 -21.5z" />
    <glyph glyph-name="zdotaccent" unicode="&#x17c;" horiz-adv-x="460" 
d="M38 0v79l208 302h-185v115h368v-78l-208 -303h215v-115h-398zM245 569q-37 0 -60 21t-23 56t23 56t60 21t60 -21t23 -56t-23 -56t-60 -21z" />
    <glyph glyph-name="Zcaron" unicode="&#x17d;" horiz-adv-x="541" 
d="M36 0v89l288 439h-261v124h442v-89l-288 -439h291v-124h-472zM203 702l-90 110l64 40l104 -84h4l104 84l64 -40l-90 -110h-160z" />
    <glyph glyph-name="zcaron" unicode="&#x17e;" horiz-adv-x="460" 
d="M38 0v79l208 302h-185v115h368v-78l-208 -303h215v-115h-398zM170 577l-108 131l56 52l125 -92h4l125 92l56 -52l-108 -131h-150z" />
    <glyph glyph-name="uni0180" unicode="&#x180;" horiz-adv-x="571" 
d="M325 -12q-33 0 -66.5 16.5t-62.5 48.5h-4l-12 -53h-115v530h-68v91l68 5v75h147v-74h169v-97h-169v-49l-4 -76q29 25 63 40t68 15q60 0 104 -28.5t67.5 -79.5t23.5 -118q0 -76 -30 -131.5t-77.5 -85t-101.5 -29.5zM291 108q38 0 65 31.5t27 92.5q0 50 -21 78.5t-65 28.5
q-22 0 -43 -10.5t-42 -33.5v-155q20 -18 40 -25t39 -7z" />
    <glyph glyph-name="uni018F" unicode="&#x18f;" horiz-adv-x="675" 
d="M338 -12q-133 0 -210 86t-77 249q0 24 3 49h427q-7 88 -47 129.5t-111 41.5q-46 0 -81.5 -18.5t-61.5 -42.5l-67 101q38 35 94.5 58t132.5 23q86 0 151 -38t101.5 -113t36.5 -186q0 -110 -36.5 -186t-102 -114.5t-152.5 -38.5zM336 108q57 0 95 37.5t48 118.5h-278
q6 -82 41.5 -119t93.5 -37z" />
    <glyph glyph-name="uni0192" unicode="&#x192;" horiz-adv-x="528" 
d="M116 -96q-61 0 -86 15l20 109q11 -4 22 -6t22 -3q24 1 38.5 12.5t23.5 42t15 87.5l17 146h-75v101l74 6h13l5 43q12 110 58 158.5t145 48.5q19 0 45 -5.5t41 -12.5l-28 -110q-9 3 -20 7t-26 4q-34 0 -51.5 -21.5t-21.5 -56.5l-7 -55h103v-107h-115l-23 -189
q-7 -60 -25.5 -108.5t-57 -77t-106.5 -28.5z" />
    <glyph glyph-name="uni0193" unicode="&#x193;" horiz-adv-x="638" 
d="M365 -12q-89 0 -161.5 38t-115 112.5t-42.5 183.5q0 108 43.5 184.5t115.5 117t159 40.5q14 0 27 -1t25 -3q0 5 -0.5 9t-0.5 8q0 58 38 99.5t106 41.5q31 0 50.5 -4t34.5 -9l-26 -109q-7 3 -13.5 5t-14.5 2q-22 0 -36.5 -12.5t-14.5 -35.5q0 -19 9 -34t21 -30l-77 -95
q-25 17 -53 29t-70 12q-76 0 -124 -56t-48 -154q0 -100 46 -156t137 -56q20 0 39 5t31 15v112h-108v120h238v-300q-34 -33 -90.5 -56t-124.5 -23z" />
    <glyph glyph-name="Ohorn" unicode="&#x1a0;" horiz-adv-x="684" 
d="M343 -12q-88 0 -154.5 41t-104 117.5t-37.5 182.5q0 107 37.5 181.5t104 114t154.5 39.5q77 0 139 -31q29 8 44.5 24t15.5 48q0 20 -5 37t-11 28l109 44q12 -16 21 -42t9 -56q0 -54 -29 -85.5t-86 -46.5q42 -43 65.5 -107.5t23.5 -147.5q0 -106 -37.5 -182.5t-104 -117.5
t-154.5 -41zM343 115q67 0 106 58t39 156t-39 153t-106 55t-106 -55t-39 -153t39 -156t106 -58z" />
    <glyph glyph-name="ohorn" unicode="&#x1a1;" horiz-adv-x="555" 
d="M278 -12q-63 0 -118.5 30.5t-89.5 89t-34 140.5q0 83 34 141t89.5 88.5t118.5 30.5q50 0 96 -20q30 8 49 28t19 62q0 17 -4.5 32t-11.5 25l109 47q11 -15 20.5 -40.5t9.5 -53.5q0 -60 -35 -96.5t-85 -51.5q34 -34 54 -82t20 -110q0 -82 -34 -140.5t-89 -89t-118 -30.5z
M278 107q45 0 68 38.5t23 102.5q0 65 -23 103t-68 38q-46 0 -68.5 -38t-22.5 -103q0 -64 22.5 -102.5t68.5 -38.5z" />
    <glyph glyph-name="Uhorn" unicode="&#x1af;" horiz-adv-x="683" 
d="M591 598v-296q0 -164 -65.5 -239t-191.5 -75q-127 0 -194 75t-67 239v350h148v-365q0 -96 29 -134t84 -38t85 38t30 134v365h70q20 1 39 6.5t31.5 21t12.5 45.5q0 20 -5 37t-11 28l109 44q11 -16 20.5 -42t9.5 -56q0 -61 -36 -94t-98 -44z" />
    <glyph glyph-name="uhorn" unicode="&#x1b0;" horiz-adv-x="568" 
d="M214 -12q-81 0 -117.5 53.5t-36.5 146.5v308h147v-289q0 -53 15 -73.5t47 -20.5q28 0 47 13t41 42v328h46q19 1 37.5 8t31 26.5t12.5 57.5q0 17 -5 32t-10 25l108 47q12 -15 21 -40.5t9 -53.5q0 -61 -30.5 -97t-72.5 -50v-451h-120l-11 69h-3q-31 -37 -68 -59t-88 -22z
" />
    <glyph glyph-name="uni01C2" unicode="&#x1c2;" horiz-adv-x="461" 
d="M161 0v211h-133v92l77 5h56v81h-133v92l77 5h56v215h147v-215h124v-97h-124v-81h124v-97h-124v-211h-147z" />
    <glyph glyph-name="uni01C3" unicode="&#x1c3;" horiz-adv-x="248" 
d="M76 231l-22 306l-5 164h150l-5 -164l-22 -306h-96zM124 -12q-38 0 -63.5 26.5t-25.5 65.5q0 40 25.5 66.5t63.5 26.5t63.5 -26.5t25.5 -66.5q0 -39 -25.5 -65.5t-63.5 -26.5z" />
    <glyph glyph-name="uni01CD" unicode="&#x1cd;" horiz-adv-x="573" 
d="M230 330l-16 -60h139l-15 60q-13 49 -26.5 104t-26.5 106h-4q-12 -52 -24.5 -106.5t-26.5 -103.5zM-6 0l204 652h177l204 -652h-156l-40 155h-199l-40 -155h-150zM205 702l-90 110l64 40l104 -84h4l104 84l64 -40l-90 -110h-160z" />
    <glyph glyph-name="uni01CE" unicode="&#x1ce;" horiz-adv-x="527" 
d="M190 -12q-68 0 -108 43.5t-40 106.5q0 78 66 122t213 59q-2 33 -19.5 52.5t-58.5 19.5q-31 0 -63 -12t-68 -33l-53 97q47 29 100.5 47t111.5 18q95 0 146 -55t51 -169v-284h-120l-10 51h-4q-31 -28 -66.5 -45.5t-77.5 -17.5zM240 102q25 0 43.5 11.5t37.5 30.5v87
q-78 -10 -108 -31.5t-30 -50.5q0 -24 15.5 -35.5t41.5 -11.5zM201 577l-108 131l56 52l125 -92h4l125 92l56 -52l-108 -131h-150z" />
    <glyph glyph-name="uni01CF" unicode="&#x1cf;" horiz-adv-x="301" 
d="M77 0v652h147v-652h-147zM72 702l-90 110l64 40l104 -84h4l104 84l64 -40l-90 -110h-160z" />
    <glyph glyph-name="uni01D0" unicode="&#x1d0;" horiz-adv-x="276" 
d="M65 0v496h147v-496h-147zM63 577l-108 131l56 52l125 -92h4l125 92l56 -52l-108 -131h-150z" />
    <glyph glyph-name="uni01D1" unicode="&#x1d1;" horiz-adv-x="684" 
d="M342 -12q-88 0 -154.5 41t-104 117.5t-37.5 182.5q0 107 37.5 181.5t104 114t154.5 39.5t154.5 -39.5t104 -114.5t37.5 -181t-37.5 -182.5t-104 -117.5t-154.5 -41zM342 115q67 0 106 58t39 156t-39 153t-106 55t-106 -55t-39 -153t39 -156t106 -58zM262 702l-90 110
l64 40l104 -84h4l104 84l64 -40l-90 -110h-160z" />
    <glyph glyph-name="uni01D2" unicode="&#x1d2;" horiz-adv-x="555" 
d="M278 -12q-63 0 -118.5 30.5t-89.5 89t-34 140.5q0 83 34 141t89.5 88.5t118.5 30.5t118 -30.5t89 -88.5t34 -141q0 -82 -34 -140.5t-89 -89t-118 -30.5zM278 107q45 0 68 38.5t23 102.5q0 65 -23 103t-68 38q-46 0 -68.5 -38t-22.5 -103q0 -64 22.5 -102.5t68.5 -38.5z
M203 577l-108 131l56 52l125 -92h4l125 92l56 -52l-108 -131h-150z" />
    <glyph glyph-name="uni01D3" unicode="&#x1d3;" horiz-adv-x="665" 
d="M334 -12q-127 0 -194 75t-67 239v350h148v-365q0 -96 29 -134t84 -38t85 38t30 134v365h142v-350q0 -164 -65.5 -239t-191.5 -75zM252 702l-90 110l64 40l104 -84h4l104 84l64 -40l-90 -110h-160z" />
    <glyph glyph-name="uni01D4" unicode="&#x1d4;" horiz-adv-x="568" 
d="M214 -12q-81 0 -117.5 53.5t-36.5 146.5v308h147v-289q0 -53 15 -73.5t47 -20.5q28 0 47 13t41 42v328h147v-496h-120l-11 69h-3q-31 -37 -68 -59t-88 -22zM210 577l-108 131l56 52l125 -92h4l125 92l56 -52l-108 -131h-150z" />
    <glyph glyph-name="uni01D5" unicode="&#x1d5;" horiz-adv-x="665" 
d="M334 -12q-127 0 -194 75t-67 239v350h148v-365q0 -96 29 -134t84 -38t85 38t30 134v365h142v-350q0 -164 -65.5 -239t-191.5 -75zM221 700q-27 0 -44 18t-17 44t17 43.5t44 17.5t44.5 -17.5t17.5 -43.5t-17.5 -44t-44.5 -18zM181 872v69h302v-69h-302zM443 700
q-27 0 -44.5 18t-17.5 44t17.5 43.5t44.5 17.5t44 -17.5t17 -43.5t-17 -44t-44 -18z" />
    <glyph glyph-name="uni01D6" unicode="&#x1d6;" horiz-adv-x="568" 
d="M214 -12q-81 0 -117.5 53.5t-36.5 146.5v308h147v-289q0 -53 15 -73.5t47 -20.5q28 0 47 13t41 42v328h147v-496h-120l-11 69h-3q-31 -37 -68 -59t-88 -22zM176 571q-27 0 -44.5 18t-17.5 43q0 26 17.5 44t44.5 18t44.5 -18t17.5 -44q0 -25 -17.5 -43t-44.5 -18zM137 756
v69h296v-69h-296zM394 571q-27 0 -44.5 18t-17.5 43q0 26 17.5 44t44.5 18t44.5 -18t17.5 -44q0 -25 -17.5 -43t-44.5 -18z" />
    <glyph glyph-name="uni01D7" unicode="&#x1d7;" horiz-adv-x="665" 
d="M334 -12q-127 0 -194 75t-67 239v350h148v-365q0 -96 29 -134t84 -38t85 38t30 134v365h142v-350q0 -164 -65.5 -239t-191.5 -75zM221 700q-27 0 -44 18t-17 44t17 43.5t44 17.5t44.5 -17.5t17.5 -43.5t-17.5 -44t-44.5 -18zM340 825l-63 39l95 145l92 -57zM443 700
q-27 0 -44.5 18t-17.5 44t17.5 43.5t44.5 17.5t44 -17.5t17 -43.5t-17 -44t-44 -18z" />
    <glyph glyph-name="uni01D8" unicode="&#x1d8;" horiz-adv-x="568" 
d="M214 -12q-81 0 -117.5 53.5t-36.5 146.5v308h147v-289q0 -53 15 -73.5t47 -20.5q28 0 47 13t41 42v328h147v-496h-120l-11 69h-3q-31 -37 -68 -59t-88 -22zM176 571q-27 0 -44.5 18t-17.5 43q0 26 17.5 44t44.5 18t44.5 -18t17.5 -44q0 -25 -17.5 -43t-44.5 -18zM292 713
l-56 36l78 133l78 -52zM394 571q-27 0 -44.5 18t-17.5 43q0 26 17.5 44t44.5 18t44.5 -18t17.5 -44q0 -25 -17.5 -43t-44.5 -18z" />
    <glyph glyph-name="uni01D9" unicode="&#x1d9;" horiz-adv-x="665" 
d="M334 -12q-127 0 -194 75t-67 239v350h148v-365q0 -96 29 -134t84 -38t85 38t30 134v365h142v-350q0 -164 -65.5 -239t-191.5 -75zM269 854l-92 102l59 39l94 -73h4l94 73l59 -39l-92 -102h-126zM221 700q-27 0 -44 18t-17 44t17 43.5t44 17.5t44.5 -17.5t17.5 -43.5
t-17.5 -44t-44.5 -18zM443 700q-27 0 -44.5 18t-17.5 44t17.5 43.5t44.5 17.5t44 -17.5t17 -43.5t-17 -44t-44 -18z" />
    <glyph glyph-name="uni01DA" unicode="&#x1da;" horiz-adv-x="568" 
d="M214 -12q-81 0 -117.5 53.5t-36.5 146.5v308h147v-289q0 -53 15 -73.5t47 -20.5q28 0 47 13t41 42v328h147v-496h-120l-11 69h-3q-31 -37 -68 -59t-88 -22zM227 737l-92 92l48 44l100 -65h4l100 65l48 -44l-92 -92h-116zM176 571q-27 0 -44.5 18t-17.5 43q0 26 17.5 44
t44.5 18t44.5 -18t17.5 -44q0 -25 -17.5 -43t-44.5 -18zM394 571q-27 0 -44.5 18t-17.5 43q0 26 17.5 44t44.5 18t44.5 -18t17.5 -44q0 -25 -17.5 -43t-44.5 -18z" />
    <glyph glyph-name="uni01DB" unicode="&#x1db;" horiz-adv-x="665" 
d="M334 -12q-127 0 -194 75t-67 239v350h148v-365q0 -96 29 -134t84 -38t85 38t30 134v365h142v-350q0 -164 -65.5 -239t-191.5 -75zM221 700q-27 0 -44 18t-17 44t17 43.5t44 17.5t44.5 -17.5t17.5 -43.5t-17.5 -44t-44.5 -18zM324 825l-124 127l92 57l95 -145zM443 700
q-27 0 -44.5 18t-17.5 44t17.5 43.5t44.5 17.5t44 -17.5t17 -43.5t-17 -44t-44 -18z" />
    <glyph glyph-name="uni01DC" unicode="&#x1dc;" horiz-adv-x="568" 
d="M214 -12q-81 0 -117.5 53.5t-36.5 146.5v308h147v-289q0 -53 15 -73.5t47 -20.5q28 0 47 13t41 42v328h147v-496h-120l-11 69h-3q-31 -37 -68 -59t-88 -22zM176 571q-27 0 -44.5 18t-17.5 43q0 26 17.5 44t44.5 18t44.5 -18t17.5 -44q0 -25 -17.5 -43t-44.5 -18zM278 713
l-100 117l78 52l78 -133zM394 571q-27 0 -44.5 18t-17.5 43q0 26 17.5 44t44.5 18t44.5 -18t17.5 -44q0 -25 -17.5 -43t-44.5 -18z" />
    <glyph glyph-name="uni01E2" unicode="&#x1e2;" horiz-adv-x="845" 
d="M303 356l-42 -93h125v278h-4q-20 -48 -39.5 -95t-39.5 -90zM-14 0l310 652h487v-124h-250v-131h211v-123h-211v-150h260v-124h-407v149h-177l-68 -149h-155zM389 723v94h302v-94h-302z" />
    <glyph glyph-name="uni01E3" unicode="&#x1e3;" horiz-adv-x="786" 
d="M194 -12q-45 0 -78 20t-51 54t-18 75q0 79 65 123.5t211 59.5q-2 32 -19 51.5t-58 19.5q-30 0 -62 -12t-68 -33l-52 97q47 29 98 47t105 18q46 0 81 -20t57 -55q32 36 67.5 55.5t79.5 19.5q66 0 109.5 -32t65.5 -86.5t22 -122.5q0 -20 -2 -36.5t-4 -25.5h-286
q8 -52 41 -77t78 -25q28 0 53 10t52 26l50 -95q-38 -26 -84.5 -41t-90.5 -15q-55 0 -97 21.5t-74 55.5q-52 -42 -96.5 -59.5t-94.5 -17.5zM244 102q26 0 49.5 11.5t43.5 30.5q-11 31 -14 66l-1 21q-73 -10 -104 -31.5t-31 -50.5q0 -24 15.5 -35.5t41.5 -11.5zM457 295h167
q0 45 -18 73t-59 28q-34 0 -59 -24.5t-31 -76.5zM263 592v93h296v-93h-296z" />
    <glyph glyph-name="Gcaron" unicode="&#x1e6;" horiz-adv-x="638" 
d="M365 -12q-89 0 -161.5 38t-115 112.5t-42.5 183.5q0 108 43.5 184.5t115.5 117t159 40.5q71 0 122 -26t83 -59l-77 -94q-25 22 -53 37t-70 15q-76 0 -124 -56t-48 -154q0 -100 46 -156t137 -56q20 0 39 5t31 15v112h-108v120h238v-300q-34 -33 -90.5 -56t-124.5 -23z
M285 702l-90 110l64 40l104 -84h4l104 84l64 -40l-90 -110h-160z" />
    <glyph glyph-name="gcaron" unicode="&#x1e7;" horiz-adv-x="534" 
d="M242 -211q-58 0 -105 13t-75 41t-28 72q0 60 71 100v4q-19 13 -32.5 33t-13.5 51q0 27 16 52t40 41v4q-26 18 -46.5 52t-20.5 77q0 60 29 99.5t76 59.5t100 20q44 0 77 -12h181v-107h-79q7 -11 11.5 -28t4.5 -37q0 -57 -26 -94t-70 -55t-99 -18q-29 0 -60 10
q-18 -15 -18 -37q0 -19 17 -28t58 -9h80q92 0 140.5 -29.5t48.5 -96.5q0 -51 -34 -91.5t-96 -63.5t-147 -23zM253 246q29 0 48.5 21t19.5 62q0 39 -19.5 59.5t-48.5 20.5t-48.5 -20t-19.5 -60q0 -41 19.5 -62t48.5 -21zM265 -119q50 0 82 18t32 43q0 23 -19.5 31t-56.5 8
h-51q-25 0 -41.5 1.5t-28.5 4.5q-27 -24 -27 -49q0 -28 30.5 -42.5t79.5 -14.5zM196 577l-108 131l56 52l125 -92h4l125 92l56 -52l-108 -131h-150z" />
    <glyph glyph-name="uni01EA" unicode="&#x1ea;" horiz-adv-x="684" 
d="M356 -223q-48 0 -81.5 24.5t-33.5 69.5q0 34 18.5 66t43.5 53q-77 9 -135 52t-90 115.5t-32 171.5q0 107 37.5 181.5t104 114t154.5 39.5t154.5 -39.5t104 -114.5t37.5 -181q0 -138 -58 -220t-154 -111q-40 -12 -58.5 -38.5t-18.5 -49.5q0 -19 13 -28.5t29 -9.5
q10 0 19 4.5t16 9.5l34 -74q-19 -15 -48.5 -25t-55.5 -10zM342 115q67 0 106 58t39 156t-39 153t-106 55t-106 -55t-39 -153t39 -156t106 -58z" />
    <glyph glyph-name="uni01EB" unicode="&#x1eb;" horiz-adv-x="555" 
d="M286 -210q-44 0 -75 23t-31 68q0 32 17 61.5t41 48.5q-54 9 -100 42t-74 87.5t-28 127.5q0 83 34 141t89.5 88.5t118.5 30.5t118 -30.5t89 -88.5t34 -141q0 -100 -48.5 -162t-123.5 -91q-38 -15 -53 -36.5t-15 -43.5q0 -20 13 -29t29 -9q10 0 19.5 4t16.5 8l30 -66
q-19 -15 -48 -24t-53 -9zM278 107q45 0 68 38.5t23 102.5q0 65 -23 103t-68 38q-46 0 -68.5 -38t-22.5 -103q0 -64 22.5 -102.5t68.5 -38.5z" />
    <glyph glyph-name="uni01F4" unicode="&#x1f4;" horiz-adv-x="638" 
d="M365 -12q-89 0 -161.5 38t-115 112.5t-42.5 183.5q0 108 43.5 184.5t115.5 117t159 40.5q71 0 122 -26t83 -59l-77 -94q-25 22 -53 37t-70 15q-76 0 -124 -56t-48 -154q0 -100 46 -156t137 -56q20 0 39 5t31 15v112h-108v120h238v-300q-34 -33 -90.5 -56t-124.5 -23z
M355 680l-66 74l171 140l78 -95z" />
    <glyph glyph-name="uni01F5" unicode="&#x1f5;" horiz-adv-x="534" 
d="M242 -211q-58 0 -105 13t-75 41t-28 72q0 60 71 100v4q-19 13 -32.5 33t-13.5 51q0 27 16 52t40 41v4q-26 18 -46.5 52t-20.5 77q0 60 29 99.5t76 59.5t100 20q44 0 77 -12h181v-107h-79q7 -11 11.5 -28t4.5 -37q0 -57 -26 -94t-70 -55t-99 -18q-29 0 -60 10
q-18 -15 -18 -37q0 -19 17 -28t58 -9h80q92 0 140.5 -29.5t48.5 -96.5q0 -51 -34 -91.5t-96 -63.5t-147 -23zM253 246q29 0 48.5 21t19.5 62q0 39 -19.5 59.5t-48.5 20.5t-48.5 -20t-19.5 -60q0 -41 19.5 -62t48.5 -21zM265 -119q50 0 82 18t32 43q0 23 -19.5 31t-56.5 8
h-51q-25 0 -41.5 1.5t-28.5 4.5q-27 -24 -27 -49q0 -28 30.5 -42.5t79.5 -14.5zM281 572l-72 72l154 182l99 -97z" />
    <glyph glyph-name="uni01F8" unicode="&#x1f8;" horiz-adv-x="665" 
d="M77 0v652h151l170 -324l64 -144h4q-4 52 -11 116t-7 122v230h140v-652h-151l-170 325l-64 142h-4q5 -54 11.5 -116t6.5 -120v-231h-140zM348 680l-183 119l78 95l171 -140z" />
    <glyph glyph-name="uni01F9" unicode="&#x1f9;" horiz-adv-x="572" 
d="M65 0v496h120l10 -63h4q32 30 70.5 52.5t88.5 22.5q81 0 117.5 -53.5t36.5 -146.5v-308h-147v289q0 54 -14.5 74t-46.5 20q-28 0 -48 -12.5t-44 -35.5v-335h-147zM303 572l-181 157l99 97l154 -182z" />
    <glyph glyph-name="uni01FC" unicode="&#x1fc;" horiz-adv-x="845" 
d="M303 356l-42 -93h125v278h-4q-20 -48 -39.5 -95t-39.5 -90zM-14 0l310 652h487v-124h-250v-131h211v-123h-211v-150h260v-124h-407v149h-177l-68 -149h-155zM530 682l-66 74l171 140l78 -95z" />
    <glyph glyph-name="uni01FD" unicode="&#x1fd;" horiz-adv-x="786" 
d="M194 -12q-45 0 -78 20t-51 54t-18 75q0 79 65 123.5t211 59.5q-2 32 -19 51.5t-58 19.5q-30 0 -62 -12t-68 -33l-52 97q47 29 98 47t105 18q46 0 81 -20t57 -55q32 36 67.5 55.5t79.5 19.5q66 0 109.5 -32t65.5 -86.5t22 -122.5q0 -20 -2 -36.5t-4 -25.5h-286
q8 -52 41 -77t78 -25q28 0 53 10t52 26l50 -95q-38 -26 -84.5 -41t-90.5 -15q-55 0 -97 21.5t-74 55.5q-52 -42 -96.5 -59.5t-94.5 -17.5zM244 102q26 0 49.5 11.5t43.5 30.5q-11 31 -14 66l-1 21q-73 -10 -104 -31.5t-31 -50.5q0 -24 15.5 -35.5t41.5 -11.5zM457 295h167
q0 45 -18 73t-59 28q-34 0 -59 -24.5t-31 -76.5zM421 572l-72 72l154 182l99 -97z" />
    <glyph glyph-name="uni0218" unicode="&#x218;" horiz-adv-x="556" 
d="M276 -12q-64 0 -127.5 24t-113.5 70l84 101q35 -30 78 -49t83 -19q46 0 68.5 17t22.5 46q0 31 -25.5 45.5t-68.5 32.5l-85 36q-33 14 -63 37.5t-49 58.5t-19 82q0 54 29.5 98t82 70t120.5 26q56 0 112 -22t98 -64l-75 -93q-32 25 -64 38.5t-71 13.5q-38 0 -60.5 -15.5
t-22.5 -43.5q0 -30 28.5 -45t70.5 -32l84 -34q59 -24 94 -66t35 -111q0 -54 -29 -100t-84 -74t-133 -28zM178 -239l-11 59q59 3 81 12.5t22 26.5q0 14 -15 23t-49 12l28 54q80 -7 110.5 -27t30.5 -57q0 -51 -51.5 -75.5t-145.5 -27.5z" />
    <glyph glyph-name="uni0219" unicode="&#x219;" horiz-adv-x="443" 
d="M211 -12q-49 0 -100.5 19t-89.5 50l66 92q34 -25 65.5 -38.5t62.5 -13.5q33 0 48 11.5t15 30.5q0 17 -14.5 28t-37.5 20.5t-49 19.5q-30 12 -59.5 30t-49.5 46.5t-20 69.5q0 69 52.5 112t137.5 43q57 0 100.5 -19.5t74.5 -43.5l-66 -88q-26 20 -52 31t-52 11
q-57 0 -57 -39q0 -24 28.5 -36.5t66.5 -26.5q32 -11 62.5 -28.5t51 -46t20.5 -74.5q0 -67 -52 -113.5t-152 -46.5zM116 -239l-11 59q59 3 81 12.5t22 26.5q0 14 -15 23t-49 12l28 54q80 -7 110.5 -27t30.5 -57q0 -51 -51.5 -75.5t-145.5 -27.5z" />
    <glyph glyph-name="uni021A" unicode="&#x21a;" horiz-adv-x="556" 
d="M204 0v528h-179v124h506v-124h-179v-528h-148zM174 -239l-11 59q59 3 81 12.5t22 26.5q0 14 -15 23t-49 12l28 54q80 -7 110.5 -27t30.5 -57q0 -51 -51.5 -75.5t-145.5 -27.5z" />
    <glyph glyph-name="uni021B" unicode="&#x21b;" horiz-adv-x="383" 
d="M256 -12q-92 0 -131.5 53t-39.5 139v201h-68v109l76 6l17 132h122v-132h119v-115h-119v-199q0 -42 17.5 -60.5t46.5 -18.5q12 0 24.5 3t22.5 7l23 -107q-19 -6 -46.5 -12t-63.5 -6zM131 -239l-11 59q59 3 81 12.5t22 26.5q0 14 -15 23t-49 12l28 54q80 -7 110.5 -27
t30.5 -57q0 -51 -51.5 -75.5t-145.5 -27.5z" />
    <glyph glyph-name="uni0237" unicode="&#x237;" horiz-adv-x="278" 
d="M36 -196q-31 0 -51.5 4t-35.5 10l26 108q10 -3 19.5 -5t19.5 -2q29 0 40.5 19.5t11.5 60.5v497h147v-493q0 -54 -16 -99t-54.5 -72.5t-106.5 -27.5z" />
    <glyph glyph-name="uni0243" unicode="&#x243;" horiz-adv-x="628" 
d="M100 0v162h-74v91l74 6v393h224q68 0 122 -14.5t86 -49t32 -93.5q0 -41 -26 -78t-84 -51v-4q70 -13 106 -53t36 -109t-34 -113t-91.5 -65.5t-128.5 -21.5h-242zM248 397h69q53 0 79.5 22t26.5 59q0 36 -27 52t-78 16h-70v-149zM248 105h82q60 0 92.5 27t32.5 79t-32 75.5
t-93 23.5h-82v-51h126v-97h-126v-57z" />
    <glyph glyph-name="uni0250" unicode="&#x250;" horiz-adv-x="534" 
d="M277 -12q-106 0 -162.5 57.5t-56.5 172.5v278h120l11 -61h4q29 33 68.5 53t88.5 20q64 0 99.5 -38.5t35.5 -97.5q0 -80 -66 -130t-214 -67q3 -31 25 -50.5t69 -19.5q32 0 62 12.5t66 32.5l52 -97q-45 -28 -96 -46.5t-106 -18.5zM205 265q79 11 109 33t30 51q0 23 -14 34
t-36 11q-25 0 -46.5 -13.5t-42.5 -38.5v-77z" />
    <glyph glyph-name="uni0251" unicode="&#x251;" horiz-adv-x="574" 
d="M242 -12q-92 0 -147.5 69.5t-55.5 190.5q0 81 30 139.5t77.5 89.5t101.5 31q72 0 129 -61h4l12 49h115v-348q0 -23 7 -32t17 -9q3 0 5.5 0.5l7.5 1.5l17 -109q-12 -4 -28 -8t-37 -4q-45 0 -72.5 17t-41.5 49h-4q-25 -26 -60.5 -46t-76.5 -20zM280 108q24 0 43.5 10
t37.5 35v203q-19 18 -40.5 25t-41.5 7q-35 0 -62 -33.5t-27 -104.5q0 -73 23.5 -107.5t66.5 -34.5z" />
    <glyph glyph-name="uni0252" unicode="&#x252;" horiz-adv-x="574" 
d="M326 -12q-31 0 -65 15t-64 46h-4l-12 -49h-115v348q0 23 -6.5 32t-16.5 9h-5.5t-7.5 -2l-18 109q12 4 28 8t38 4q87 0 114 -66h3q29 28 67 47t80 19q90 0 141.5 -68.5t51.5 -183.5q0 -85 -29.5 -145t-77.5 -91.5t-102 -31.5zM292 108q39 0 66 35t27 111q0 134 -87 134
q-43 0 -85 -45v-203q20 -18 40 -25t39 -7z" />
    <glyph glyph-name="uni0253" unicode="&#x253;" horiz-adv-x="573" 
d="M325 -12q-70 0 -129 64h-4l-12 -52h-115v500q0 58 20 106t65 77.5t119 29.5q31 0 57 -6t42 -12l-27 -108q-27 10 -51 10q-37 0 -56.5 -21.5t-23.5 -71.5l-2 -67q29 25 63 40t68 15q90 0 142.5 -66.5t52.5 -177.5q0 -83 -30 -141t-77.5 -88.5t-101.5 -30.5zM291 108
q38 0 65 32.5t27 105.5q0 125 -86 125q-22 0 -43 -10.5t-42 -33.5v-187q20 -18 40 -25t39 -7z" />
    <glyph glyph-name="uni0254" unicode="&#x254;" horiz-adv-x="467" 
d="M186 -12q-40 0 -83.5 13.5t-79.5 45.5l57 96q20 -15 42.5 -25.5t47.5 -10.5q47 0 79 38.5t32 102.5q0 65 -30 103t-76 38q-25 0 -42 -6.5t-35 -22.5l-70 95q29 23 70.5 38t93.5 15q65 0 119.5 -30t87.5 -88t33 -142q0 -82 -33 -140.5t-88.5 -89t-124.5 -30.5z" />
    <glyph glyph-name="uni0255" unicode="&#x255;" horiz-adv-x="476" 
d="M327 175q-45 0 -95 -53q30 -22 68 -22q29 0 45.5 13t16.5 30q0 32 -35 32zM128 -73l-80 33q11 30 23.5 57.5t25.5 51.5q-28 33 -44.5 78t-16.5 101q0 83 36 141t95 88.5t127 30.5q46 0 81.5 -15t63.5 -38l-64 -88q-18 15 -36.5 22t-35.5 7q-57 0 -91 -40t-34 -108
q0 -31 7 -53q75 77 158 77q57 0 91 -35t34 -94q0 -65 -47 -110t-130 -45q-72 0 -128 29q-10 -20 -18.5 -42.5t-16.5 -47.5z" />
    <glyph glyph-name="uni0256" unicode="&#x256;" horiz-adv-x="573" 
d="M528 -196q-55 0 -91 21t-53.5 55.5t-17.5 74.5l1 88q-26 -24 -58 -39.5t-67 -15.5q-92 0 -147.5 69.5t-55.5 190.5q0 81 29.5 139.5t77 89.5t99.5 31q41 0 69 -14t53 -38l-6 76v181h147v-723q0 -37 10 -54t33 -17q8 0 15 2t14 5l26 -108q-13 -6 -31.5 -10t-46.5 -4z
M280 108q24 0 43.5 10t37.5 35v203q-19 18 -40.5 25t-41.5 7q-35 0 -62 -33.5t-27 -104.5q0 -73 23.5 -107.5t66.5 -34.5z" />
    <glyph glyph-name="uni0257" unicode="&#x257;" horiz-adv-x="573" 
d="M242 -12q-92 0 -147.5 69.5t-55.5 190.5q0 81 29.5 139.5t77 89.5t99.5 31q41 0 69 -14t53 -38l-1 82q0 48 17 88t54.5 63.5t100.5 23.5q24 0 40 -2.5t29 -7.5l-26 -108q-10 3 -20 3q-28 0 -40.5 -17.5t-12.5 -54.5v-526h-120l-10 49h-4q-26 -26 -61 -43.5t-71 -17.5z
M280 108q24 0 43.5 10t37.5 35v203q-19 18 -40.5 25t-41.5 7q-35 0 -62 -33.5t-27 -104.5q0 -73 23.5 -107.5t66.5 -34.5z" />
    <glyph glyph-name="uni0258" unicode="&#x258;" horiz-adv-x="518" 
d="M235 -12q-44 0 -93 15t-87 41l48 89q54 -33 112 -33q50 0 82 25.5t42 79.5h-297q-1 9 -3.5 27.5t-2.5 37.5q0 68 26 121.5t75.5 85t120.5 31.5q60 0 111 -31.5t82 -89.5t31 -139q0 -82 -32 -140t-88 -89t-127 -31zM162 302h179q-6 47 -29 70.5t-59 23.5
q-44 0 -67.5 -26.5t-23.5 -67.5z" />
    <glyph glyph-name="uni0259" unicode="&#x259;" horiz-adv-x="518" 
d="M249 -12q-70 0 -117.5 31.5t-71.5 86t-24 122.5q0 20 2.5 38t3.5 27h297q-8 53 -37.5 78t-76.5 25q-28 0 -55 -8.5t-53 -24.5l-49 95q41 27 88.5 38.5t93.5 11.5q66 0 118.5 -31t83 -89.5t30.5 -139.5q0 -80 -32.5 -138.5t-85.5 -90t-115 -31.5zM246 100q36 0 62 23
t33 73h-179q0 -43 20 -69.5t64 -26.5z" />
    <glyph glyph-name="uni025A" unicode="&#x25a;" horiz-adv-x="727" 
d="M253 -12q-73 0 -119.5 32t-70 84.5t-27.5 112.5l292 118q-28 61 -104 61q-28 0 -54.5 -8.5t-52.5 -24.5l-49 95q41 27 88 38.5t88 11.5q75 0 127.5 -33t80.5 -90l166 67q-1 -24 -1.5 -41t-0.5 -35q0 -55 14 -76.5t38 -21.5q14 0 23.5 3.5t16.5 7.5l31 -70
q-16 -10 -36.5 -17.5t-51.5 -7.5q-43 0 -76 27.5t-33 92.5v9l-64 -27q2 -13 3 -27t1 -29q0 -70 -29 -127t-80.5 -91t-119.5 -34zM167 166q8 -32 30.5 -50t55.5 -18q41 0 67 36t26 92v7.5v7.5z" />
    <glyph glyph-name="uni025B" unicode="&#x25b;" horiz-adv-x="462" 
d="M269 -12q-56 0 -107.5 17.5t-83.5 51.5t-32 84t29 79t75 40v4q-42 13 -61.5 42.5t-19.5 59.5q0 50 28 81t74.5 46t99.5 15q86 0 159 -45l-54 -95q-25 14 -47.5 21t-49.5 7q-31 0 -48.5 -13.5t-17.5 -36.5q0 -44 69 -44h68v-97h-84q-39 0 -57.5 -11.5t-18.5 -37.5
t26.5 -41t66.5 -15q23 0 49 7.5t53 23.5l58 -93q-45 -29 -86 -39.5t-88 -10.5z" />
    <glyph glyph-name="uni025C" unicode="&#x25c;" horiz-adv-x="476" 
d="M216 -12q-49 0 -92 10.5t-91 39.5l58 93q27 -16 53.5 -23.5t48.5 -7.5q41 0 67 15t26 41t-18.5 37.5t-57.5 11.5h-83v97h67q69 0 69 44q0 23 -16.5 36.5t-48.5 13.5q-27 0 -50 -7t-48 -21l-54 95q78 45 169 45q52 0 95.5 -15t70 -46t26.5 -81q0 -30 -19.5 -59.5
t-61.5 -42.5v-4q46 -11 75 -40t29 -79t-31 -84t-79.5 -51.5t-103.5 -17.5z" />
    <glyph glyph-name="uni025E" unicode="&#x25e;" horiz-adv-x="566" 
d="M301 -12q-73 0 -133 28.5t-96 86t-36 143.5q0 88 37 146t97 87t129 29q54 0 99.5 -15t73 -46t27.5 -81q0 -30 -19.5 -59.5t-61.5 -42.5v-4q46 -11 75 -40t29 -79t-31.5 -84t-82 -51.5t-107.5 -17.5zM301 100q34 0 55.5 15t21.5 41t-16.5 37.5t-51.5 11.5h-46v97h30
q61 0 61 44q0 23 -17 36.5t-43 13.5q-49 0 -78.5 -36t-29.5 -114q0 -76 31 -111t83 -35z" />
    <glyph glyph-name="uni025F" unicode="&#x25f;" horiz-adv-x="354" 
d="M73 -196q-31 0 -51.5 4t-35.5 10l26 108q10 -3 19.5 -5t19.5 -2q29 0 40.5 19.5t11.5 60.5v206h-87v92l87 5v194h147v-194h84v-97h-84v-202q0 -54 -16 -99t-54.5 -72.5t-106.5 -27.5z" />
    <glyph glyph-name="uni0260" unicode="&#x260;" horiz-adv-x="573" 
d="M256 -203q-40 0 -91 14t-94 42l49 96q35 -19 70.5 -28t65.5 -9q55 0 79.5 25.5t25.5 63.5l4 62q-25 -22 -56.5 -36t-66.5 -14q-61 0 -107 31t-71 86.5t-25 126.5q0 76 30.5 132.5t78.5 87.5t100 31q38 0 65 -14t52 -38v44q0 41 16.5 78.5t54.5 61.5t102 24q22 0 39 -4.5
t30 -9.5l-26 -108q-7 3 -13.5 4.5t-18.5 1.5q-22 0 -31.5 -18t-9.5 -53v-464q0 -103 -65.5 -159.5t-186.5 -56.5zM280 131q24 0 43 10.5t38 36.5v178q-19 18 -40.5 25t-41.5 7q-37 0 -64 -33.5t-27 -95.5q0 -61 24.5 -94.5t67.5 -33.5z" />
    <glyph glyph-name="uni0261" unicode="&#x261;" horiz-adv-x="573" 
d="M256 -203q-40 0 -91 14t-94 42l49 96q35 -19 70.5 -28t65.5 -9q55 0 79 25.5t26 63.5l4 62q-25 -22 -56.5 -36t-66.5 -14q-61 0 -107 31t-71 86.5t-25 126.5q0 76 30.5 132.5t78.5 87.5t100 31q38 0 68.5 -13.5t58.5 -44.5h4l11 46h118v-483q0 -103 -65.5 -159.5
t-186.5 -56.5zM280 131q24 0 43 10.5t38 36.5v178q-19 18 -40.5 25t-41.5 7q-37 0 -64 -33.5t-27 -95.5q0 -61 24.5 -94.5t67.5 -33.5z" />
    <glyph glyph-name="uni0262" unicode="&#x262;" horiz-adv-x="517" 
d="M288 -12q-65 0 -123 28t-93.5 85t-35.5 145q0 84 36.5 142.5t95 89t123.5 30.5q62 0 101 -17t71 -43l-66 -88q-22 16 -42 26t-54 10q-29 0 -56 -16t-43.5 -49t-16.5 -85q0 -70 31.5 -108t82.5 -38q31 0 51 14v85h-84v98h209v-244q-31 -28 -80 -46.5t-107 -18.5z" />
    <glyph glyph-name="uni0263" unicode="&#x263;" horiz-adv-x="523" 
d="M265 -211q-70 0 -112.5 39.5t-42.5 102.5q0 37 15 71.5t46 88.5l-159 405h148l64 -208q10 -31 19.5 -57.5t19.5 -61.5h4q9 35 18.5 61.5t19.5 57.5l65 208h141l-154 -405q32 -55 47 -89t15 -71q0 -63 -41.5 -102.5t-112.5 -39.5zM265 -119q16 0 25.5 12t9.5 31
q0 39 -34 101h-5q-16 -33 -23.5 -56.5t-7.5 -44.5q0 -19 9.5 -31t25.5 -12z" />
    <glyph glyph-name="uni0264" unicode="&#x264;" horiz-adv-x="569" 
d="M285 -12q-90 0 -143.5 47.5t-53.5 124.5q0 40 26.5 91t79.5 97q-22 20 -44.5 30.5t-45.5 10.5q-28 0 -46 -12l-42 105q15 11 41 18.5t51 7.5q38 0 82 -17.5t95 -61.5q50 44 94.5 61.5t81.5 17.5q26 0 51.5 -7.5t40.5 -18.5l-41 -105q-19 12 -47 12q-25 0 -46 -10.5
t-43 -30.5q53 -46 79.5 -97t26.5 -91q0 -77 -54 -124.5t-143 -47.5zM285 100q29 0 44 18.5t15 48.5q0 28 -16 59t-43 56q-28 -25 -44 -56t-16 -59q0 -30 15.5 -48.5t44.5 -18.5z" />
    <glyph glyph-name="uni0265" unicode="&#x265;" horiz-adv-x="572" 
d="M360 -184v151l7 94q-28 -30 -65 -51.5t-88 -21.5q-81 0 -117.5 53.5t-36.5 146.5v308h147v-289q0 -53 15 -73.5t47 -20.5q28 0 48.5 12.5t42.5 42.5v328h147v-680h-147z" />
    <glyph glyph-name="uni0266" unicode="&#x266;" horiz-adv-x="571" 
d="M65 0v500q0 58 20 106t65 77.5t119 29.5q31 0 57 -6t42 -12l-27 -108q-27 10 -51 10q-37 0 -56.5 -21.5t-23.5 -71.5l-5 -81q28 26 65.5 47.5t87.5 21.5q81 0 117.5 -53.5t36.5 -146.5v-292h-147v273q0 53 -14.5 73t-46.5 20q-28 0 -48 -12.5t-44 -35.5v-318h-147z" />
    <glyph glyph-name="uni0267" unicode="&#x267;" horiz-adv-x="571" 
d="M335 -196q-31 0 -51.5 4t-36.5 10l27 108q10 -3 19 -5t19 -2q30 0 41.5 19.5t11.5 60.5v274q0 53 -14.5 73t-46.5 20q-28 0 -48 -12.5t-44 -35.5v-318h-147v500q0 58 20 106t65 77.5t119 29.5q31 0 57 -6t42 -12l-27 -108q-27 10 -51 10q-37 0 -56.5 -21.5t-23.5 -71.5
l-5 -81q28 26 65.5 47.5t87.5 21.5q81 0 117.5 -53.5t36.5 -146.5v-289q0 -54 -16 -99t-54.5 -72.5t-106.5 -27.5z" />
    <glyph glyph-name="uni0268" unicode="&#x268;" horiz-adv-x="354" 
d="M104 0v205h-88v92l87 5h1v194h147v-194h83v-97h-83v-205h-147zM177 569q-37 0 -60 21t-23 56t23 56t60 21t60 -21t23 -56t-23 -56t-60 -21z" />
    <glyph glyph-name="uni0269" unicode="&#x269;" horiz-adv-x="286" 
d="M200 -12q-76 0 -105.5 45.5t-29.5 120.5v342h147v-348q0 -23 8.5 -32t17.5 -9q5 0 8.5 0.5t9.5 1.5l18 -109q-12 -5 -30.5 -8.5t-43.5 -3.5z" />
    <glyph glyph-name="uni026A" unicode="&#x26a;" horiz-adv-x="395" 
d="M52 0v115h72v266h-72v115h291v-115h-72v-266h72v-115h-291z" />
    <glyph glyph-name="uni026B" unicode="&#x26b;" horiz-adv-x="427" 
d="M275 -12q-76 0 -105.5 45.5t-29.5 120.5v547h147v-553q0 -23 8.5 -32t17.5 -9q5 0 8.5 0.5t9.5 1.5l18 -109q-12 -5 -30.5 -8.5t-43.5 -3.5zM330 285q-37 0 -67.5 9.5t-56 22t-47.5 22t-44 9.5q-29 0 -35 -51l-92 18q3 68 31.5 101.5t78.5 33.5q38 0 68.5 -9.5
t55.5 -22.5t47.5 -22.5t44.5 -9.5q28 0 34 52l92 -18q-3 -68 -31.5 -101.5t-78.5 -33.5z" />
    <glyph glyph-name="uni026C" unicode="&#x26c;" horiz-adv-x="438" 
d="M135 380h25v1q0 27 -13 43t-33 16q-30 0 -30 -30t51 -30zM160 0v282h-12q-80 0 -116.5 36t-36.5 88q0 45 29.5 75t75.5 30q19 0 33.5 -5.5t26.5 -15.5v211h147v-321h116v-98h-116v-282h-147z" />
    <glyph glyph-name="uni026D" unicode="&#x26d;" horiz-adv-x="286" 
d="M232 -196q-64 0 -100.5 26t-51.5 69t-15 95v707h147v-711q0 -37 9.5 -54t33.5 -17q8 0 14.5 2t13.5 5l26 -108q-13 -6 -31.5 -10t-45.5 -4z" />
    <glyph glyph-name="uni026E" unicode="&#x26e;" horiz-adv-x="623" 
d="M65 0v701h147v-205h367v-78l-131 -193q61 -9 94.5 -38t46.5 -69.5t13 -85.5q0 -73 -30 -124t-80 -77.5t-109 -26.5q-65 0 -110.5 24.5t-77.5 56.5l66 91q22 -21 47.5 -37t56.5 -16q39 0 64.5 28t25.5 78q0 44 -21.5 68.5t-58.5 24.5q-20 0 -30.5 -2.5t-27.5 -9.5l-48 71
l135 200h-192v-381h-147z" />
    <glyph glyph-name="uni026F" unicode="&#x26f;" horiz-adv-x="857" 
d="M218 -12q-80 0 -117.5 53.5t-37.5 146.5v308h147v-289q0 -53 15.5 -73.5t46.5 -20.5q38 0 84 48v335h147v-289q0 -53 15 -73.5t46 -20.5q37 0 85 48v335h147v-496h-120l-11 64h-3q-31 -31 -66.5 -53.5t-84.5 -22.5q-52 0 -85 22t-52 62q-32 -34 -69 -59t-87 -25z" />
    <glyph glyph-name="uni0270" unicode="&#x270;" horiz-adv-x="857" 
d="M649 -184v151l7 93q-34 -34 -67.5 -53t-77.5 -19q-52 0 -85 22t-52 62q-32 -34 -69 -59t-87 -25q-80 0 -117.5 53.5t-37.5 146.5v308h147v-289q0 -53 15.5 -73.5t46.5 -20.5q38 0 84 48v335h147v-289q0 -53 15 -73.5t46 -20.5q37 0 85 48v335h147v-680h-147z" />
    <glyph glyph-name="uni0271" unicode="&#x271;" horiz-adv-x="857" 
d="M628 -196q-27 0 -46 4t-33 10l26 108q8 -3 15.5 -5t15.5 -2q26 0 35 19.5t9 60.5v290q0 54 -14.5 74t-46.5 20q-37 0 -85 -48v-335h-147v289q0 54 -14.5 74t-46.5 20q-37 0 -84 -48v-335h-147v496h120l10 -64h4q31 31 66 53.5t84 22.5q53 0 85.5 -21.5t51.5 -61.5
q33 34 70 58.5t86 24.5q80 0 117.5 -53.5t37.5 -146.5v-305q0 -54 -15.5 -99t-52 -72.5t-101.5 -27.5z" />
    <glyph glyph-name="uni0272" unicode="&#x272;" horiz-adv-x="572" 
d="M45 -196q-28 0 -46 4t-32 10l26 108q8 -3 15 -5t14 -2q24 0 33.5 17t9.5 54v506h120l10 -63h4q32 30 70.5 52.5t88.5 22.5q81 0 117.5 -53.5t36.5 -146.5v-308h-147v289q0 54 -14.5 74t-46.5 20q-28 0 -48 -12.5t-44 -35.5v-341q0 -52 -15.5 -95t-51.5 -69t-100 -26z" />
    <glyph glyph-name="uni0273" unicode="&#x273;" horiz-adv-x="572" 
d="M532 -196q-63 0 -99.5 26t-52 69t-15.5 95v295q0 54 -14.5 74t-46.5 20q-28 0 -48 -12.5t-44 -35.5v-335h-147v496h120l10 -63h4q32 30 70.5 52.5t88.5 22.5q81 0 117.5 -53.5t36.5 -146.5v-318q0 -37 9.5 -54t33.5 -17q8 0 15 2t14 5l26 -108q-13 -6 -31.5 -10t-46.5 -4
z" />
    <glyph glyph-name="uni0274" unicode="&#x274;" horiz-adv-x="561" 
d="M65 0v496h135l118 -209q11 -22 25.5 -52t24.5 -52h3q-4 45 -8 92t-4 84v137h137v-496h-135l-119 209q-11 22 -24.5 52t-24.5 52h-4q5 -45 9 -92t4 -84v-137h-137z" />
    <glyph glyph-name="uni0275" unicode="&#x275;" horiz-adv-x="555" 
d="M278 -12q-64 0 -119 29.5t-89 87.5t-34 143q0 86 34 143.5t89 87t119 29.5t118.5 -29.5t88.5 -87t34 -143.5q0 -85 -34 -143t-88.5 -87.5t-118.5 -29.5zM278 399q-82 0 -100 -97h199q-18 97 -99 97zM278 98q86 0 101 107h-203q15 -107 102 -107z" />
    <glyph glyph-name="uni0276" unicode="&#x276;" horiz-adv-x="726" 
d="M291 -12q-64 0 -122.5 28t-95.5 85.5t-37 145.5q0 87 37 145t95.5 87t122.5 29q29 0 53.5 -2t61.5 -10h284v-107h-205v-87h174v-97h-174v-100h215v-105h-294q-34 -7 -60 -9.5t-55 -2.5zM298 104q21 0 43 6v274q-22 6 -43 6q-28 0 -53.5 -14.5t-41.5 -45.5t-16 -83
q0 -54 16 -85.5t41.5 -44.5t53.5 -13z" />
    <glyph glyph-name="uni0277" unicode="&#x277;" horiz-adv-x="747" 
d="M235 -12q-90 0 -142.5 55t-52.5 183q0 74 37 138t111 104t186 40q115 0 188.5 -39.5t109 -104t35.5 -139.5q0 -112 -48.5 -174.5t-140.5 -62.5q-44 0 -83.5 21t-59.5 73h-4q-20 -52 -56 -73t-80 -21zM245 100q60 0 60 100v102h134v-102q0 -56 16.5 -78t40.5 -22
q34 0 53 31t19 96q0 77 -48 123t-149 46q-72 0 -114 -25t-60 -64.5t-18 -82.5q0 -124 66 -124z" />
    <glyph glyph-name="uni0278" unicode="&#x278;" horiz-adv-x="738" 
d="M302 -184v176q-69 4 -130 34t-98.5 86t-37.5 136t37.5 136t98.5 86.5t130 33.5v197h134v-197q70 -3 130.5 -33.5t98 -86.5t37.5 -136t-37.5 -136t-98.5 -86t-130 -34v-176h-134zM187 248q0 -69 31.5 -106t83.5 -40v292q-52 -3 -83.5 -40t-31.5 -106zM551 248
q0 69 -31 106t-84 40v-292q53 3 84 40t31 106z" />
    <glyph glyph-name="uni0279" unicode="&#x279;" horiz-adv-x="398" 
d="M58 -12q-21 0 -34.5 3t-24.5 7l25 127q13 -3 25 -5.5t28 -2.5q29 0 59.5 20.5t50.5 71.5v287h147v-496h-120l-11 87h-4q-27 -50 -65 -74.5t-76 -24.5z" />
    <glyph glyph-name="uni027A" unicode="&#x27a;" horiz-adv-x="398" 
d="M58 -12q-21 0 -34.5 3t-24.5 7l25 127q13 -3 25 -5.5t28 -2.5q29 0 59.5 20.5t50.5 71.5v492h147v-701h-120l-11 87h-4q-27 -50 -65 -74.5t-76 -24.5z" />
    <glyph glyph-name="uni027B" unicode="&#x27b;" horiz-adv-x="398" 
d="M354 -196q-57 0 -90 23t-47 61.5t-14 84.5v114h-4q-27 -50 -65 -74.5t-76 -24.5q-21 0 -34.5 3t-24.5 7l25 127q13 -3 25 -5.5t28 -2.5q29 0 59.5 20.5t50.5 71.5v287h147v-506q0 -37 9.5 -54t32.5 -17q8 0 15 2t14 5l26 -108q-13 -6 -31.5 -10t-45.5 -4z" />
    <glyph glyph-name="uni027D" unicode="&#x27d;" horiz-adv-x="398" 
d="M232 -196q-64 0 -100.5 26t-51.5 69t-15 95v502h120l10 -87h4q27 50 65 74.5t76 24.5q21 0 35 -2.5t24 -7.5l-24 -127q-13 4 -25.5 6t-28.5 2q-28 0 -58.5 -20.5t-50.5 -70.5v-298q0 -37 9.5 -54t33.5 -17q8 0 14.5 2t13.5 5l26 -108q-13 -6 -31.5 -10t-45.5 -4z" />
    <glyph glyph-name="uni027E" unicode="&#x27e;" horiz-adv-x="377" 
d="M61 0v304q0 56 21 102.5t66.5 74t117.5 27.5q37 0 65 -4t46 -10l-22 -123q-21 6 -33.5 8t-34.5 2q-17 0 -35.5 -10.5t-31 -34t-12.5 -64.5v-272h-147z" />
    <glyph glyph-name="uni0280" unicode="&#x280;" horiz-adv-x="532" 
d="M65 0v496h204q57 0 103.5 -15t74 -51t27.5 -98q0 -51 -22.5 -85t-57.5 -54l123 -193h-163l-90 163h-52v-163h-147zM212 260h40q39 0 58 19t19 48q0 60 -77 60h-40v-127z" />
    <glyph glyph-name="uni0281" unicode="&#x281;" horiz-adv-x="532" 
d="M252 109q77 0 77 61q0 29 -19 47.5t-58 18.5h-40v-127h40zM269 0h-204v496h147v-162h52l90 162h163l-123 -192q35 -20 57.5 -54t22.5 -85q0 -62 -27.5 -98t-74 -51.5t-103.5 -15.5z" />
    <glyph glyph-name="uni0282" unicode="&#x282;" horiz-adv-x="443" 
d="M181 -196q-61 0 -96 27.5t-49.5 72.5t-14.5 99v144l4 2q66 -34 109 -43t76 -9q37 0 52.5 11.5t15.5 30.5q0 17 -14.5 28t-37.5 20.5t-49 19.5q-30 12 -59.5 30t-49.5 46.5t-20 69.5q0 69 52.5 112t137.5 43q57 0 100.5 -19.5t74.5 -43.5l-66 -88q-26 20 -52 31t-52 11
q-57 0 -57 -39q0 -24 28.5 -36.5t66.5 -26.5q32 -11 62.5 -28.5t51 -46t20.5 -74.5q0 -67 -52 -113.5t-152 -46.5q-12 0 -30 2t-40 8q1 -48 15.5 -65t39.5 -17q10 0 19.5 2t19.5 5l26 -105q-14 -5 -32.5 -9.5t-47.5 -4.5z" />
    <glyph glyph-name="uni0283" unicode="&#x283;" horiz-adv-x="278" 
d="M36 -196q-31 0 -51.5 4t-35.5 10l26 108q10 -3 19.5 -5t19.5 -2q29 0 40.5 19.5t11.5 60.5v514q0 55 17 100t58 72.5t112 27.5q28 0 46.5 -4t31.5 -10l-26 -108q-7 3 -14 5t-15 2q-35 0 -49 -19.5t-14 -60.5v-515q0 -54 -16 -99t-54.5 -72.5t-106.5 -27.5z" />
    <glyph glyph-name="uni0284" unicode="&#x284;" horiz-adv-x="354" 
d="M73 -196q-31 0 -51.5 4t-35.5 10l26 108q10 -3 19.5 -5t19.5 -2q29 0 40.5 19.5t11.5 60.5v206h-87v92l87 5v211q0 55 17 100t58 72.5t112 27.5q28 0 46.5 -4t31.5 -10l-26 -108q-7 3 -14 5t-15 2q-35 0 -49 -19.5t-14 -60.5v-216h84v-97h-84v-202q0 -54 -16 -99
t-54.5 -72.5t-106.5 -27.5z" />
    <glyph glyph-name="uni0288" unicode="&#x288;" horiz-adv-x="383" 
d="M256 -196q-92 0 -131.5 53t-39.5 139v385h-68v109l76 6l17 132h122v-132h119v-115h-119v-383q0 -42 17.5 -60.5t46.5 -18.5q12 0 24.5 3t22.5 7l23 -107q-19 -6 -46.5 -12t-63.5 -6z" />
    <glyph glyph-name="uni0289" unicode="&#x289;" horiz-adv-x="650" 
d="M257 -12q-81 0 -117.5 53.5t-36.5 146.5v67h-87v91l87 6v144h147v-144h150v144h147v-144h84v-97h-84v-255h-120l-11 69h-3q-31 -37 -68 -59t-88 -22zM250 207q0 -53 15 -73.5t47 -20.5q28 0 47 13t41 42v87h-150v-48z" />
    <glyph glyph-name="uni028A" unicode="&#x28a;" horiz-adv-x="568" 
d="M284 -12q-76 0 -130 31t-82 80t-28 102q0 60 22.5 105t49.5 72v3h-82v115h214v-95q-28 -34 -42 -72.5t-14 -95.5q0 -53 22.5 -89.5t69.5 -36.5t69.5 36.5t22.5 89.5q0 57 -14 95.5t-42 72.5v95h213v-115h-82v-3q28 -27 50 -72t22 -105q0 -53 -28 -102t-81.5 -80
t-129.5 -31z" />
    <glyph glyph-name="uni028B" unicode="&#x28b;" horiz-adv-x="552" 
d="M273 -12q-97 0 -155 57.5t-58 171.5v279h147v-277q0 -58 19.5 -85t53.5 -27q41 0 62.5 45.5t21.5 124.5q0 117 -52 117q-9 0 -20 -3l-16 109q24 8 68 8q49 0 87.5 -22t61 -68t22.5 -119q0 -93 -27 -163t-81 -109t-134 -39z" />
    <glyph glyph-name="uni028C" unicode="&#x28c;" horiz-adv-x="523" 
d="M12 0l162 496h169l168 -496h-148l-65 234q-9 37 -19 75.5t-19 77.5h-4q-10 -39 -19.5 -77.5t-19.5 -75.5l-64 -234h-141z" />
    <glyph glyph-name="uni028D" unicode="&#x28d;" horiz-adv-x="776" 
d="M24 0l119 496h172l45 -198q7 -34 13.5 -69.5t13.5 -75.5h4q6 40 12 75.5t13 69.5l43 198h169l124 -496h-146l-48 230q-6 37 -11 73.5t-11 73.5h-4q-7 -37 -14 -74.5t-16 -72.5l-54 -230h-127l-56 230q-9 37 -16 73.5t-15 73.5h-4q-7 -37 -11.5 -73.5t-11.5 -73.5
l-47 -230h-136z" />
    <glyph glyph-name="uni028E" unicode="&#x28e;" horiz-adv-x="521" 
d="M12 0l181 524q24 62 51.5 104t67.5 63.5t98 21.5q23 0 39 -2.5t31 -7.5l-26 -112q-7 2 -16 4t-17 2q-37 0 -57 -18t-30 -47l-16 -49l191 -483h-147l-71 213q-11 34 -20.5 69t-19.5 72h-4q-8 -35 -16.5 -70.5t-17.5 -70.5l-60 -213h-141z" />
    <glyph glyph-name="uni028F" unicode="&#x28f;" horiz-adv-x="466" 
d="M160 0v150l-168 346h155l43 -107q10 -31 21 -58.5t21 -59.5h4q11 32 22 59.5t22 58.5l41 107h153l-167 -346v-150h-147z" />
    <glyph glyph-name="uni0290" unicode="&#x290;" horiz-adv-x="460" 
d="M449 -196q-58 0 -92 25.5t-48.5 65.5t-14.5 83v22h-256v79l208 302h-185v115h368v-78l-208 -303h205v-125q0 -37 9.5 -54t33.5 -17q8 0 15 2t14 5l26 -108q-14 -6 -31.5 -10t-43.5 -4z" />
    <glyph glyph-name="uni0291" unicode="&#x291;" horiz-adv-x="520" 
d="M414 176q-16 0 -31 -16.5t-30 -52.5h12.5h13.5q31 0 45.5 13t14.5 29q0 27 -25 27zM302 -82l-80 15q3 15 6 29.5t7 28.5q-50 2 -100 3.5t-97 5.5v79l208 302h-185v115h358v-78l-208 -303q15 -1 30 -2.5t30 -2.5q26 66 62 105t91 39q48 0 76.5 -28t28.5 -77
q0 -43 -19.5 -79.5t-61.5 -58t-108 -21.5h-11.5h-11.5q-7 -33 -15 -72z" />
    <glyph glyph-name="uni0292" unicode="&#x292;" horiz-adv-x="460" 
d="M211 -196q-71 0 -121 24t-85 57l66 91q25 -22 55.5 -37.5t67.5 -15.5q43 0 70.5 28t27.5 78q0 44 -26 68.5t-70 24.5q-20 0 -31 -2.5t-28 -9.5l-48 71l152 200h-203v115h378v-78l-149 -196q83 -6 127.5 -59t44.5 -131q0 -73 -31.5 -124t-83 -77.5t-113.5 -26.5z" />
    <glyph glyph-name="uni0294" unicode="&#x294;" horiz-adv-x="448" 
d="M129 0v325q84 52 119.5 90.5t35.5 85.5q0 45 -25 69t-68 24q-38 0 -69 -19t-56 -45l-72 93q35 38 87.5 64t125.5 26q61 0 111.5 -23t81.5 -68.5t31 -113.5q0 -52 -20 -93.5t-55 -75.5t-80 -66v-273h-147z" />
    <glyph glyph-name="uni0295" unicode="&#x295;" horiz-adv-x="448" 
d="M172 0v273q-44 32 -79.5 66t-55.5 75.5t-20 93.5q0 68 31 113.5t82.5 68.5t112.5 23q73 0 124.5 -26t86.5 -64l-72 -93q-24 26 -54.5 45t-68.5 19q-43 0 -69 -24t-26 -69q0 -47 35.5 -85.5t119.5 -90.5v-325h-147z" />
    <glyph glyph-name="uni0298" unicode="&#x298;" horiz-adv-x="556" 
d="M278 -12q-102 0 -166 90.5t-64 273.5t64 272t166 89t166 -89t64 -272t-64 -273.5t-166 -90.5zM278 107q24 0 46 22t36 75.5t14 147.5q0 92 -14 144.5t-36 75t-46 22.5t-46 -22.5t-36 -75t-14 -144.5q0 -94 14 -147.5t36 -75.5t46 -22zM278 290q-26 0 -45 18.5t-19 45.5
q0 26 19 44t45 18t45 -18t19 -44q0 -27 -19 -45.5t-45 -18.5z" />
    <glyph glyph-name="uni0299" unicode="&#x299;" horiz-adv-x="528" 
d="M65 0v496h211q56 0 101 -12t71.5 -40.5t26.5 -78.5q0 -31 -19.5 -60.5t-63.5 -41.5v-4q47 -11 74.5 -38.5t27.5 -77.5q0 -51 -28 -82.5t-74.5 -46t-103.5 -14.5h-223zM208 302h58q37 0 53 13t16 35q0 23 -15.5 36t-52.5 13h-59v-97zM208 97h71q40 0 56.5 15.5t16.5 40.5
q0 22 -17.5 37t-56.5 15h-70v-108z" />
    <glyph glyph-name="uni029C" unicode="&#x29c;" horiz-adv-x="582" 
d="M65 0v496h147v-179h159v179h147v-496h-147v189h-159v-189h-147z" />
    <glyph glyph-name="uni029D" unicode="&#x29d;" horiz-adv-x="391" 
d="M86 -49q0 -13 11 -24t32 -11q23 0 35 15.5t14 41.5q-25 15 -49 15q-22 0 -32.5 -10t-10.5 -27zM335 -232q-12 29 -26 54t-28 47q-24 -30 -60.5 -47.5t-86.5 -17.5q-73 0 -113.5 42t-40.5 103t38.5 98.5t103.5 37.5q28 0 57 -8v419h147v-484q0 -23 -3 -44q47 -65 91 -166z
M253 569q-37 0 -60 21t-23 56t23 56t60 21t60 -21t23 -56t-23 -56t-60 -21z" />
    <glyph glyph-name="uni029F" unicode="&#x29f;" horiz-adv-x="432" 
d="M65 0v496h147v-381h194v-115h-341z" />
    <glyph glyph-name="uni02A1" unicode="&#x2a1;" horiz-adv-x="458" 
d="M139 0v116h-110v91l101 6h9v112q84 52 119.5 90.5t35.5 85.5q0 45 -25 69t-68 24q-38 0 -69 -19t-56 -45l-72 93q35 38 87.5 64t125.5 26q61 0 111.5 -23t81.5 -68.5t31 -113.5q0 -52 -20 -93.5t-55 -75.5t-80 -66v-60h105v-97h-105v-116h-147z" />
    <glyph glyph-name="uni02A2" unicode="&#x2a2;" horiz-adv-x="458" 
d="M172 0v116h-109v91l101 6h8v60q-44 32 -79.5 66t-55.5 75.5t-20 93.5q0 68 31 113.5t82.5 68.5t112.5 23q73 0 124.5 -26t86.5 -64l-72 -93q-24 26 -54.5 45t-68.5 19q-43 0 -69 -24t-26 -69q0 -47 35.5 -85.5t119.5 -90.5v-112h106v-97h-106v-116h-147z" />
    <glyph glyph-name="uni02A4" unicode="&#x2a4;" horiz-adv-x="896" 
d="M232 -12q-88 0 -140.5 69.5t-52.5 190.5q0 81 28 139.5t73 89.5t95 31q38 0 62.5 -14.5t49.5 -37.5l-6 76v169h147v-205h364v-78l-127 -193q60 -10 92.5 -38.5t45 -69t12.5 -85.5q0 -73 -30 -124t-79.5 -77.5t-108.5 -26.5q-64 0 -108.5 25t-77.5 56l66 91
q23 -20 47.5 -36.5t55.5 -16.5q38 0 63 28t25 78q0 44 -20.5 68.5t-55.5 24.5q-20 0 -31 -2.5t-28 -9.5l-48 71l132 200h-189v-381h-120l-10 49h-4q-25 -25 -56.5 -43t-65.5 -18zM270 108q39 0 71 45v203q-18 17 -36 24.5t-36 7.5q-32 0 -55.5 -33.5t-23.5 -104.5
q0 -73 21.5 -107.5t58.5 -34.5z" />
    <glyph glyph-name="uni02A7" unicode="&#x2a7;" horiz-adv-x="590" 
d="M348 -196q-31 0 -51.5 4t-36.5 10l26 108q11 -3 20 -5t19 -2q30 0 41.5 19.5t11.5 60.5v50h-4q-25 -28 -59 -44.5t-78 -16.5q-80 0 -116 53.5t-36 146.5v193h-68v109l76 6l17 132h122v-132h146v17q0 55 17 100t58 72.5t112 27.5q28 0 46 -4t32 -10l-26 -108q-7 3 -14 5
t-15 2q-35 0 -49 -19.5t-14 -60.5v-515q0 -54 -16 -99t-54.5 -72.5t-106.5 -27.5zM291 113q28 0 47 11.5t40 39.5v217h-146v-174q0 -53 14 -73.5t45 -20.5z" />
    <glyph glyph-name="h.sups" unicode="&#x2b0;" horiz-adv-x="384" 
d="M42 375v463h104v-113l-7 -61q17 18 43.5 33.5t59.5 15.5q56 0 80 -37t24 -98v-203h-104v190q0 30 -7 45.5t-33 15.5q-15 0 -28 -8.5t-28 -23.5v-219h-104z" />
    <glyph glyph-name="j.sups" unicode="&#x2b2;" horiz-adv-x="190" 
d="M27 240q-22 0 -35.5 2.5t-24.5 5.5l18 77q5 -1 11.5 -2.5t14.5 -1.5q20 0 26.5 11.5t6.5 39.5v333h104v-329q0 -37 -11 -68t-37.5 -49.5t-72.5 -18.5zM96 749q-26 0 -42.5 15t-16.5 38t16.5 38t42.5 15t42.5 -15t16.5 -38t-16.5 -38t-42.5 -15z" />
    <glyph glyph-name="r.sups" unicode="&#x2b3;" horiz-adv-x="272" 
d="M42 375v330h84l8 -58h2q20 34 44.5 50t49.5 16q15 0 25 -2.5t17 -5.5l-18 -89q-7 2 -16.5 4t-19.5 2q-19 0 -38.5 -13t-33.5 -46v-188h-104z" />
    <glyph glyph-name="w.sups" unicode="&#x2b7;" horiz-adv-x="523" 
d="M98 375l-82 330h103l29 -148l15 -100h3l18 100l38 148h83l40 -148l19 -100h3l16 100l29 148h95l-78 -330h-121l-29 127l-16 90h-2l-16 -90l-28 -127h-119z" />
    <glyph glyph-name="y.sups" unicode="&#x2b8;" horiz-adv-x="353" 
d="M83 252q-15 0 -26.5 1.5t-22.5 4.5l18 77q8 -3 13 -3.5t10 -0.5q23 0 37 11.5t20 29.5l5 14l-129 319h104l45 -137q8 -25 13 -46.5t12 -47.5h4q5 24 11 47t12 47l37 137h99l-112 -329q-25 -63 -57 -93.5t-93 -30.5z" />
    <glyph glyph-name="uni02B9" unicode="&#x2b9;" horiz-adv-x="300" 
d="M82 388l19 298l147 -1l-23 -126l-47 -171h-96z" />
    <glyph glyph-name="quoteleft" unicode="&#x2018;" horiz-adv-x="300" 
d="M149 338q-46 0 -70 35t-24 96q0 71 35 125t107 89l32 -64q-45 -22 -67.5 -52.5t-22.5 -74.5q2 1 5 1h5q32 0 54.5 -19.5t22.5 -53.5q0 -37 -22 -59.5t-55 -22.5z" />
    <glyph glyph-name="quoteleft" unicode="&#x2bb;" horiz-adv-x="300" 
d="M149 338q-46 0 -70 35t-24 96q0 71 35 125t107 89l32 -64q-45 -22 -67.5 -52.5t-22.5 -74.5q2 1 5 1h5q32 0 54.5 -19.5t22.5 -53.5q0 -37 -22 -59.5t-55 -22.5z" />
    <glyph glyph-name="quoteright" unicode="&#x2019;" horiz-adv-x="300" 
d="M103 352l-32 64q45 23 67.5 53t22.5 74q-3 -1 -9 -1q-32 0 -54.5 19.5t-22.5 53.5q0 38 21.5 60t55.5 22q46 0 70 -34.5t24 -96.5q0 -144 -143 -214z" />
    <glyph glyph-name="quoteright" unicode="&#x2bc;" horiz-adv-x="300" 
d="M103 352l-32 64q45 23 67.5 53t22.5 74q-3 -1 -9 -1q-32 0 -54.5 19.5t-22.5 53.5q0 38 21.5 60t55.5 22q46 0 70 -34.5t24 -96.5q0 -144 -143 -214z" />
    <glyph glyph-name="uni02BE" unicode="&#x2be;" horiz-adv-x="193" 
d="M26 548v55q37 -1 52 13t15 36t-15 36t-52 13v54q82 5 119 -25.5t37 -77.5t-37 -77.5t-119 -26.5z" />
    <glyph glyph-name="uni02BF" unicode="&#x2bf;" horiz-adv-x="193" 
d="M167 548q-82 -4 -119 26.5t-37 77.5t37 77.5t119 25.5v-54q-37 1 -52 -13t-15 -36t15 -36t52 -13v-55z" />
    <glyph glyph-name="uni02C1" unicode="&#x2c1;" horiz-adv-x="343" 
d="M132 375v172q-46 35 -75 71t-29 90q0 46 22 76.5t58 45.5t78 15q47 0 81 -17t57 -42l-51 -65q-14 18 -33 30t-42 12q-30 0 -48 -15t-18 -44q0 -31 22.5 -57t80.5 -63v-209h-103z" />
    <glyph glyph-name="circumflex" unicode="&#x2c6;" horiz-adv-x="555" 
d="M95 613l108 131h150l108 -131l-56 -52l-125 92h-4l-125 -92z" />
    <glyph glyph-name="caron" unicode="&#x2c7;" horiz-adv-x="555" 
d="M203 577l-108 131l56 52l125 -92h4l125 92l56 -52l-108 -131h-150z" />
    <glyph glyph-name="uni02C8" unicode="&#x2c8;" horiz-adv-x="147" 
d="M21 540l-6 205h118l-6 -205h-106z" />
    <glyph glyph-name="uni02C9" unicode="&#x2c9;" horiz-adv-x="308" 
d="M6 592v93h296v-93h-296z" />
    <glyph glyph-name="uni02CA" unicode="&#x2ca;" horiz-adv-x="236" 
d="M128 572l-72 72l154 182l99 -97z" />
    <glyph glyph-name="uni02CB" unicode="&#x2cb;" horiz-adv-x="236" 
d="M108 572l-181 157l99 97l154 -182z" />
    <glyph glyph-name="uni02CC" unicode="&#x2cc;" horiz-adv-x="147" 
d="M15 -270l6 206h106l6 -206h-118z" />
    <glyph glyph-name="uni02D0" unicode="&#x2d0;" horiz-adv-x="257" 
d="M21 0l100 191h15l100 -191h-215zM121 305l-100 191h215l-100 -191h-15z" />
    <glyph glyph-name="uni02D1" unicode="&#x2d1;" horiz-adv-x="257" 
d="M121 305l-100 191h215l-100 -191h-15z" />
    <glyph glyph-name="breve" unicode="&#x2d8;" horiz-adv-x="555" 
d="M278 572q-85 0 -126 45.5t-43 111.5l84 14q5 -32 25 -55.5t60 -23.5t60.5 23.5t24.5 55.5l84 -14q-2 -66 -42.5 -111.5t-126.5 -45.5z" />
    <glyph glyph-name="dotaccent" unicode="&#x2d9;" horiz-adv-x="555" 
d="M278 569q-37 0 -60 21t-23 56t23 56t60 21t60 -21t23 -56t-23 -56t-60 -21z" />
    <glyph glyph-name="ring" unicode="&#x2da;" horiz-adv-x="555" 
d="M278 564q-65 0 -98.5 30.5t-33.5 73.5q0 44 33.5 74t98.5 30t98.5 -30t33.5 -74q0 -43 -33.5 -73.5t-98.5 -30.5zM278 619q18 0 30.5 13.5t12.5 35.5t-12.5 35.5t-30.5 13.5t-30.5 -13.5t-12.5 -35.5t12.5 -35.5t30.5 -13.5z" />
    <glyph glyph-name="ogonek" unicode="&#x2db;" horiz-adv-x="555" 
d="M287 -210q-44 0 -75 23t-31 68q0 38 22 70t47 51h82q-52 -42 -52 -87q0 -20 13 -29t29 -9q10 0 19 4t16 8l31 -66q-19 -15 -48.5 -24t-52.5 -9z" />
    <glyph glyph-name="tilde" unicode="&#x2dc;" horiz-adv-x="555" 
d="M344 573q-24 0 -42.5 9.5t-34 22.5t-28 22.5t-24.5 9.5q-15 0 -23.5 -13t-11.5 -42l-92 5q2 77 34 114.5t90 37.5q24 0 42.5 -9.5t34 -22.5t28 -22.5t24.5 -9.5q29 0 35 55l92 -5q-2 -77 -34 -114.5t-90 -37.5z" />
    <glyph glyph-name="hungarumlaut" unicode="&#x2dd;" horiz-adv-x="555" 
d="M226 565l-77 35l87 181l99 -44zM405 565l-77 35l87 181l99 -44z" />
    <glyph glyph-name="uni02DE" unicode="&#x2de;" horiz-adv-x="211" 
d="M-115 263v100l217 89q-1 -24 -1.5 -41t-0.5 -35q0 -55 14 -76.5t38 -21.5q14 0 23.5 3.5t16.5 7.5l31 -70q-16 -10 -36.5 -17.5t-51.5 -7.5q-43 0 -76 27.5t-33 92.5v9z" />
    <glyph glyph-name="uni02E0" unicode="&#x2e0;" horiz-adv-x="353" 
d="M180 237q-49 0 -78.5 27t-29.5 71q0 25 10.5 47t29.5 54l-104 268h103l42 -134q6 -21 12 -38t13 -40h3q6 23 12.5 40t12.5 38l41 134h99l-100 -266q19 -33 29.5 -55.5t10.5 -47.5q0 -44 -29 -71t-77 -27zM180 300q10 0 16.5 7.5t6.5 19.5q0 24 -23 66h-3
q-10 -22 -15.5 -37t-5.5 -29q0 -27 24 -27z" />
    <glyph glyph-name="l.sups" unicode="&#x2e1;" horiz-adv-x="194" 
d="M137 367q-54 0 -74.5 31.5t-20.5 83.5v356h104v-360q0 -29 17 -29q3 0 6 0.5t7 1.5l12 -75q-9 -4 -21 -6.5t-30 -2.5z" />
    <glyph glyph-name="s.sups" unicode="&#x2e2;" horiz-adv-x="297" 
d="M143 367q-33 0 -67.5 12.5t-60.5 31.5l45 65q47 -33 86 -33t39 26q0 14 -20 22.5t-46 18.5q-31 13 -59.5 35t-28.5 63q0 46 35 75.5t93 29.5q40 0 68.5 -13t50.5 -29l-46 -62q-18 12 -35.5 20t-34.5 8q-35 0 -35 -24q0 -15 20.5 -22.5t45.5 -17.5q21 -7 41 -19
t33.5 -30.5t13.5 -48.5q0 -46 -35.5 -77t-102.5 -31z" />
    <glyph glyph-name="x.sups" unicode="&#x2e3;" horiz-adv-x="348" 
d="M8 375l104 171l-97 159h111l27 -52l28 -50h4l20 50l22 52h108l-97 -171l102 -159h-110l-29 51l-32 52h-4l-25 -52l-24 -51h-108z" />
    <glyph glyph-name="uni0300" unicode="&#x300;" 
d="M-10 572l-181 157l99 97l154 -182z" />
    <glyph glyph-name="uni0301" unicode="&#x301;" 
d="M10 572l-72 72l154 182l99 -97z" />
    <glyph glyph-name="uni0302" unicode="&#x302;" 
d="M-183 613l108 131h150l108 -131l-56 -52l-125 92h-4l-125 -92z" />
    <glyph glyph-name="uni0303" unicode="&#x303;" 
d="M66 573q-24 0 -42.5 9.5t-34 22.5t-28 22.5t-24.5 9.5q-15 0 -23.5 -13t-11.5 -42l-92 5q2 77 34 114.5t90 37.5q24 0 42.5 -9.5t34 -22.5t28 -22.5t24.5 -9.5q29 0 35 55l92 -5q-2 -77 -34 -114.5t-90 -37.5z" />
    <glyph glyph-name="uni0304" unicode="&#x304;" 
d="M-148 592v93h296v-93h-296z" />
    <glyph glyph-name="uni0305" unicode="&#x305;" 
d="M-148 592v93h296v-93h-296z" />
    <glyph glyph-name="uni0306" unicode="&#x306;" 
d="M0 572q-85 0 -126 45.5t-43 111.5l84 14q5 -32 25 -55.5t60 -23.5t60.5 23.5t24.5 55.5l84 -14q-2 -66 -42.5 -111.5t-126.5 -45.5z" />
    <glyph glyph-name="uni0307" unicode="&#x307;" 
d="M0 569q-37 0 -60 21t-23 56t23 56t60 21t60 -21t23 -56t-23 -56t-60 -21z" />
    <glyph glyph-name="uni0308" unicode="&#x308;" 
d="M-109 569q-31 0 -51.5 20.5t-20.5 51.5q0 30 20.5 50.5t51.5 20.5q32 0 51.5 -20.5t19.5 -50.5q0 -31 -19.5 -51.5t-51.5 -20.5zM109 569q-31 0 -51 20.5t-20 51.5q0 30 20 50.5t51 20.5q32 0 52 -20.5t20 -50.5q0 -31 -20 -51.5t-52 -20.5z" />
    <glyph glyph-name="uni0309" unicode="&#x309;" 
d="M-43 568l-12 58q19 4 32 11.5t13 23.5q0 18 -18 28.5t-62 13.5l9 90q98 -2 138 -35t40 -86q0 -34 -19.5 -56t-51 -33.5t-69.5 -14.5z" />
    <glyph glyph-name="uni030A" unicode="&#x30a;" 
d="M0 564q-65 0 -98.5 30.5t-33.5 73.5q0 44 33.5 74t98.5 30t98.5 -30t33.5 -74q0 -43 -33.5 -73.5t-98.5 -30.5zM0 619q18 0 30.5 13.5t12.5 35.5t-12.5 35.5t-30.5 13.5t-30.5 -13.5t-12.5 -35.5t12.5 -35.5t30.5 -13.5z" />
    <glyph glyph-name="uni030B" unicode="&#x30b;" 
d="M-52 565l-77 35l87 181l99 -44zM127 565l-77 35l87 181l99 -44z" />
    <glyph glyph-name="uni030C" unicode="&#x30c;" 
d="M-75 577l-108 131l56 52l125 -92h4l125 92l56 -52l-108 -131h-150z" />
    <glyph glyph-name="uni030F" unicode="&#x30f;" 
d="M-127 565l-109 172l99 44l87 -181zM52 565l-109 172l99 44l87 -181z" />
    <glyph glyph-name="uni0311" unicode="&#x311;" 
d="M-85 565l-84 14q2 66 42.5 111.5t126.5 45.5t126.5 -45.5t42.5 -111.5l-84 -14q-4 32 -24.5 56t-60.5 24t-60 -24t-25 -56z" />
    <glyph glyph-name="uni0312" unicode="&#x312;" 
d="M-2 586q-66 0 -66 82q0 42 24 76.5t75 53.5l22 -45q-56 -21 -62 -60q2 1 7 1q21 0 37 -13.5t16 -37.5q0 -27 -15.5 -42t-37.5 -15z" />
    <glyph glyph-name="uni0313" unicode="&#x313;" 
d="M-34 582l-22 45q56 21 62 60q-2 -1 -8 -1q-21 0 -36.5 13.5t-15.5 37.5q0 27 15.5 42t37.5 15q66 0 66 -82q0 -42 -24 -76t-75 -54z" />
    <glyph glyph-name="uni0318" unicode="&#x318;" 
d="M21 -257v66h-108v71h108v66h78v-203h-78z" />
    <glyph glyph-name="uni0319" unicode="&#x319;" 
d="M-99 -257v203h78v-66h108v-71h-108v-66h-78z" />
    <glyph glyph-name="uni031A" unicode="&#x31a;" 
d="M21 574v79h-108v71h186v-150h-78z" />
    <glyph glyph-name="uni031B" unicode="&#x31b;" 
d="M1 427l-11 59q30 6 48.5 22t18.5 51q0 17 -5 32t-11 26l109 47q11 -16 20.5 -41t9.5 -53q0 -47 -24.5 -77.5t-65 -46t-89.5 -19.5z" />
    <glyph glyph-name="uni031C" unicode="&#x31c;" 
d="M63 -253q-82 -4 -119 26.5t-37 77.5t37 77.5t119 25.5v-54q-37 1 -52 -13t-15 -36t15 -36t52 -13v-55z" />
    <glyph glyph-name="uni031D" unicode="&#x31d;" 
d="M-107 -229v71h68v104h78v-104h68v-71h-214z" />
    <glyph glyph-name="uni031E" unicode="&#x31e;" 
d="M-39 -257v105h-68v70h214v-70h-68v-105h-78z" />
    <glyph glyph-name="uni031F" unicode="&#x31f;" 
d="M-39 -257v66h-68v71h68v66h78v-66h68v-71h-68v-66h-78z" />
    <glyph glyph-name="uni0320" unicode="&#x320;" 
d="M-107 -191v71h214v-71h-214z" />
    <glyph glyph-name="uni0323" unicode="&#x323;" 
d="M0 -226q-37 0 -60 21t-23 56t23 56t60 21t60 -21t23 -56t-23 -56t-60 -21z" />
    <glyph glyph-name="uni0324" unicode="&#x324;" 
d="M-109 -218q-31 0 -51.5 20.5t-20.5 51.5q0 30 20.5 50.5t51.5 20.5q32 0 51.5 -20.5t19.5 -50.5q0 -31 -19.5 -51.5t-51.5 -20.5zM109 -218q-31 0 -51 20.5t-20 51.5q0 30 20 50.5t51 20.5q32 0 52 -20.5t20 -50.5q0 -31 -20 -51.5t-52 -20.5z" />
    <glyph glyph-name="uni0325" unicode="&#x325;" 
d="M0 -253q-65 0 -98.5 30.5t-33.5 73.5q0 44 33.5 74t98.5 30t98.5 -30t33.5 -74q0 -43 -33.5 -73.5t-98.5 -30.5zM0 -198q18 0 30.5 13.5t12.5 35.5t-12.5 35.5t-30.5 13.5t-30.5 -13.5t-12.5 -35.5t12.5 -35.5t30.5 -13.5z" />
    <glyph glyph-name="uni0326" unicode="&#x326;" 
d="M-102 -239l-11 59q59 3 81 12.5t22 26.5q0 14 -15 23t-49 12l28 54q80 -7 110.5 -27t30.5 -57q0 -51 -51.5 -75.5t-145.5 -27.5z" />
    <glyph glyph-name="uni0327" unicode="&#x327;" 
d="M-102 -239l-11 59q59 3 81 13t22 31q0 15 -15.5 25.5t-61.5 16.5l48 98h86l-28 -65q38 -9 57 -26t19 -49q0 -51 -51.5 -75.5t-145.5 -27.5z" />
    <glyph glyph-name="uni0328" unicode="&#x328;" 
d="M9 -210q-44 0 -75 23t-31 68q0 38 22 70t47 51h82q-52 -42 -52 -87q0 -20 13 -29t29 -9q10 0 19 4t16 8l31 -66q-19 -15 -48.5 -24t-52.5 -9z" />
    <glyph glyph-name="uni0329" unicode="&#x329;" 
d="M-59 -270l6 206h106l6 -206h-118z" />
    <glyph glyph-name="uni032A" unicode="&#x32a;" 
d="M-128 -220v142h256v-142h-73v71h-110v-71h-73z" />
    <glyph glyph-name="uni032C" unicode="&#x32c;" 
d="M-75 -225l-108 131l56 52l125 -92h4l125 92l56 -52l-108 -131h-150z" />
    <glyph glyph-name="uni032E" unicode="&#x32e;" 
d="M0 -233q-85 0 -126 45.5t-43 111.5l84 14q5 -32 25 -55.5t60 -23.5t60.5 23.5t24.5 55.5l84 -14q-2 -66 -42.5 -111.5t-126.5 -45.5z" />
    <glyph glyph-name="uni032F" unicode="&#x32f;" 
d="M-85 -247l-84 14q2 66 42.5 111.5t126.5 45.5t126.5 -45.5t42.5 -111.5l-84 -14q-4 32 -24.5 56t-60.5 24t-60 -24t-25 -56z" />
    <glyph glyph-name="uni0330" unicode="&#x330;" 
d="M66 -227q-24 0 -42.5 9.5t-34 22.5t-28 22.5t-24.5 9.5q-15 0 -23.5 -13t-11.5 -42l-92 5q2 77 34 114.5t90 37.5q24 0 42.5 -9.5t34 -22.5t28 -22.5t24.5 -9.5q29 0 35 55l92 -5q-2 -77 -34 -114.5t-90 -37.5z" />
    <glyph glyph-name="uni0331" unicode="&#x331;" 
d="M-148 -188v93h296v-93h-296z" />
    <glyph glyph-name="uni0334" unicode="&#x334;" 
d="M116 170q-37 0 -67.5 9.5t-56 22t-47.5 22t-44 9.5q-29 0 -35 -51l-92 18q3 68 31.5 101.5t78.5 33.5q38 0 68.5 -9.5t55.5 -22.5t47.5 -22.5t44.5 -9.5q28 0 34 52l92 -18q-3 -68 -31.5 -101.5t-78.5 -33.5z" />
    <glyph glyph-name="uni0339" unicode="&#x339;" 
d="M-63 -253v55q37 -1 52 13t15 36t-15 36t-52 13v54q82 5 119 -25.5t37 -77.5t-37 -77.5t-119 -26.5z" />
    <glyph glyph-name="uni033A" unicode="&#x33a;" 
d="M-128 -214v142h73v-71h110v71h73v-142h-256z" />
    <glyph glyph-name="uni033B" unicode="&#x33b;" 
d="M-128 -247v181h256v-181h-256zM-55 -193h110v74h-110v-74z" />
    <glyph glyph-name="uni033C" unicode="&#x33c;" 
d="M-186 -235q-1 159 109 159q27 0 47 -13t29 -40h4q9 27 29.5 40t46.5 13q57 0 83.5 -39.5t25.5 -119.5l-75 -10q0 47 -10 62.5t-29 15.5q-21 0 -29.5 -15.5t-8.5 -39.5v-22h-70v22q0 24 -8.5 39.5t-30.5 15.5q-19 0 -28.5 -15.5t-9.5 -62.5z" />
    <glyph glyph-name="uni033D" unicode="&#x33d;" 
d="M-51 541l-50 49l51 51l-51 51l50 50l51 -51l51 51l50 -50l-51 -51l51 -51l-50 -49l-51 51z" />
    <glyph glyph-name="uni0342" unicode="&#x342;" 
d="M66 573q-24 0 -42.5 9.5t-34 22.5t-28 22.5t-24.5 9.5q-15 0 -23.5 -13t-11.5 -42l-92 5q2 77 34 114.5t90 37.5q24 0 42.5 -9.5t34 -22.5t28 -22.5t24.5 -9.5q29 0 35 55l92 -5q-2 -77 -34 -114.5t-90 -37.5z" />
    <glyph glyph-name="uni0343" unicode="&#x343;" 
d="M-34 582l-22 45q56 21 62 60q-2 -1 -8 -1q-21 0 -36.5 13.5t-15.5 37.5q0 27 15.5 42t37.5 15q66 0 66 -82q0 -42 -24 -76t-75 -54z" />
    <glyph glyph-name="uni0344" unicode="&#x344;" 
d="M-133 584q-23 0 -39.5 15.5t-16.5 41.5t16.5 41t39.5 15q24 0 40.5 -15t16.5 -41t-16.5 -41.5t-40.5 -15.5zM14 567l-65 14l36 220l103 -21zM133 584q-24 0 -40.5 15.5t-16.5 41.5t16.5 41t40.5 15q23 0 39.5 -15t16.5 -41t-16.5 -41.5t-39.5 -15.5z" />
    <glyph glyph-name="uni0345" unicode="&#x345;" 
d="M54 -216q-61 0 -86 34.5t-25 92.5v34h106q-1 -11 -1.5 -22t-0.5 -18q0 -19 10.5 -26t26.5 -7q4 0 7 0.5t10 1.5l14 -79q-10 -5 -25 -8t-36 -3z" />
    <glyph glyph-name="uni034F" unicode="&#x34f;" 
 />
    <glyph glyph-name="uni0361" unicode="&#x361;" 
d="M-419 536l-38 67q103 63 220 93.5t237 30.5t237 -30.5t220 -93.5l-38 -67q-65 37 -138.5 58t-145.5 30t-135 9q-62 0 -134.5 -9t-146 -30t-138.5 -58z" />
    <glyph glyph-name="uni0374" unicode="&#x374;" horiz-adv-x="300" 
d="M82 388l19 298h147l-23 -127l-47 -171h-96z" />
    <glyph glyph-name="uni0375" unicode="&#x375;" horiz-adv-x="300" 
d="M53 0l22 127l47 171h96l-19 -298h-146z" />
    <glyph glyph-name="uni037A" unicode="&#x37a;" horiz-adv-x="555" 
d="M333 -216q-61 0 -86 34.5t-25 92.5v34h106q-1 -11 -1.5 -22t-0.5 -18q0 -19 10.5 -26t26.5 -7q4 0 7 0.5t10 1.5l14 -79q-10 -5 -25 -8t-36 -3z" />
    <glyph glyph-name="uni037E" unicode="&#x37e;" horiz-adv-x="300" 
d="M150 312q-38 0 -63.5 26.5t-25.5 65.5q0 40 25.5 66.5t63.5 26.5t63.5 -26.5t25.5 -66.5q0 -39 -25.5 -65.5t-63.5 -26.5zM76 -194l-30 78q56 20 85 52.5t28 69.5h-4h-4q-35 0 -62 21.5t-27 61.5q0 38 27 61t65 23q50 0 76 -37t26 -102q0 -82 -46 -142t-134 -86z" />
    <glyph glyph-name="tonos" unicode="&#x384;" horiz-adv-x="555" 
d="M322 555l-98 18l34 220l143 -24z" />
    <glyph glyph-name="dieresistonos" unicode="&#x385;" horiz-adv-x="555" 
d="M146 584q-23 0 -39.5 15.5t-16.5 41.5t16.5 41t39.5 15q24 0 40.5 -15t16.5 -41t-16.5 -41.5t-40.5 -15.5zM293 567l-65 14l36 220l103 -21zM412 584q-24 0 -40.5 15.5t-16.5 41.5t16.5 41t40.5 15q23 0 39.5 -15t16.5 -41t-16.5 -41.5t-39.5 -15.5z" />
    <glyph glyph-name="Alphatonos" unicode="&#x386;" horiz-adv-x="622" 
d="M279 330l-16 -60h139l-15 60q-13 49 -26.5 104t-26.5 106h-4q-12 -52 -24.5 -106.5t-26.5 -103.5zM43 0l204 652h177l204 -652h-156l-40 155h-199l-40 -155h-150zM88 440l-93 17l28 213l125 -18z" />
    <glyph glyph-name="anoteleia" unicode="&#x387;" horiz-adv-x="300" 
d="M150 312q-38 0 -63.5 26.5t-25.5 65.5q0 40 25.5 66.5t63.5 26.5t63.5 -26.5t25.5 -66.5q0 -39 -25.5 -65.5t-63.5 -26.5z" />
    <glyph glyph-name="Epsilontonos" unicode="&#x388;" horiz-adv-x="667" 
d="M196 0v652h408v-124h-261v-131h222v-123h-222v-150h271v-124h-418zM81 440l-93 17l28 213l125 -18z" />
    <glyph glyph-name="Etatonos" unicode="&#x389;" horiz-adv-x="792" 
d="M196 0v652h147v-251h225v251h148v-652h-148v272h-225v-272h-147zM81 440l-93 17l28 213l125 -18z" />
    <glyph glyph-name="Iotatonos" unicode="&#x38a;" horiz-adv-x="420" 
d="M196 0v652h147v-652h-147zM81 440l-93 17l28 213l125 -18z" />
    <glyph glyph-name="Omicrontonos" unicode="&#x38c;" horiz-adv-x="777" 
d="M434 -12q-88 0 -154.5 41t-104 117.5t-37.5 182.5q0 107 37.5 181.5t104 114t154.5 39.5t154.5 -39.5t104 -114.5t37.5 -181t-37.5 -182.5t-104 -117.5t-154.5 -41zM434 115q67 0 106 58t39 156t-39 153t-106 55t-106 -55t-39 -153t39 -156t106 -58zM81 440l-93 17
l28 213l125 -18z" />
    <glyph glyph-name="Upsilontonos" unicode="&#x38e;" horiz-adv-x="704" 
d="M368 0v232l-197 420h158l58 -150q14 -37 27 -71.5t26 -72.5h4q14 38 28 72.5t27 71.5l59 150h154l-197 -420v-232h-147zM81 440l-93 17l28 213l125 -18z" />
    <glyph glyph-name="Omegatonos" unicode="&#x38f;" horiz-adv-x="803" 
d="M136 0v119h110v4q-21 22 -43 56.5t-36.5 79.5t-14.5 99q0 91 37 159.5t103.5 107.5t155.5 39t155.5 -39t103.5 -107.5t37 -159.5q0 -54 -15 -99t-36.5 -79.5t-43.5 -56.5v-4h110v-119h-267v106q50 47 75.5 104t25.5 133q0 85 -38.5 139.5t-106.5 54.5t-106.5 -54.5
t-38.5 -139.5q0 -76 25 -133t75 -104v-106h-267zM73 440l-93 17l28 213l125 -18z" />
    <glyph glyph-name="iotadieresistonos" unicode="&#x390;" horiz-adv-x="301" 
d="M206 -12q-55 0 -85.5 20.5t-43 58.5t-12.5 88v341h148q-1 -58 -3.5 -122.5t-4.5 -123.5t-2 -101q0 -24 10.5 -33t30.5 -9q6 0 15 1.5t17 4.5l17 -109q-16 -7 -35.5 -11.5t-51.5 -4.5zM5 584q-23 0 -39.5 15.5t-16.5 41.5t16.5 41t39.5 15q24 0 40.5 -15t16.5 -41
t-16.5 -41.5t-40.5 -15.5zM152 567l-65 14l36 220l103 -21zM271 584q-24 0 -40.5 15.5t-16.5 41.5t16.5 41t40.5 15q23 0 39.5 -15t16.5 -41t-16.5 -41.5t-39.5 -15.5z" />
    <glyph glyph-name="Alpha" unicode="&#x391;" horiz-adv-x="573" 
d="M230 330l-16 -60h139l-15 60q-13 49 -26.5 104t-26.5 106h-4q-12 -52 -24.5 -106.5t-26.5 -103.5zM-6 0l204 652h177l204 -652h-156l-40 155h-199l-40 -155h-150z" />
    <glyph glyph-name="Beta" unicode="&#x392;" horiz-adv-x="605" 
d="M77 0v652h223q68 0 122 -14.5t86 -49.5t32 -98q0 -43 -22.5 -84.5t-62.5 -56.5v-4q50 -13 83.5 -50.5t33.5 -102.5q0 -67 -34 -109t-91 -62.5t-128 -20.5h-242zM224 391h69q54 0 78.5 21t24.5 56q0 38 -25 54t-77 16h-70v-147zM224 114h83q121 0 121 88q0 43 -30 61.5
t-91 18.5h-83v-168z" />
    <glyph glyph-name="Gamma" unicode="&#x393;" horiz-adv-x="521" 
d="M77 0v652h411v-124h-264v-528h-147z" />
    <glyph glyph-name="Delta" unicode="&#x2206;" horiz-adv-x="640" 
d="M34 0v89l198 563h176l198 -563v-89h-572zM192 124h252l-69 220l-56 195h-4l-55 -195z" />
    <glyph glyph-name="Delta" unicode="&#x394;" horiz-adv-x="640" 
d="M34 0v89l198 563h176l198 -563v-89h-572zM192 124h252l-69 220l-56 195h-4l-55 -195z" />
    <glyph glyph-name="Epsilon" unicode="&#x395;" horiz-adv-x="548" 
d="M77 0v652h408v-124h-261v-131h222v-123h-222v-150h271v-124h-418z" />
    <glyph glyph-name="Zeta" unicode="&#x396;" horiz-adv-x="541" 
d="M36 0v89l288 439h-261v124h442v-89l-288 -439h291v-124h-472z" />
    <glyph glyph-name="Eta" unicode="&#x397;" horiz-adv-x="674" 
d="M77 0v652h147v-251h225v251h148v-652h-148v272h-225v-272h-147z" />
    <glyph glyph-name="Theta" unicode="&#x398;" horiz-adv-x="684" 
d="M244 272v129h196v-129h-196zM342 -12q-88 0 -154.5 41t-104 117.5t-37.5 182.5q0 107 37.5 181.5t104 114t154.5 39.5t154.5 -39.5t104 -114.5t37.5 -181t-37.5 -182.5t-104 -117.5t-154.5 -41zM342 115q67 0 106 58t39 156t-39 153t-106 55t-106 -55t-39 -153t39 -156
t106 -58z" />
    <glyph glyph-name="Iota" unicode="&#x399;" horiz-adv-x="301" 
d="M77 0v652h147v-652h-147z" />
    <glyph glyph-name="Kappa" unicode="&#x39a;" horiz-adv-x="614" 
d="M77 0v652h147v-267h4l194 267h162l-197 -260l233 -392h-161l-159 275l-76 -100v-175h-147z" />
    <glyph glyph-name="Lambda" unicode="&#x39b;" horiz-adv-x="556" 
d="M-7 0l196 652h177l197 -652h-156l-78 304q-15 53 -26.5 104t-25.5 105h-4q-15 -54 -27 -105t-26 -104l-77 -304h-150z" />
    <glyph glyph-name="Mu" unicode="&#x39c;" horiz-adv-x="762" 
d="M77 0v652h161l105 -290q10 -28 19 -59t19 -61h4q10 30 18.5 61t18.5 59l103 290h160v-652h-134v239q0 32 3.5 71.5t8 79.5t7.5 71h-4l-53 -155l-93 -249h-81l-93 249l-52 155h-4q4 -31 8 -71t7.5 -79.5t3.5 -71.5v-239h-132z" />
    <glyph glyph-name="Nu" unicode="&#x39d;" horiz-adv-x="665" 
d="M77 0v652h151l170 -324l64 -144h4q-4 52 -11 116t-7 122v230h140v-652h-151l-170 325l-64 142h-4q5 -54 11.5 -116t6.5 -120v-231h-140z" />
    <glyph glyph-name="Xi" unicode="&#x39e;" horiz-adv-x="571" 
d="M53 0v124h466v-124h-466zM121 274v123h329v-123h-329zM63 528v124h446v-124h-446z" />
    <glyph glyph-name="Omicron" unicode="&#x39f;" horiz-adv-x="684" 
d="M342 -12q-88 0 -154.5 41t-104 117.5t-37.5 182.5q0 107 37.5 181.5t104 114t154.5 39.5t154.5 -39.5t104 -114.5t37.5 -181t-37.5 -182.5t-104 -117.5t-154.5 -41zM342 115q67 0 106 58t39 156t-39 153t-106 55t-106 -55t-39 -153t39 -156t106 -58z" />
    <glyph glyph-name="Pi" unicode="&#x3a0;" horiz-adv-x="663" 
d="M77 0v652h509v-652h-147v528h-215v-528h-147z" />
    <glyph glyph-name="Rho" unicode="&#x3a1;" horiz-adv-x="596" 
d="M77 0v652h224q72 0 130.5 -19.5t93.5 -65.5t35 -125q0 -76 -35 -125t-93 -72.5t-127 -23.5h-81v-221h-147zM224 338h72q120 0 120 104q0 51 -32 72t-92 21h-68v-197z" />
    <glyph glyph-name="Sigma" unicode="&#x3a3;" horiz-adv-x="549" 
d="M38 0v89l202 240l-199 234v89h447v-124h-263l162 -195l-165 -209h293v-124h-477z" />
    <glyph glyph-name="Tau" unicode="&#x3a4;" horiz-adv-x="556" 
d="M204 0v528h-179v124h506v-124h-179v-528h-148z" />
    <glyph glyph-name="Upsilon" unicode="&#x3a5;" horiz-adv-x="525" 
d="M189 0v232l-197 420h158l58 -150q14 -37 27 -71.5t26 -72.5h4q14 38 28 72.5t27 71.5l59 150h154l-197 -420v-232h-147z" />
    <glyph glyph-name="Phi" unicode="&#x3a6;" horiz-adv-x="760" 
d="M315 -22v87q-121 10 -194 78t-73 186t73 183.5t194 75.5v86h130v-86q121 -10 194 -75.5t73 -183.5t-73 -186t-194 -78v-87h-130zM187 329q0 -63 35 -103t93 -49v301q-58 -9 -93 -48t-35 -101zM573 329q0 62 -34.5 101t-93.5 48v-301q59 9 93.5 49t34.5 103z" />
    <glyph glyph-name="Chi" unicode="&#x3a7;" horiz-adv-x="567" 
d="M11 0l181 335l-170 317h164l57 -123q11 -22 22.5 -48t24.5 -57h4q11 31 21.5 57t20.5 48l52 123h157l-169 -324l180 -328h-164l-65 133q-12 26 -23.5 51.5t-25.5 55.5h-4q-11 -30 -22 -55.5t-22 -51.5l-61 -133h-158z" />
    <glyph glyph-name="Psi" unicode="&#x3a8;" horiz-adv-x="752" 
d="M307 0v219q-119 9 -187 73.5t-68 198.5v161h144v-152q0 -84 28.5 -120.5t82.5 -43.5v316h138v-316q54 7 82 43.5t28 120.5v152h144v-161q0 -134 -67.5 -198.5t-186.5 -73.5v-219h-138z" />
    <glyph glyph-name="Omega" unicode="&#x2126;" horiz-adv-x="711" 
d="M44 0v119h110v4q-21 22 -43 56.5t-36.5 79.5t-14.5 99q0 91 37 159.5t103.5 107.5t155.5 39t155.5 -39t103.5 -107.5t37 -159.5q0 -54 -15 -99t-36.5 -79.5t-43.5 -56.5v-4h110v-119h-267v106q50 47 75.5 104t25.5 133q0 85 -38.5 139.5t-106.5 54.5t-106.5 -54.5
t-38.5 -139.5q0 -76 25 -133t75 -104v-106h-267z" />
    <glyph glyph-name="Omega" unicode="&#x3a9;" horiz-adv-x="711" 
d="M44 0v119h110v4q-21 22 -43 56.5t-36.5 79.5t-14.5 99q0 91 37 159.5t103.5 107.5t155.5 39t155.5 -39t103.5 -107.5t37 -159.5q0 -54 -15 -99t-36.5 -79.5t-43.5 -56.5v-4h110v-119h-267v106q50 47 75.5 104t25.5 133q0 85 -38.5 139.5t-106.5 54.5t-106.5 -54.5
t-38.5 -139.5q0 -76 25 -133t75 -104v-106h-267z" />
    <glyph glyph-name="Iotadieresis" unicode="&#x3aa;" horiz-adv-x="301" 
d="M77 0v652h147v-652h-147zM41 700q-31 0 -50.5 20t-19.5 50t19.5 50t50.5 20t50.5 -20t19.5 -50t-19.5 -50t-50.5 -20zM263 700q-31 0 -50.5 20t-19.5 50t19.5 50t50.5 20t50.5 -20t19.5 -50t-19.5 -50t-50.5 -20z" />
    <glyph glyph-name="Upsilondieresis" unicode="&#x3ab;" horiz-adv-x="525" 
d="M189 0v232l-197 420h158l58 -150q14 -37 27 -71.5t26 -72.5h4q14 38 28 72.5t27 71.5l59 150h154l-197 -420v-232h-147zM151 700q-31 0 -50.5 20t-19.5 50t19.5 50t50.5 20t50.5 -20t19.5 -50t-19.5 -50t-50.5 -20zM373 700q-31 0 -50.5 20t-19.5 50t19.5 50t50.5 20
t50.5 -20t19.5 -50t-19.5 -50t-50.5 -20z" />
    <glyph glyph-name="alphatonos" unicode="&#x3ac;" horiz-adv-x="595" 
d="M235 -12q-90 0 -144.5 68.5t-54.5 189.5q0 82 31 140.5t81 90t107 31.5q42 0 77.5 -23t59.5 -76h4l16 87h145q-13 -57 -28 -122.5t-25.5 -124.5t-10.5 -97q0 -25 13.5 -35t34.5 -10q16 0 32 6l18 -108q-13 -7 -35 -12t-52 -5q-52 0 -83 18.5t-45 63.5h-3
q-50 -82 -138 -82zM270 108q33 0 60.5 31.5t29.5 75.5l7 86q-31 87 -89 87q-34 0 -62.5 -33.5t-28.5 -107.5q0 -72 22.5 -105.5t60.5 -33.5zM337 555l-98 18l34 220l143 -24z" />
    <glyph glyph-name="epsilontonos" unicode="&#x3ad;" horiz-adv-x="471" 
d="M268 -12q-64 0 -116.5 17t-84 51t-31.5 85q0 50 26 78t70 40v4q-37 12 -56 42.5t-19 60.5q0 50 30 81t78.5 46t104.5 15q44 0 89 -13.5t82 -37.5l-54 -94q-49 33 -109 33q-35 0 -56 -13.5t-21 -36.5q0 -44 70 -44q16 0 34 1.5t35 2.5v-105q-21 2 -43 3t-42 1
q-39 0 -57 -11.5t-18 -37.5t26 -41t76 -15q24 0 53.5 8t58.5 30l57 -93q-48 -34 -92 -45.5t-91 -11.5zM305 555l-98 18l34 220l143 -24z" />
    <glyph glyph-name="etatonos" unicode="&#x3ae;" horiz-adv-x="562" 
d="M353 -177q3 78 5.5 164.5t4 165.5t1.5 136q0 54 -13 74t-46 20q-26 0 -47.5 -18t-45.5 -54v-311h-147v344q0 29 -2 70.5t-9 81.5h131l10 -86h4q32 42 69 70t89 28q79 0 112 -53.5t33 -146.5v-485h-149zM350 555l-98 18l34 220l143 -24z" />
    <glyph glyph-name="iotatonos" unicode="&#x3af;" horiz-adv-x="301" 
d="M206 -12q-55 0 -85.5 20.5t-43 58.5t-12.5 88v341h148q-1 -58 -3.5 -122.5t-4.5 -123.5t-2 -101q0 -24 10.5 -33t30.5 -9q6 0 15 1.5t17 4.5l17 -109q-16 -7 -35.5 -11.5t-51.5 -4.5zM182 555l-98 18l34 220l143 -24z" />
    <glyph glyph-name="upsilondieresistonos" unicode="&#x3b0;" horiz-adv-x="532" 
d="M260 -12q-74 0 -120.5 27t-68 75t-21.5 110q0 35 2 71.5t2 72.5q0 29 -2 70.5t-9 81.5h142q5 -25 7 -56t2 -66q0 -31 -3 -84t-3 -103q0 -40 20.5 -60t51.5 -20q40 0 61 35t21 111q0 48 -7.5 102.5t-25.5 121.5l142 31q17 -60 27.5 -123t10.5 -125q0 -127 -58.5 -199.5
t-170.5 -72.5zM130 584q-23 0 -39.5 15.5t-16.5 41.5t16.5 41t39.5 15q24 0 40.5 -15t16.5 -41t-16.5 -41.5t-40.5 -15.5zM277 567l-65 14l36 220l103 -21zM396 584q-24 0 -40.5 15.5t-16.5 41.5t16.5 41t40.5 15q23 0 39.5 -15t16.5 -41t-16.5 -41.5t-39.5 -15.5z" />
    <glyph glyph-name="alpha" unicode="&#x3b1;" horiz-adv-x="595" 
d="M235 -12q-90 0 -144.5 68.5t-54.5 189.5q0 82 31 140.5t81 90t107 31.5q42 0 77.5 -23t59.5 -76h4l16 87h145q-13 -57 -28 -122.5t-25.5 -124.5t-10.5 -97q0 -25 13.5 -35t34.5 -10q16 0 32 6l18 -108q-13 -7 -35 -12t-52 -5q-52 0 -83 18.5t-45 63.5h-3
q-50 -82 -138 -82zM270 108q33 0 60.5 31.5t29.5 75.5l7 86q-31 87 -89 87q-34 0 -62.5 -33.5t-28.5 -107.5q0 -72 22.5 -105.5t60.5 -33.5z" />
    <glyph glyph-name="beta" unicode="&#x3b2;" horiz-adv-x="600" 
d="M64 -177v643q0 70 25 125.5t76.5 88.5t130.5 33q55 0 104.5 -19.5t81 -59.5t31.5 -103q0 -50 -21.5 -87t-62.5 -63v-4q57 -11 96.5 -59t39.5 -118q0 -73 -29.5 -120t-75.5 -69.5t-94 -22.5q-40 0 -83 13.5t-81 53.5q3 -59 5.5 -117t5.5 -115h-149zM323 108q40 0 69 25
t29 76q0 39 -23 67t-70 28q-22 0 -40 -6l-18 107q58 8 80 39t22 73q0 41 -23 60.5t-53 19.5q-43 0 -65.5 -38t-24.5 -102q-2 -73 -3.5 -144t-1.5 -144q29 -37 61.5 -49t60.5 -12z" />
    <glyph glyph-name="gamma" unicode="&#x3b3;" horiz-adv-x="533" 
d="M185 -177q3 21 4.5 39t2 40.5t0.5 56.5q0 47 -15 112t-41.5 137.5t-61.5 142t-75 125.5l150 32q22 -33 46 -86.5t46.5 -119t40.5 -136.5h4q74 152 84 330h146q-11 -63 -24.5 -118.5t-34.5 -111t-53 -117t-80 -136.5q8 -46 10.5 -97t2.5 -93h-152z" />
    <glyph glyph-name="delta" unicode="&#x3b4;" horiz-adv-x="548" 
d="M273 -12q-63 0 -116 27t-84.5 78.5t-31.5 122.5q0 52 21 92t55.5 68.5t74.5 45.5q-41 31 -72.5 71.5t-31.5 97.5q0 49 44.5 85.5t137.5 36.5q54 0 111 -11.5t109 -28.5l-33 -109q-52 18 -100.5 29t-86.5 11q-46 0 -46 -27q0 -17 19.5 -35.5t51.5 -40t69 -48.5
q45 -32 77 -64.5t49.5 -72t17.5 -93.5q0 -70 -28 -123t-80.5 -82.5t-126.5 -29.5zM180 218q0 -54 28.5 -82.5t67.5 -28.5q40 0 65 28t25 89q0 43 -22 74t-55 57q-50 -13 -79.5 -47t-29.5 -90z" />
    <glyph glyph-name="epsilon" unicode="&#x3b5;" horiz-adv-x="471" 
d="M268 -12q-64 0 -116.5 17t-84 51t-31.5 85q0 50 26 78t70 40v4q-37 12 -56 42.5t-19 60.5q0 50 30 81t78.5 46t104.5 15q44 0 89 -13.5t82 -37.5l-54 -94q-49 33 -109 33q-35 0 -56 -13.5t-21 -36.5q0 -44 70 -44q16 0 34 1.5t35 2.5v-105q-21 2 -43 3t-42 1
q-39 0 -57 -11.5t-18 -37.5t26 -41t76 -15q24 0 53.5 8t58.5 30l57 -93q-48 -34 -92 -45.5t-91 -11.5z" />
    <glyph glyph-name="zeta" unicode="&#x3b6;" horiz-adv-x="466" 
d="M389 -187l-115 38q21 29 33.5 48.5t12.5 38.5q0 20 -19.5 30.5t-76.5 23.5q-46 10 -88 34t-68.5 72t-26.5 130q0 59 30.5 123t84 127t123.5 116q-21 -1 -58.5 -2t-77.5 -2.5t-71 -4.5v116h368v-116h-6q-49 -30 -93 -73.5t-77.5 -93t-53 -97t-19.5 -85.5q0 -61 26 -88
t93 -41q75 -15 107 -43.5t32 -86.5q0 -25 -14 -70t-46 -94z" />
    <glyph glyph-name="eta" unicode="&#x3b7;" horiz-adv-x="562" 
d="M353 -177q3 78 5.5 164.5t4 165.5t1.5 136q0 54 -13 74t-46 20q-26 0 -47.5 -18t-45.5 -54v-311h-147v344q0 29 -2 70.5t-9 81.5h131l10 -86h4q32 42 69 70t89 28q79 0 112 -53.5t33 -146.5v-485h-149z" />
    <glyph glyph-name="theta" unicode="&#x3b8;" horiz-adv-x="549" 
d="M275 -12q-102 0 -164.5 90.5t-62.5 273.5t62.5 272t164.5 89q101 0 163.5 -89t62.5 -272t-62.5 -273.5t-163.5 -90.5zM275 594q-21 0 -39 -15.5t-29.5 -57t-14.5 -120.5h166q-3 79 -14.5 120.5t-29 57t-39.5 15.5zM275 107q22 0 39.5 16.5t29 59.5t14.5 121h-166
q3 -78 14.5 -121t29.5 -59.5t39 -16.5z" />
    <glyph glyph-name="iota" unicode="&#x3b9;" horiz-adv-x="301" 
d="M206 -12q-55 0 -85.5 20.5t-43 58.5t-12.5 88v341h148q-1 -58 -3.5 -122.5t-4.5 -123.5t-2 -101q0 -24 10.5 -33t30.5 -9q6 0 15 1.5t17 4.5l17 -109q-16 -7 -35.5 -11.5t-51.5 -4.5z" />
    <glyph glyph-name="kappa" unicode="&#x3ba;" horiz-adv-x="546" 
d="M65 0v344q0 29 -2 71t-10 81h146q5 -24 7 -55.5t2 -66.5v-93h4q37 58 79.5 106.5t92 80.5t107.5 40l12 -137q-38 -9 -72 -27.5t-75 -53.5q25 -48 58 -101.5t69 -102.5t68 -86l-165 -11q-58 73 -126 209q-2 -3 -7 -8q-27 -28 -38.5 -66.5t-11.5 -94.5v-29h-138z" />
    <glyph glyph-name="lambda" unicode="&#x3bb;" horiz-adv-x="552" 
d="M172 -11l-159 11l213 498l-3 14q-9 38 -33.5 57.5t-56.5 19.5q-22 0 -37.5 -4t-32.5 -12l-32 119q24 10 49.5 15.5t69.5 5.5q86 0 138 -50t84 -159l176 -504h-158l-97 334h-4z" />
    <glyph glyph-name="nu" unicode="&#x3bd;" horiz-adv-x="523" 
d="M182 0q-14 92 -42.5 178t-64.5 162t-76 136l150 32q20 -34 39.5 -79t36.5 -94.5t30.5 -97.5t20.5 -87h4q37 84 55 172.5t25 173.5h146q-15 -87 -37 -166t-57 -158.5t-90 -171.5h-140z" />
    <glyph glyph-name="xi" unicode="&#x3be;" horiz-adv-x="469" 
d="M392 -187l-115 38q22 29 34.5 48.5t12.5 38.5q0 20 -20 31t-76 23q-51 11 -93.5 32t-67.5 59.5t-25 100.5q0 43 19 79.5t50 63t68 38.5v4q-43 17 -67 52.5t-24 80.5q0 26 12 51t34 41q-28 -1 -52 -2.5t-65 -6.5v116h426v-116h-117q-40 0 -65.5 -23.5t-25.5 -64.5
q0 -34 23.5 -62t62.5 -28q21 0 37 1.5t36 7.5v-115q-22 5 -41.5 7t-39.5 2q-50 0 -85 -28.5t-35 -74.5q0 -34 13.5 -52.5t42.5 -28.5t73 -19q53 -10 81.5 -26t39 -40.5t10.5 -63.5q0 -25 -14.5 -70t-46.5 -94z" />
    <glyph glyph-name="omicron" unicode="&#x3bf;" horiz-adv-x="553" 
d="M276 -12q-63 0 -118 30.5t-88.5 89t-33.5 140.5q0 83 33.5 141t88.5 88.5t118 30.5q64 0 118.5 -30.5t88.5 -88.5t34 -141q0 -82 -34 -140.5t-88.5 -89t-118.5 -30.5zM276 107q47 0 68.5 38.5t21.5 102.5q0 65 -21.5 103t-68.5 38q-46 0 -67.5 -38t-21.5 -103
q0 -64 21.5 -102.5t67.5 -38.5z" />
    <glyph glyph-name="pi" unicode="&#x3c0;" horiz-adv-x="635" 
d="M522 -12q-83 0 -115.5 46.5t-32.5 123.5q0 15 1 52t2 83t1 87h-115q0 -88 -8 -189.5t-18 -199.5l-147 9q18 100 27 199t9 181h-108v110l74 6h520v-116h-93q-3 -43 -4.5 -92t-2 -86.5t-0.5 -49.5q0 -25 11.5 -35t33.5 -10q7 0 16.5 1.5t20.5 2.5l17 -108
q-14 -6 -37.5 -10.5t-51.5 -4.5z" />
    <glyph glyph-name="rho" unicode="&#x3c1;" horiz-adv-x="569" 
d="M61 -177v414q0 94 31 154t85 88.5t121 28.5q108 0 169.5 -66.5t61.5 -185.5q0 -85 -29.5 -145t-76.5 -91.5t-99 -31.5q-31 0 -64.5 12t-60.5 43q3 -57 5.5 -111t4.5 -109h-148zM289 108q37 0 63.5 35t26.5 111q0 134 -86 134q-41 0 -67.5 -37t-26.5 -100v-103
q23 -24 45.5 -32t44.5 -8z" />
    <glyph glyph-name="uni03C2" unicode="&#x3c2;" horiz-adv-x="446" 
d="M349 -186l-116 38q21 29 35 50.5t14 40.5q0 24 -12.5 39t-43.5 25q-34 12 -68 29t-61.5 45t-44 71t-16.5 105q0 80 34 136t90.5 85.5t122.5 29.5q46 0 83 -15t64 -38l-70 -95q-33 29 -68 29q-49 0 -77 -36t-28 -96q0 -61 26 -88t74 -44q47 -16 74 -34t38.5 -43.5
t11.5 -66.5q0 -26 -15 -72t-47 -95z" />
    <glyph glyph-name="sigma" unicode="&#x3c3;" horiz-adv-x="573" 
d="M271 -12q-64 0 -117.5 29.5t-85.5 86t-32 138.5q0 86 34.5 142.5t90 84t117.5 27.5h283v-121q-40 5 -71 7.5t-69 3.5v-4q37 -21 57 -64t20 -99q0 -71 -29 -123t-80 -80t-118 -28zM273 107q40 0 62.5 33t22.5 94q0 59 -22 101t-63 42q-40 0 -63 -31.5t-23 -103.5
q0 -64 23 -99.5t63 -35.5z" />
    <glyph glyph-name="tau" unicode="&#x3c4;" horiz-adv-x="492" 
d="M311 -12q-78 0 -108.5 46.5t-30.5 123.5v223h-146v109l74 6h366v-115h-150q-3 -64 -4 -124.5t-1 -104.5q0 -25 10.5 -35t27.5 -10q14 0 27 2t29 6l19 -110q-24 -7 -52.5 -12t-60.5 -5z" />
    <glyph glyph-name="upsilon" unicode="&#x3c5;" horiz-adv-x="532" 
d="M260 -12q-74 0 -120.5 27t-68 75t-21.5 110q0 35 2 71.5t2 72.5q0 29 -2 70.5t-9 81.5h142q5 -25 7 -56t2 -66q0 -31 -3 -84t-3 -103q0 -40 20.5 -60t51.5 -20q40 0 61 35t21 111q0 48 -7.5 102.5t-25.5 121.5l142 31q17 -60 27.5 -123t10.5 -125q0 -127 -58.5 -199.5
t-170.5 -72.5z" />
    <glyph glyph-name="phi" unicode="&#x3d5;" horiz-adv-x="738" 
d="M302 -177v169q-69 4 -130 34t-98.5 86t-37.5 136t37.5 136t98.5 86.5t130 33.5v124h134v-124q70 -3 130.5 -33.5t98 -86.5t37.5 -136t-37.5 -136t-98.5 -86t-130 -34v-169h-134zM187 248q0 -69 31.5 -106t83.5 -40v292q-52 -3 -83.5 -40t-31.5 -106zM551 248
q0 69 -31 106t-84 40v-292q53 3 84 40t31 106z" />
    <glyph glyph-name="phi" unicode="&#x3c6;" horiz-adv-x="738" 
d="M302 -177v169q-69 4 -130 34t-98.5 86t-37.5 136t37.5 136t98.5 86.5t130 33.5v124h134v-124q70 -3 130.5 -33.5t98 -86.5t37.5 -136t-37.5 -136t-98.5 -86t-130 -34v-169h-134zM187 248q0 -69 31.5 -106t83.5 -40v292q-52 -3 -83.5 -40t-31.5 -106zM551 248
q0 69 -31 106t-84 40v-292q53 3 84 40t31 106z" />
    <glyph glyph-name="chi" unicode="&#x3c7;" horiz-adv-x="526" 
d="M160 -189l-152 12l189 342l-189 311l145 32l115 -214h4l88 202h153l-171 -327l198 -326l-145 -32l-123 237h-4z" />
    <glyph glyph-name="psi" unicode="&#x3c8;" horiz-adv-x="752" 
d="M307 -177v165q-94 2 -149.5 36.5t-79 90.5t-23.5 122v107q0 29 -2 70.5t-9 81.5h142q6 -25 7.5 -56t1.5 -66q0 -20 -0.5 -48t-1 -55t-0.5 -46q0 -31 10.5 -59t35.5 -45.5t68 -17.5v525h134v-525q58 2 87.5 40t29.5 131q0 46 -7 94t-25 109l142 31q18 -55 28 -111.5
t10 -115.5q0 -140 -67.5 -215.5t-197.5 -77.5v-165h-134z" />
    <glyph glyph-name="omega" unicode="&#x3c9;" horiz-adv-x="746" 
d="M234 -12q-89 0 -141.5 68t-52.5 197q0 41 10 86.5t27.5 89.5t39.5 79l138 -52q-37 -60 -56.5 -115t-19.5 -117q0 -52 15.5 -84.5t46.5 -32.5q65 0 65 93q0 34 -3.5 61t-8.5 70h155q-5 -43 -8.5 -70t-3.5 -61q0 -52 15 -72.5t45 -20.5q28 0 45 36t17 104q0 40 -6 73
t-19.5 66.5t-38.5 72.5l135 49q34 -54 55 -114.5t21 -137.5q0 -128 -48.5 -198t-140.5 -70q-44 0 -83.5 21t-59.5 73h-4q-20 -52 -56 -73t-80 -21z" />
    <glyph glyph-name="iotadieresis" unicode="&#x3ca;" horiz-adv-x="301" 
d="M206 -12q-55 0 -85.5 20.5t-43 58.5t-12.5 88v341h148q-1 -58 -3.5 -122.5t-4.5 -123.5t-2 -101q0 -24 10.5 -33t30.5 -9q6 0 15 1.5t17 4.5l17 -109q-16 -7 -35.5 -11.5t-51.5 -4.5zM29 569q-31 0 -51.5 20.5t-20.5 51.5q0 30 20.5 50.5t51.5 20.5q32 0 51.5 -20.5
t19.5 -50.5q0 -31 -19.5 -51.5t-51.5 -20.5zM247 569q-31 0 -51 20.5t-20 51.5q0 30 20 50.5t51 20.5q32 0 52 -20.5t20 -50.5q0 -31 -20 -51.5t-52 -20.5z" />
    <glyph glyph-name="upsilondieresis" unicode="&#x3cb;" horiz-adv-x="532" 
d="M260 -12q-74 0 -120.5 27t-68 75t-21.5 110q0 35 2 71.5t2 72.5q0 29 -2 70.5t-9 81.5h142q5 -25 7 -56t2 -66q0 -31 -3 -84t-3 -103q0 -40 20.5 -60t51.5 -20q40 0 61 35t21 111q0 48 -7.5 102.5t-25.5 121.5l142 31q17 -60 27.5 -123t10.5 -125q0 -127 -58.5 -199.5
t-170.5 -72.5zM154 569q-31 0 -51.5 20.5t-20.5 51.5q0 30 20.5 50.5t51.5 20.5q32 0 51.5 -20.5t19.5 -50.5q0 -31 -19.5 -51.5t-51.5 -20.5zM372 569q-31 0 -51 20.5t-20 51.5q0 30 20 50.5t51 20.5q32 0 52 -20.5t20 -50.5q0 -31 -20 -51.5t-52 -20.5z" />
    <glyph glyph-name="omicrontonos" unicode="&#x3cc;" horiz-adv-x="553" 
d="M276 -12q-63 0 -118 30.5t-88.5 89t-33.5 140.5q0 83 33.5 141t88.5 88.5t118 30.5q64 0 118.5 -30.5t88.5 -88.5t34 -141q0 -82 -34 -140.5t-88.5 -89t-118.5 -30.5zM276 107q47 0 68.5 38.5t21.5 102.5q0 65 -21.5 103t-68.5 38q-46 0 -67.5 -38t-21.5 -103
q0 -64 21.5 -102.5t67.5 -38.5zM324 555l-98 18l34 220l143 -24z" />
    <glyph glyph-name="upsilontonos" unicode="&#x3cd;" horiz-adv-x="532" 
d="M260 -12q-74 0 -120.5 27t-68 75t-21.5 110q0 35 2 71.5t2 72.5q0 29 -2 70.5t-9 81.5h142q5 -25 7 -56t2 -66q0 -31 -3 -84t-3 -103q0 -40 20.5 -60t51.5 -20q40 0 61 35t21 111q0 48 -7.5 102.5t-25.5 121.5l142 31q17 -60 27.5 -123t10.5 -125q0 -127 -58.5 -199.5
t-170.5 -72.5zM307 555l-98 18l34 220l143 -24z" />
    <glyph glyph-name="omegatonos" unicode="&#x3ce;" horiz-adv-x="746" 
d="M234 -12q-89 0 -141.5 68t-52.5 197q0 41 10 86.5t27.5 89.5t39.5 79l138 -52q-37 -60 -56.5 -115t-19.5 -117q0 -52 15.5 -84.5t46.5 -32.5q65 0 65 93q0 34 -3.5 61t-8.5 70h155q-5 -43 -8.5 -70t-3.5 -61q0 -52 15 -72.5t45 -20.5q28 0 45 36t17 104q0 40 -6 73
t-19.5 66.5t-38.5 72.5l135 49q34 -54 55 -114.5t21 -137.5q0 -128 -48.5 -198t-140.5 -70q-44 0 -83.5 21t-59.5 73h-4q-20 -52 -56 -73t-80 -21zM417 555l-98 18l34 220l143 -24z" />
    <glyph glyph-name="uni03D0" unicode="&#x3d0;" horiz-adv-x="592" 
d="M319 -12q-48 0 -93.5 14t-82 44t-58 79t-21.5 118v223q0 70 24 125t73.5 87.5t125.5 32.5q55 0 104.5 -19t81 -58.5t31.5 -102.5q0 -50 -24.5 -88.5t-77.5 -61.5v-4q46 -6 80.5 -31t54.5 -63t20 -85q0 -71 -32.5 -118t-86.5 -69.5t-119 -22.5zM314 115q41 0 69.5 23.5
t28.5 69.5q0 40 -24 69.5t-78 29.5q-19 0 -42.5 -6.5t-66.5 -20.5v-12v-12q0 -52 17.5 -83t43.5 -44.5t52 -13.5zM206 457q-1 -37 -3 -72q66 16 100.5 35.5t47 43.5t12.5 51q0 42 -20 61t-49 19q-43 0 -64 -37t-24 -101z" />
    <glyph glyph-name="uni03D1" unicode="&#x3d1;" horiz-adv-x="549" 
d="M185 513q0 -29 13.5 -56t50.5 -41.5t109 -7.5q-4 73 -18.5 113.5t-36 57t-48.5 15.5q-34 -1 -52 -25t-18 -56zM274 -12q-107 0 -153 52.5t-46 134.5q0 35 -1 60t-8 48h138q6 -11 7.5 -37.5t1.5 -49.5q0 -51 17 -70t49 -19q24 0 41 16t27 61.5t12 134.5
q-95 -11 -155.5 6.5t-94 51t-46.5 72t-13 70.5q0 54 26 98t71 70t101 26q122 0 187.5 -93t65.5 -265q0 -186 -56 -276.5t-171 -90.5z" />
    <glyph glyph-name="uni03D7" unicode="&#x3d7;" horiz-adv-x="546" 
d="M65 0v344q0 29 -2 71t-10 81h146q5 -24 7 -55.5t2 -66.5v-93h4q37 58 79.5 106.5t92 80.5t107.5 40l12 -137q-38 -9 -72 -27.5t-75 -53.5q25 -48 58 -101.5t69 -102.5t68 -86q-22 -35 -46 -71t-46 -66.5t-38 -50.5l-172 11q37 40 72.5 83.5t62.5 84.5q-28 38 -59.5 89.5
t-64.5 117.5q-2 -3 -7 -8q-27 -28 -38.5 -66.5t-11.5 -94.5v-29h-138z" />
    <glyph glyph-name="uni03D9" unicode="&#x3d9;" horiz-adv-x="553" 
d="M276 100q47 0 68.5 40t21.5 108q0 65 -21.5 103t-68.5 38q-46 0 -67.5 -38t-21.5 -103q0 -68 21.5 -108t67.5 -40zM208 -177v175q-48 14 -87 47.5t-62 84.5t-23 118q0 83 33.5 141t88.5 88.5t118 30.5q64 0 118.5 -30.5t88.5 -88.5t34 -141q0 -99 -48.5 -163t-119.5 -86
q2 -45 4.5 -88t3.5 -88h-149z" />
    <glyph glyph-name="uni03DB" unicode="&#x3db;" horiz-adv-x="490" 
d="M382 -187l-115 38q23 29 35 49t12 36q0 17 -12 30t-58 24q-52 14 -99.5 43.5t-78 81t-30.5 127.5q0 86 35 142.5t94.5 84t132.5 27.5h166v-121q-36 2 -78 2h-76q-55 0 -89 -31.5t-34 -103.5q0 -51 29 -82.5t96 -49.5q53 -14 81 -31t39 -41.5t11 -60.5q0 -25 -15 -71.5
t-46 -92.5z" />
    <glyph glyph-name="uni03DD" unicode="&#x3dd;" horiz-adv-x="433" 
d="M65 -177v673h342v-115h-206l2 -159h184v-97h-182q0 -76 2 -147.5t6 -154.5h-148z" />
    <glyph glyph-name="uni03E1" unicode="&#x3e1;" horiz-adv-x="536" 
d="M502 -181l-143 17q9 50 13.5 95t4.5 90q0 34 -3 65q-52 -24 -104 -50.5t-109 -58.5l-60 123l252 112q-6 25 -14 48.5t-18 46.5q-62 -28 -123 -58.5t-129 -67.5l-60 123l251 111q-71 101 -184 177l95 108q173 -118 262 -294t89 -387q0 -49 -5.5 -99t-14.5 -101z" />
    <glyph glyph-name="uni0400" unicode="&#x400;" horiz-adv-x="548" 
d="M77 0v652h408v-124h-261v-131h222v-123h-222v-150h271v-124h-418zM300 680l-183 119l78 95l171 -140z" />
    <glyph glyph-name="uni0401" unicode="&#x401;" horiz-adv-x="548" 
d="M77 0v652h408v-124h-261v-131h222v-123h-222v-150h271v-124h-418zM179 700q-31 0 -50.5 20t-19.5 50t19.5 50t50.5 20t50.5 -20t19.5 -50t-19.5 -50t-50.5 -20zM401 700q-31 0 -50.5 20t-19.5 50t19.5 50t50.5 20t50.5 -20t19.5 -50t-19.5 -50t-50.5 -20z" />
    <glyph glyph-name="uni0402" unicode="&#x402;" horiz-adv-x="701" 
d="M472 -12q-41 0 -68 10l23 112q13 -5 27 -5q22 0 43 19.5t21 65.5q0 100 -111 100q-25 0 -41.5 -2t-33.5 -5v-283h-148v528h-159v124h514v-124h-207v-128q23 4 43 6t54 2q61 0 114 -21.5t86 -69t33 -125.5q0 -73 -24.5 -117.5t-67.5 -65.5t-98 -21z" />
    <glyph glyph-name="uni0403" unicode="&#x403;" horiz-adv-x="521" 
d="M77 0v652h411v-124h-264v-528h-147zM286 680l-66 74l171 140l78 -95z" />
    <glyph glyph-name="uni0404" unicode="&#x404;" horiz-adv-x="582" 
d="M349 -12q-84 0 -153 35.5t-109.5 109.5t-40.5 189q0 116 41.5 191.5t111.5 113t154 37.5q64 0 114 -25.5t83 -59.5l-78 -94q-25 23 -52.5 37.5t-62.5 14.5q-60 0 -102.5 -33.5t-56.5 -106.5h224v-123h-227q10 -85 51.5 -122t108.5 -37q40 0 71.5 18t55.5 43l78 -92
q-82 -96 -211 -96z" />
    <glyph glyph-name="uni0405" unicode="&#x405;" horiz-adv-x="556" 
d="M276 -12q-64 0 -127.5 24t-113.5 70l84 101q35 -30 78 -49t83 -19q46 0 68.5 17t22.5 46q0 31 -25.5 45.5t-68.5 32.5l-85 36q-33 14 -63 37.5t-49 58.5t-19 82q0 54 29.5 98t82 70t120.5 26q56 0 112 -22t98 -64l-75 -93q-32 25 -64 38.5t-71 13.5q-38 0 -60.5 -15.5
t-22.5 -43.5q0 -30 28.5 -45t70.5 -32l84 -34q59 -24 94 -66t35 -111q0 -54 -29 -100t-84 -74t-133 -28z" />
    <glyph glyph-name="uni0406" unicode="&#x406;" horiz-adv-x="301" 
d="M77 0v652h147v-652h-147z" />
    <glyph glyph-name="uni0407" unicode="&#x407;" horiz-adv-x="301" 
d="M77 0v652h147v-652h-147zM41 700q-31 0 -50.5 20t-19.5 50t19.5 50t50.5 20t50.5 -20t19.5 -50t-19.5 -50t-50.5 -20zM263 700q-31 0 -50.5 20t-19.5 50t19.5 50t50.5 20t50.5 -20t19.5 -50t-19.5 -50t-50.5 -20z" />
    <glyph glyph-name="uni0408" unicode="&#x408;" horiz-adv-x="509" 
d="M226 -12q-74 0 -125 29.5t-85 88.5l100 74q18 -33 42 -49t49 -16q40 0 60.5 24.5t20.5 89.5v423h147v-435q0 -63 -22 -115t-68.5 -83t-118.5 -31z" />
    <glyph glyph-name="uni0409" unicode="&#x409;" horiz-adv-x="920" 
d="M79 -12q-25 0 -42.5 2t-33.5 8l27 132q6 -1 12.5 -2.5t15.5 -1.5q16 0 29.5 10t27.5 43t29 103q20 91 36.5 183.5t33.5 186.5h360v-238h54q74 0 131.5 -20.5t90.5 -64.5t33 -116q0 -78 -34.5 -125t-92.5 -67.5t-131 -20.5h-199v528h-99q-12 -69 -23 -133.5t-23 -128.5
q-21 -109 -48 -169.5t-64.5 -84.5t-89.5 -24zM574 117h42q59 0 91 22t32 72q0 86 -123 86h-42v-180z" />
    <glyph glyph-name="uni040A" unicode="&#x40a;" horiz-adv-x="933" 
d="M77 0v652h147v-251h215v251h148v-238h54q74 0 131.5 -20.5t90.5 -64.5t33 -116q0 -78 -34.5 -125t-92.5 -67.5t-131 -20.5h-199v272h-215v-272h-147zM587 117h42q58 0 90.5 22t32.5 72q0 86 -123 86h-42v-180z" />
    <glyph glyph-name="uni040B" unicode="&#x40b;" horiz-adv-x="718" 
d="M184 0v528h-159v124h514v-124h-207v-128q23 4 44.5 6t43.5 2q108 0 172.5 -52t64.5 -170v-186h-144v186q0 54 -25 79t-84 25q-18 0 -36.5 -2t-35.5 -5v-283h-148z" />
    <glyph glyph-name="uni040C" unicode="&#x40c;" horiz-adv-x="622" 
d="M77 0v652h147v-256h72l85 150q38 67 77.5 92.5t94.5 25.5q14 0 29 -2t25 -7l-24 -133q-9 3 -16.5 3.5t-12.5 0.5q-22 0 -37.5 -12t-35.5 -47l-70 -122l213 -345h-155l-173 277h-72v-277h-147zM333 688l-66 74l171 140l78 -95z" />
    <glyph glyph-name="uni040D" unicode="&#x40d;" horiz-adv-x="676" 
d="M77 0v652h146v-230q0 -58 -7 -122t-12 -116h4l64 143l171 325h156v-652h-145v231q0 58 7 120t11 116h-4l-64 -142l-171 -325h-156zM352 688l-183 119l78 95l171 -140z" />
    <glyph glyph-name="uni040E" unicode="&#x40e;" horiz-adv-x="555" 
d="M158 -12q-28 0 -48.5 3.5t-34.5 9.5l26 128q9 -3 19.5 -5.5t29.5 -2.5q46 0 63 30l9 19l-221 482h156l76 -190l55 -156h4l51 156l69 190h148l-201 -504q-30 -74 -77.5 -117t-123.5 -43zM287 697q-96 0 -135.5 39t-42.5 99h124q2 -30 14.5 -47t39.5 -17t40 17t14 47h124
q-3 -60 -42.5 -99t-135.5 -39z" />
    <glyph glyph-name="uni040F" unicode="&#x40f;" horiz-adv-x="663" 
d="M267 -188v188h-190v652h147v-528h215v528h147v-652h-176l-11 -188h-132z" />
    <glyph glyph-name="uni0410" unicode="&#x410;" horiz-adv-x="573" 
d="M230 330l-16 -60h139l-15 60q-13 49 -26.5 104t-26.5 106h-4q-12 -52 -24.5 -106.5t-26.5 -103.5zM-6 0l204 652h177l204 -652h-156l-40 155h-199l-40 -155h-150z" />
    <glyph glyph-name="uni0411" unicode="&#x411;" horiz-adv-x="600" 
d="M77 0v652h445v-124h-298v-131h90q69 0 125.5 -17.5t90.5 -59t34 -113.5q0 -74 -33 -120t-88.5 -66.5t-124.5 -20.5h-241zM224 114h79q59 0 88 22t29 69q0 46 -30 65t-88 19h-78v-175z" />
    <glyph glyph-name="uni0412" unicode="&#x412;" horiz-adv-x="605" 
d="M77 0v652h223q68 0 122 -14.5t86 -49.5t32 -98q0 -43 -22.5 -84.5t-62.5 -56.5v-4q50 -13 83.5 -50.5t33.5 -102.5q0 -67 -34 -109t-91 -62.5t-128 -20.5h-242zM224 391h69q54 0 78.5 21t24.5 56q0 38 -25 54t-77 16h-70v-147zM224 114h83q121 0 121 88q0 43 -30 61.5
t-91 18.5h-83v-168z" />
    <glyph glyph-name="uni0413" unicode="&#x413;" horiz-adv-x="521" 
d="M77 0v652h411v-124h-264v-528h-147z" />
    <glyph glyph-name="uni0414" unicode="&#x414;" horiz-adv-x="670" 
d="M268 330q-13 -65 -29 -116.5t-39 -89.5h230v404h-126q-7 -39 -12 -68.5t-10.5 -59.5t-13.5 -70zM157 0v-188h-131l-13 220v92h30q15 5 30.5 28t31.5 70.5t31 126.5q11 58 19 102.5t16.5 91.5t18.5 109h387v-528h80v-92l-13 -220h-131v188h-356z" />
    <glyph glyph-name="uni0415" unicode="&#x415;" horiz-adv-x="548" 
d="M77 0v652h408v-124h-261v-131h222v-123h-222v-150h271v-124h-418z" />
    <glyph glyph-name="uni0416" unicode="&#x416;" horiz-adv-x="868" 
d="M2 0l188 342l-55 125q-16 37 -33.5 48t-39.5 11q-4 0 -12 -0.5t-16 -3.5l-25 133q11 5 26 7t28 2q56 0 98 -25t74 -93l71 -150h58v256h140v-256h57l71 150q33 68 75.5 93t97.5 25q14 0 28.5 -2t24.5 -7l-24 -133q-8 3 -15.5 3.5t-12.5 0.5q-22 0 -39 -11t-34 -48
l-56 -125l189 -342h-158l-137 277h-67v-277h-140v277h-67l-137 -277h-158z" />
    <glyph glyph-name="uni0417" unicode="&#x417;" horiz-adv-x="564" 
d="M275 -12q-64 0 -126 20.5t-114 69.5l78 101q37 -34 77 -49t83 -15q50 0 82 23t32 65q0 41 -29 60t-89 19h-87v109h67q59 0 83 19.5t24 54.5q0 38 -25.5 55t-66.5 17q-38 0 -70 -13.5t-64 -37.5l-74 98q89 80 213 80q113 0 172 -47t59 -128q0 -47 -21 -84.5t-62 -56.5v-4
q49 -13 81.5 -53t32.5 -99q0 -67 -34 -112.5t-91.5 -68.5t-130.5 -23z" />
    <glyph glyph-name="uni0418" unicode="&#x418;" horiz-adv-x="676" 
d="M77 0v652h146v-230q0 -58 -7 -122t-12 -116h4l64 143l171 325h156v-652h-145v231q0 58 7 120t11 116h-4l-64 -142l-171 -325h-156z" />
    <glyph glyph-name="uni0419" unicode="&#x419;" horiz-adv-x="676" 
d="M77 0v652h146v-230q0 -58 -7 -122t-12 -116h4l64 143l171 325h156v-652h-145v231q0 58 7 120t11 116h-4l-64 -142l-171 -325h-156zM342 705q-96 0 -135.5 39t-42.5 99h124q2 -30 14.5 -47t39.5 -17t40 17t14 47h124q-3 -60 -42.5 -99t-135.5 -39z" />
    <glyph glyph-name="uni041A" unicode="&#x41a;" horiz-adv-x="622" 
d="M77 0v652h147v-256h72l85 150q38 67 77.5 92.5t94.5 25.5q14 0 29 -2t25 -7l-24 -133q-9 3 -16.5 3.5t-12.5 0.5q-22 0 -37.5 -12t-35.5 -47l-70 -122l213 -345h-155l-173 277h-72v-277h-147z" />
    <glyph glyph-name="uni041B" unicode="&#x41b;" horiz-adv-x="657" 
d="M66 -12q-26 0 -43 2t-33 8l26 132q7 -1 13.5 -2.5t14.5 -1.5q17 0 30.5 10t27 43t28.5 103q20 91 37 183.5t34 186.5h380v-652h-148v528h-119q-12 -69 -24 -133t-24 -129q-21 -109 -47.5 -169.5t-63.5 -84.5t-89 -24z" />
    <glyph glyph-name="uni041C" unicode="&#x41c;" horiz-adv-x="762" 
d="M77 0v652h161l105 -290q10 -28 19 -59t19 -61h4q10 30 18.5 61t18.5 59l103 290h160v-652h-134v239q0 32 3.5 71.5t8 79.5t7.5 71h-4l-53 -155l-93 -249h-81l-93 249l-52 155h-4q4 -31 8 -71t7.5 -79.5t3.5 -71.5v-239h-132z" />
    <glyph glyph-name="uni041D" unicode="&#x41d;" horiz-adv-x="674" 
d="M77 0v652h147v-251h225v251h148v-652h-148v272h-225v-272h-147z" />
    <glyph glyph-name="uni041E" unicode="&#x41e;" horiz-adv-x="684" 
d="M342 -12q-88 0 -154.5 41t-104 117.5t-37.5 182.5q0 107 37.5 181.5t104 114t154.5 39.5t154.5 -39.5t104 -114.5t37.5 -181t-37.5 -182.5t-104 -117.5t-154.5 -41zM342 115q67 0 106 58t39 156t-39 153t-106 55t-106 -55t-39 -153t39 -156t106 -58z" />
    <glyph glyph-name="uni041F" unicode="&#x41f;" horiz-adv-x="663" 
d="M77 0v652h509v-652h-147v528h-215v-528h-147z" />
    <glyph glyph-name="uni0420" unicode="&#x420;" horiz-adv-x="596" 
d="M77 0v652h224q72 0 130.5 -19.5t93.5 -65.5t35 -125q0 -76 -35 -125t-93 -72.5t-127 -23.5h-81v-221h-147zM224 338h72q120 0 120 104q0 51 -32 72t-92 21h-68v-197z" />
    <glyph glyph-name="uni0421" unicode="&#x421;" horiz-adv-x="582" 
d="M349 -12q-82 0 -151 38t-110.5 112.5t-41.5 183.5q0 108 42.5 184.5t113 117t152.5 40.5q63 0 113 -25.5t83 -59.5l-78 -94q-25 23 -52.5 37.5t-62.5 14.5q-44 0 -80.5 -25t-58 -72t-21.5 -113q0 -100 43 -156t115 -56q40 0 71.5 18t55.5 43l78 -92q-82 -96 -211 -96z
" />
    <glyph glyph-name="uni0422" unicode="&#x422;" horiz-adv-x="556" 
d="M204 0v528h-179v124h506v-124h-179v-528h-148z" />
    <glyph glyph-name="uni0423" unicode="&#x423;" horiz-adv-x="555" 
d="M158 -12q-28 0 -48.5 3.5t-34.5 9.5l26 128q9 -3 19.5 -5.5t29.5 -2.5q46 0 63 30l9 19l-221 482h156l76 -190l55 -156h4l51 156l69 190h148l-201 -504q-30 -74 -77.5 -117t-123.5 -43z" />
    <glyph glyph-name="uni0424" unicode="&#x424;" horiz-adv-x="764" 
d="M318 -12v88q-127 8 -200 71t-73 182t73 180.5t200 68.5v86h127v-86q128 -7 201 -68.5t73 -180.5t-73 -182t-201 -71v-88h-127zM183 329q0 -68 36 -103.5t99 -40.5v284q-63 -5 -99 -38.5t-36 -101.5zM581 329q0 68 -36.5 102t-99.5 38v-284q63 5 99.5 40.5t36.5 103.5z
" />
    <glyph glyph-name="uni0425" unicode="&#x425;" horiz-adv-x="567" 
d="M11 0l181 335l-170 317h164l57 -123q11 -22 22.5 -48t24.5 -57h4q11 31 21.5 57t20.5 48l52 123h157l-169 -324l180 -328h-164l-65 133q-12 26 -23.5 51.5t-25.5 55.5h-4q-11 -30 -22 -55.5t-22 -51.5l-61 -133h-158z" />
    <glyph glyph-name="uni0426" unicode="&#x426;" horiz-adv-x="669" 
d="M512 -188v188h-435v652h147v-528h206v528h147v-528h80v-92l-13 -220h-132z" />
    <glyph glyph-name="uni0427" unicode="&#x427;" horiz-adv-x="630" 
d="M405 0v264q-22 -4 -44 -5.5t-54 -1.5q-77 0 -132.5 23t-85 75.5t-29.5 139.5v157h145v-157q0 -67 28 -94t89 -27q29 0 48.5 2t34.5 5v271h148v-652h-148z" />
    <glyph glyph-name="uni0428" unicode="&#x428;" horiz-adv-x="910" 
d="M77 0v652h144v-528h164v528h141v-528h163v528h144v-652h-756z" />
    <glyph glyph-name="uni0429" unicode="&#x429;" horiz-adv-x="926" 
d="M77 0v652h144v-528h164v528h141v-528h163v528h144v-528h80v-92l-13 -220h-131v188h-692z" />
    <glyph glyph-name="uni042A" unicode="&#x42a;" horiz-adv-x="730" 
d="M216 0v528h-191v124h339v-238h70q70 0 128.5 -21t94.5 -65t36 -115q0 -78 -34 -125t-91.5 -67.5t-128.5 -20.5h-223zM364 117h66q58 0 88.5 22t30.5 72q0 86 -123 86h-62v-180z" />
    <glyph glyph-name="uni042B" unicode="&#x42b;" horiz-adv-x="853" 
d="M77 0v652h147v-238h65q74 0 131.5 -20.5t90.5 -64.5t33 -116q0 -78 -34.5 -125t-92.5 -67.5t-131 -20.5h-209zM224 117h53q58 0 90.5 22t32.5 72q0 86 -123 86h-53v-180zM629 0v652h147v-652h-147z" />
    <glyph glyph-name="uni042C" unicode="&#x42c;" horiz-adv-x="600" 
d="M77 0v652h147v-238h84q74 0 131.5 -20.5t90.5 -64.5t33 -116q0 -78 -34 -125t-92.5 -67.5t-130.5 -20.5h-229zM224 117h73q58 0 90 22t32 72q0 86 -123 86h-72v-180z" />
    <glyph glyph-name="uni042D" unicode="&#x42d;" horiz-adv-x="582" 
d="M239 -12q-129 0 -217 96l78 92q26 -25 60 -43t77 -18q62 0 101 37.5t49 121.5h-227v123h225q-12 73 -50.5 106.5t-100.5 33.5q-37 0 -66.5 -14t-57.5 -38l-78 94q36 34 91 59.5t119 25.5q83 0 149.5 -37.5t105.5 -113t39 -191.5q0 -115 -40.5 -189t-107.5 -109.5
t-149 -35.5z" />
    <glyph glyph-name="uni042E" unicode="&#x42e;" horiz-adv-x="950" 
d="M616 115q66 0 101.5 58t35.5 156t-35.5 153t-101.5 55q-65 0 -100.5 -55t-35.5 -153t35.5 -156t100.5 -58zM616 -12q-118 0 -192 75t-88 209h-112v-272h-147v652h147v-251h114q17 126 90 194.5t188 68.5q88 0 152.5 -39.5t100 -114.5t35.5 -181t-35.5 -182.5t-100 -117.5
t-152.5 -41z" />
    <glyph glyph-name="uni042F" unicode="&#x42f;" horiz-adv-x="617" 
d="M392 0v235h-73l-139 -235h-168l167 257q-55 22 -90.5 69t-35.5 123q0 78 34.5 122t91.5 62.5t126 18.5h235v-652h-148zM317 352h75v183h-75q-58 0 -88.5 -19t-30.5 -67q0 -97 119 -97z" />
    <glyph glyph-name="uni0430" unicode="&#x430;" horiz-adv-x="527" 
d="M190 -12q-68 0 -108 43.5t-40 106.5q0 78 66 122t213 59q-2 33 -19.5 52.5t-58.5 19.5q-31 0 -63 -12t-68 -33l-53 97q47 29 100.5 47t111.5 18q95 0 146 -55t51 -169v-284h-120l-10 51h-4q-31 -28 -66.5 -45.5t-77.5 -17.5zM240 102q25 0 43.5 11.5t37.5 30.5v87
q-78 -10 -108 -31.5t-30 -50.5q0 -24 15.5 -35.5t41.5 -11.5z" />
    <glyph glyph-name="uni0431" unicode="&#x431;" horiz-adv-x="561" 
d="M183 275q0 -85 27 -126.5t76 -41.5q41 0 62.5 36.5t21.5 98.5q0 66 -23 93.5t-62 27.5q-25 0 -52 -13.5t-50 -46.5v-13.5v-14.5zM288 -12q-118 0 -182 85t-64 237q0 112 23 184t64.5 114t99 63t126.5 30q45 6 70.5 12.5t48.5 16.5l28 -128q-19 -15 -51 -23.5t-65 -13.5
q-52 -7 -88 -14t-58.5 -21.5t-34.5 -42.5t-17 -77q26 30 63.5 45.5t77.5 15.5q52 0 95.5 -25.5t69.5 -76.5t26 -127t-30 -133.5t-82.5 -89t-119.5 -31.5z" />
    <glyph glyph-name="uni0432" unicode="&#x432;" horiz-adv-x="528" 
d="M65 0v496h211q56 0 101 -12t71.5 -40.5t26.5 -78.5q0 -31 -19.5 -60.5t-63.5 -41.5v-4q47 -11 74.5 -38.5t27.5 -77.5q0 -51 -28 -82.5t-74.5 -46t-103.5 -14.5h-223zM208 302h58q37 0 53 13t16 35q0 23 -15.5 36t-52.5 13h-59v-97zM208 97h71q40 0 56.5 15.5t16.5 40.5
q0 22 -17.5 37t-56.5 15h-70v-108z" />
    <glyph glyph-name="uni0433" unicode="&#x433;" horiz-adv-x="432" 
d="M65 0v496h341v-115h-194v-381h-147z" />
    <glyph glyph-name="uni0434" unicode="&#x434;" horiz-adv-x="584" 
d="M227 266q-5 -49 -16 -86t-25 -65h160v266h-106zM152 0v-172h-127l-14 191v96h31q12 7 22 23t19 53.5t17 107.5l23 197h370v-381h79v-96l-14 -191h-126v172h-280z" />
    <glyph glyph-name="uni0435" unicode="&#x435;" horiz-adv-x="518" 
d="M287 -12q-71 0 -128 31t-90 89t-33 140q0 81 33.5 139t87.5 89.5t113 31.5q71 0 117.5 -31.5t70 -85t23.5 -121.5q0 -19 -2 -37.5t-4 -27.5h-297q10 -54 45 -79.5t84 -25.5q53 0 107 33l49 -89q-38 -26 -85 -41t-91 -15zM177 302h179q0 41 -19.5 67.5t-63.5 26.5
q-34 0 -61 -23.5t-35 -70.5z" />
    <glyph glyph-name="uni0436" unicode="&#x436;" horiz-adv-x="761" 
d="M6 0l158 256l-28 63q-13 31 -28.5 40.5t-33.5 9.5q-5 0 -9.5 -1t-9.5 -3l-23 136q17 7 40 7q53 0 90.5 -21.5t65.5 -82.5l42 -91h45v183h131v-183h45l42 91q28 61 65.5 82.5t90.5 21.5q23 0 40 -7l-23 -136q-4 2 -9 3t-10 1q-18 0 -33.5 -9.5t-28.5 -40.5l-28 -63
l158 -256h-158l-105 198h-46v-198h-131v198h-46l-105 -198h-158z" />
    <glyph glyph-name="uni0437" unicode="&#x437;" horiz-adv-x="476" 
d="M220 -12q-50 0 -97 12t-95 47l57 93q31 -21 63 -30.5t58 -9.5q39 0 65.5 15t26.5 41q0 49 -76 49h-79v97h70q70 0 70 48q0 46 -75 46q-31 0 -59.5 -7t-57.5 -26l-54 94q41 26 86.5 38.5t94.5 12.5q54 0 100.5 -15t75.5 -46t29 -81q0 -30 -18.5 -60t-59.5 -43v-4
q45 -12 71 -40t26 -78t-32 -84t-83 -51.5t-107 -17.5z" />
    <glyph glyph-name="uni0438" unicode="&#x438;" horiz-adv-x="583" 
d="M65 0v496h142v-138q0 -37 -4 -83.5t-8 -92.5h3q12 23 29 52.5t28 51.5l129 210h134v-496h-142v138q0 38 4.5 84t8.5 92h-4q-12 -22 -28.5 -52.5t-28.5 -51.5l-129 -210h-134z" />
    <glyph glyph-name="uni0439" unicode="&#x439;" horiz-adv-x="583" 
d="M65 0v496h142v-138q0 -37 -4 -83.5t-8 -92.5h3q12 23 29 52.5t28 51.5l129 210h134v-496h-142v138q0 38 4.5 84t8.5 92h-4q-12 -22 -28.5 -52.5t-28.5 -51.5l-129 -210h-134zM296 572q-86 0 -128 44.5t-44 119.5h114q2 -42 14 -64t44 -22t44.5 22t13.5 64h114
q-2 -75 -44 -119.5t-128 -44.5z" />
    <glyph glyph-name="uni043A" unicode="&#x43a;" horiz-adv-x="546" 
d="M65 0v496h147v-183h50l44 91q31 64 67.5 84t89.5 20q22 0 40 -7l-23 -136q-4 2 -9 3t-10 1q-19 0 -34 -9t-29 -41l-26 -59l167 -260h-161l-114 198h-52v-198h-147z" />
    <glyph glyph-name="uni043B" unicode="&#x43b;" horiz-adv-x="573" 
d="M65 -12q-17 0 -31 3t-28 8l24 132q6 -1 12 -2.5t13 -1.5q20 0 34.5 17t19.5 57q10 74 17.5 147.5t16.5 147.5h366v-496h-147v381h-103q-7 -55 -13.5 -110.5t-14.5 -110.5q-12 -83 -53 -127.5t-113 -44.5z" />
    <glyph glyph-name="uni043C" unicode="&#x43c;" horiz-adv-x="660" 
d="M65 0v496h168l62 -170q10 -30 18.5 -57.5t16.5 -53.5h4q9 26 18 53.5t18 57.5l58 170h167v-496h-130v127q0 27 2.5 66.5t6.5 79.5t6 68h-4q-10 -33 -23.5 -70t-24.5 -69l-58 -159h-80l-59 159q-10 32 -24 70t-25 69h-4q3 -28 6.5 -68t6.5 -79.5t3 -66.5v-127h-129z" />
    <glyph glyph-name="uni043D" unicode="&#x43d;" horiz-adv-x="582" 
d="M65 0v496h147v-179h159v179h147v-496h-147v189h-159v-189h-147z" />
    <glyph glyph-name="uni043E" unicode="&#x43e;" horiz-adv-x="555" 
d="M278 -12q-63 0 -118.5 30.5t-89.5 89t-34 140.5q0 83 34 141t89.5 88.5t118.5 30.5t118 -30.5t89 -88.5t34 -141q0 -82 -34 -140.5t-89 -89t-118 -30.5zM278 107q45 0 68 38.5t23 102.5q0 65 -23 103t-68 38q-46 0 -68.5 -38t-22.5 -103q0 -64 22.5 -102.5t68.5 -38.5z
" />
    <glyph glyph-name="uni043F" unicode="&#x43f;" horiz-adv-x="574" 
d="M65 0v496h444v-496h-147v381h-150v-381h-147z" />
    <glyph glyph-name="uni0440" unicode="&#x440;" horiz-adv-x="573" 
d="M65 -184v680h120l10 -49h4q29 26 65.5 43.5t75.5 17.5q90 0 142 -68.5t52 -183.5q0 -85 -30 -145t-77.5 -91.5t-101.5 -31.5q-32 0 -62 13.5t-56 38.5l5 -79v-145h-147zM291 108q38 0 65 35t27 111q0 134 -86 134q-43 0 -85 -45v-203q20 -18 40 -25t39 -7z" />
    <glyph glyph-name="uni0441" unicode="&#x441;" horiz-adv-x="467" 
d="M281 -12q-69 0 -124.5 30.5t-88 89t-32.5 140.5q0 83 36 141t95 88.5t127 30.5q46 0 81.5 -15t63.5 -38l-69 -95q-35 29 -67 29q-53 0 -84.5 -38t-31.5 -103q0 -64 31.5 -102.5t79.5 -38.5q24 0 47 10.5t42 25.5l58 -96q-37 -32 -80 -45.5t-84 -13.5z" />
    <glyph glyph-name="uni0442" unicode="&#x442;" horiz-adv-x="492" 
d="M172 0v381h-146v115h440v-115h-147v-381h-147z" />
    <glyph glyph-name="uni0443" unicode="&#x443;" horiz-adv-x="521" 
d="M120 -194q-22 0 -38.5 3t-31.5 7l26 112q7 -1 16 -3.5t17 -2.5q37 0 57 18t30 47l7 26l-191 483h148l71 -213q11 -34 20 -69t19 -72h4q8 35 16.5 70.5t17.5 70.5l60 213h141l-172 -501q-23 -62 -51 -104.5t-67.5 -63.5t-98.5 -21z" />
    <glyph glyph-name="uni0444" unicode="&#x444;" horiz-adv-x="779" 
d="M318 -184v127l4 75q-19 -12 -43 -21t-49 -9q-87 0 -139 69.5t-52 190.5q0 81 28 139.5t71.5 89.5t91.5 31q30 0 52 -7.5t40 -19.5l-4 72v148h143v-148l-5 -76q22 13 48.5 22t53.5 9q56 0 96.5 -31t63 -87.5t22.5 -133.5q0 -85 -27.5 -145t-72 -91.5t-95.5 -31.5
q-48 0 -89 27l5 -72v-127h-143zM269 108q31 0 53 22v239q-13 11 -28 15t-29 4q-31 0 -53 -33.5t-22 -104.5q0 -73 21 -107.5t58 -34.5zM511 108q34 0 56 35t22 111q0 134 -75 134q-15 0 -29 -4.5t-29 -16.5v-239q14 -12 28 -16t27 -4z" />
    <glyph glyph-name="uni0445" unicode="&#x445;" horiz-adv-x="514" 
d="M14 0l152 258l-143 238h158l44 -80q10 -21 21 -42.5t21 -42.5h4q8 21 17 42.5t17 42.5l34 80h152l-144 -255l153 -241h-158l-48 82q-12 21 -23.5 43t-23.5 43h-4q-9 -21 -19 -42.5t-19 -43.5l-39 -82h-152z" />
    <glyph glyph-name="uni0446" unicode="&#x446;" horiz-adv-x="595" 
d="M443 -172v172h-378v496h147v-381h146v381h147v-381h78v-96l-14 -191h-126z" />
    <glyph glyph-name="uni0447" unicode="&#x447;" horiz-adv-x="550" 
d="M338 0v169q-20 -4 -38 -6t-49 -2q-59 0 -105 19.5t-72 61.5t-26 111v143h147v-143q0 -38 21 -57.5t67 -19.5q16 0 29 1.5t26 4.5v214h147v-496h-147z" />
    <glyph glyph-name="uni0448" unicode="&#x448;" horiz-adv-x="803" 
d="M65 0v496h145v-381h121v381h141v-381h121v381h146v-496h-674z" />
    </font>
</defs>
</svg>
