<?xml version="1.0" standalone="no"?>
<!DOCTYPE svg PUBLIC "-//W3C//DTD SVG 1.1//EN" "http://www.w3.org/Graphics/SVG/1.1/DTD/svg11.dtd" >
<svg xmlns="http://www.w3.org/2000/svg" xmlns:xlink="http://www.w3.org/1999/xlink" version="1.1">
<metadata>
Created by FontForge 20170731 at Tue Sep 14 13:51:34 2021
 By Aleksey,,,
(c) 2010 - 2018 Adobe Systems Incorporated (http://www.adobe.com/), with Reserved Font Name `Source'.
</metadata>
<defs>
<font id="SourceSansPro-BlackItalic" horiz-adv-x="0" >
  <font-face 
    font-family="Source Sans Pro Black"
    font-weight="900"
    font-style="italic"
    font-stretch="normal"
    units-per-em="1000"
    panose-1="2 11 8 3 3 4 3 9 2 4"
    ascent="800"
    descent="-200"
    x-height="500"
    cap-height="650"
    bbox="-320 -282 2078 1023"
    underline-thickness="50"
    underline-position="-125"
    slope="-11"
    unicode-range="U+0021-1F16B"
  />
<missing-glyph horiz-adv-x="676" 
d="M26 0l130 660h524l-130 -660h-524zM370 418h4l58 96l28 48h-122l12 -48zM242 98h130l-14 66l-16 96h-4l-54 -96zM162 162l118 178l-46 176zM478 162l72 354l-118 -176z" />
    <glyph glyph-name="f_f" unicode="ff" horiz-adv-x="654" 
d="M346 0l76 376h-153l-75 -376h-160l76 376h-64l24 118l65 5l1 5q10 52 34.5 96t66.5 71t105 27q61 0 114 -28l-50 -112q-7 5 -20.5 9.5t-25.5 4.5q-25 0 -40.5 -10.5t-23.5 -51.5l-2 -10h153l3 14q10 52 34.5 96t66.5 71t105 27q61 0 114 -28l-50 -112q-7 5 -20.5 9.5
t-25.5 4.5q-25 0 -40.5 -10.5t-23.5 -51.5l-4 -20h82l-24 -124h-83l-75 -376h-160z" />
    <glyph glyph-name="f_t" unicode="ft" horiz-adv-x="684" 
d="M34 0l76 376h-64l24 118l65 5l3 15q10 52 34.5 96t66.5 71t105 27q61 0 114 -28l-50 -112q-7 5 -20.5 9.5t-25.5 4.5q-25 0 -40.5 -10.5t-23.5 -51.5l-4 -20h144l44 128h134l-24 -128h108l-24 -124h-112l-38 -188q-1 -9 -1.5 -16.5t-0.5 -15.5q0 -44 48 -44q9 0 18 3
t18 7l28 -112q-21 -7 -52.5 -14.5t-73.5 -7.5q-79 0 -114.5 39.5t-35.5 100.5q0 17 2 33.5t6 32.5l38 182h-137l-75 -376h-160z" />
    <glyph glyph-name="f_f_t" unicode="fft" horiz-adv-x="996" 
d="M346 0l76 376h-153l-75 -376h-160l76 376h-64l24 118l65 5l1 5q10 52 34.5 96t66.5 71t105 27q61 0 114 -28l-50 -112q-7 5 -20.5 9.5t-25.5 4.5q-25 0 -40.5 -10.5t-23.5 -51.5l-2 -10h153l3 14q10 52 34.5 96t66.5 71t105 27q61 0 114 -28l-50 -112q-7 5 -20.5 9.5
t-25.5 4.5q-25 0 -40.5 -10.5t-23.5 -51.5l-4 -20h144l44 128h134l-24 -128h108l-24 -124h-112l-38 -188q-1 -9 -1.5 -16.5t-0.5 -15.5q0 -44 48 -44q9 0 18 3t18 7l28 -112q-21 -7 -52.5 -14.5t-73.5 -7.5q-79 0 -114.5 39.5t-35.5 100.5q0 17 2 33.5t6 32.5l38 182h-137
l-75 -376h-160z" />
    <glyph glyph-name=".notdef" horiz-adv-x="676" 
d="M26 0l130 660h524l-130 -660h-524zM370 418h4l58 96l28 48h-122l12 -48zM242 98h130l-14 66l-16 96h-4l-54 -96zM162 162l118 178l-46 176zM478 162l72 354l-118 -176z" />
    <glyph glyph-name=".null" 
 />
    <glyph glyph-name="nonmarkingreturn" horiz-adv-x="333" 
 />
    <glyph glyph-name="space" unicode="&#xa0;" horiz-adv-x="200" 
 />
    <glyph glyph-name="space" unicode=" " horiz-adv-x="200" 
 />
    <glyph glyph-name="exclam" unicode="!" horiz-adv-x="350" 
d="M120 238l58 432h160l-32 -140l-82 -292h-104zM126 -12q-36 0 -58 23.5t-22 60.5q0 27 14 53t38.5 42.5t57.5 16.5q36 0 58 -24t22 -60q0 -28 -13.5 -53.5t-38.5 -42t-58 -16.5z" />
    <glyph glyph-name="quotedbl" unicode="&#x22;" horiz-adv-x="550" 
d="M118 338l20 192l20 140h158l-32 -140l-62 -192h-104zM358 338l20 192l20 140h158l-32 -140l-62 -192h-104z" />
    <glyph glyph-name="numbersign" unicode="#" horiz-adv-x="516" 
d="M32 0l58 182h-74l24 102h82l32 102h-74l24 102h82l52 162h92l-52 -162h90l52 162h92l-52 -162h74l-24 -102h-82l-32 -102h74l-24 -102h-82l-58 -182h-92l58 182h-90l-58 -182h-92zM214 284h90l32 102h-90z" />
    <glyph glyph-name="dollar" unicode="$" horiz-adv-x="520" 
d="M132 -110l21 106q-42 11 -81 34.5t-70 59.5l98 96q23 -28 53.5 -49t66.5 -21q72 0 72 60q0 29 -20 51.5t-49.5 44.5t-59 47t-49.5 57.5t-20 77.5q0 81 52 136t139 64l19 100h104l-20 -108q68 -21 122 -84l-100 -90q-19 26 -44.5 41t-51.5 15q-30 0 -46 -16t-16 -40
q0 -26 20 -47t49.5 -42t59 -46.5t49.5 -59.5t20 -81q0 -82 -52 -138t-141 -67l-21 -101h-104z" />
    <glyph glyph-name="percent" unicode="%" horiz-adv-x="844" 
d="M194 258q-39 0 -71.5 19.5t-52.5 56t-20 86.5q0 73 25 130t69 89.5t102 32.5q39 0 72 -19.5t52.5 -56t19.5 -86.5q0 -73 -25 -130t-69 -89.5t-102 -32.5zM204 352q30 0 52 41.5t22 114.5q0 33 -10.5 51.5t-31.5 18.5q-30 0 -52 -41t-22 -115q0 -33 10.5 -51.5t31.5 -18.5
zM144 -12l470 684h90l-470 -684h-90zM614 -12q-39 0 -71.5 19.5t-52.5 56t-20 86.5q0 73 25 130t69 89.5t102 32.5q39 0 72 -19.5t52.5 -56t19.5 -86.5q0 -73 -25 -130t-69 -89.5t-102 -32.5zM624 82q30 0 52 41.5t22 114.5q0 33 -10.5 51.5t-31.5 18.5q-30 0 -52 -41
t-22 -115q0 -33 10.5 -51.5t31.5 -18.5z" />
    <glyph glyph-name="ampersand" unicode="&#x26;" horiz-adv-x="652" 
d="M272 470q0 -13 2 -25.5t5 -25.5q39 21 64.5 45.5t25.5 60.5q0 33 -31 33q-25 0 -45.5 -23t-20.5 -65zM208 -12q-93 0 -143.5 46.5t-50.5 119.5q0 53 20.5 91t54 65.5t71.5 48.5q-20 57 -20 107q0 53 27.5 97.5t74.5 71.5t106 27q69 0 106.5 -37.5t37.5 -102.5
q0 -48 -24 -84.5t-62 -64.5t-79 -53q20 -28 44 -55t50 -50q31 35 54 74t41 83h144q-28 -59 -62.5 -115.5t-80.5 -109.5q26 -13 50 -20.5t43 -12.5l-62 -126q-73 14 -142 59q-43 -28 -92.5 -43.5t-105.5 -15.5zM168 170q0 -27 17.5 -44.5t50.5 -17.5q18 0 37 4t38 13
q-56 56 -97 123q-21 -17 -33.5 -36t-12.5 -42z" />
    <glyph glyph-name="quotesingle" unicode="'" horiz-adv-x="310" 
d="M118 338l20 192l20 140h158l-32 -140l-62 -192h-104z" />
    <glyph glyph-name="parenleft" unicode="(" horiz-adv-x="344" 
d="M112 -180q-22 63 -41 146t-19 164q0 116 27 217t79.5 195.5t129.5 191.5l92 -46q-105 -142 -152.5 -284.5t-47.5 -283.5q0 -41 3.5 -87.5t11 -91t19.5 -79.5z" />
    <glyph glyph-name="parenright" unicode=")" horiz-adv-x="346" 
d="M64 -180l-92 46q105 143 152.5 285t47.5 283q0 41 -3.5 87.5t-11 91t-19.5 79.5l102 42q23 -63 41.5 -146t18.5 -164q0 -116 -27 -217t-79.5 -195.5t-129.5 -191.5z" />
    <glyph glyph-name="asterisk" unicode="*" horiz-adv-x="452" 
d="M172 340l-60 56l78 102l-98 58l36 74l110 -34l34 118l82 -6l-8 -122l118 14l12 -80l-114 -40l38 -110l-74 -42l-64 96z" />
    <glyph glyph-name="plus" unicode="+" horiz-adv-x="520" 
d="M212 92v182h-164v112h166v182h116v-182h166v-112h-168v-182h-116z" />
    <glyph glyph-name="comma" unicode="," horiz-adv-x="310" 
d="M-10 -196l-16 86q62 17 94.5 47.5t42.5 64.5q-37 2 -61 22.5t-24 57.5q0 41 28 71.5t76 30.5q45 0 69.5 -28.5t24.5 -79.5q0 -69 -28 -125.5t-80.5 -94.5t-125.5 -52z" />
    <glyph glyph-name="hyphen" unicode="&#x2011;" horiz-adv-x="328" 
d="M32 198l24 112h240l-24 -112h-240z" />
    <glyph glyph-name="hyphen" unicode="&#x2010;" horiz-adv-x="328" 
d="M32 198l24 112h240l-24 -112h-240z" />
    <glyph glyph-name="hyphen" unicode="&#xad;" horiz-adv-x="328" 
d="M32 198l24 112h240l-24 -112h-240z" />
    <glyph glyph-name="hyphen" unicode="-" horiz-adv-x="328" 
d="M32 198l24 112h240l-24 -112h-240z" />
    <glyph glyph-name="period" unicode="." horiz-adv-x="310" 
d="M104 -12q-36 0 -58 23.5t-22 60.5q0 27 14 53t38.5 42.5t57.5 16.5q36 0 58 -24t22 -60q0 -28 -13.5 -53.5t-38.5 -42t-58 -16.5z" />
    <glyph glyph-name="slash" unicode="/" horiz-adv-x="324" 
d="M-68 -160l348 870h104l-350 -870h-102z" />
    <glyph glyph-name="zero" unicode="0" horiz-adv-x="520" 
d="M224 -12q-52 0 -94.5 24.5t-68 76t-25.5 131.5q0 112 25.5 192.5t67.5 132t92.5 76.5t100.5 25q52 0 94 -25t67 -76.5t25 -132.5q0 -112 -25 -192t-66.5 -131.5t-92 -76t-100.5 -24.5zM234 110q30 0 59.5 40.5t49 112.5t19.5 167q0 56 -13.5 75t-36.5 19q-30 0 -59.5 -41
t-49 -113.5t-19.5 -167.5q0 -55 14 -73.5t36 -18.5z" />
    <glyph glyph-name="one" unicode="1" horiz-adv-x="520" 
d="M16 0l26 128h128l70 346h-116l20 100q56 9 94.5 23.5t75.5 36.5h118l-102 -506h112l-26 -128h-400z" />
    <glyph glyph-name="two" unicode="2" horiz-adv-x="520" 
d="M-14 0l18 90q94 76 168.5 138.5t118 117.5t43.5 108q0 30 -17 48t-49 18q-25 0 -46.5 -13t-47.5 -33l-76 92q47 39 94.5 59.5t95.5 20.5q93 0 147.5 -48t54.5 -128q0 -62 -30.5 -115.5t-83 -106.5t-118.5 -114h192l-26 -134h-438z" />
    <glyph glyph-name="three" unicode="3" horiz-adv-x="520" 
d="M208 -12q-57 0 -118 26t-108 90l100 82q26 -34 60 -52t62 -18q45 0 70.5 19t25.5 53q0 25 -12 42.5t-43.5 26.5t-90.5 9l22 112q62 0 96 11t47 30.5t13 44.5q0 26 -18 41t-50 15q-21 0 -41.5 -9t-50.5 -27l-76 102q51 35 99 47.5t99 12.5q59 0 104.5 -19.5t71.5 -54.5
t26 -82q0 -60 -28.5 -101t-103.5 -67v-4q51 -21 73.5 -56t22.5 -76q0 -65 -33.5 -109t-90.5 -66.5t-128 -22.5z" />
    <glyph glyph-name="four" unicode="4" horiz-adv-x="520" 
d="M390 0h-146l29 146h-267l22 112l294 376h194l-73 -366h69l-24 -122h-69zM184 268h113l17 86q8 36 17.5 73t16.5 73h-4q-18 -30 -37 -60t-41 -60z" />
    <glyph glyph-name="five" unicode="5" horiz-adv-x="520" 
d="M212 -12q-57 0 -113 26t-103 90l100 82q52 -70 118 -70q39 0 68.5 26t29.5 74q0 38 -20 57t-56 19q-22 0 -38.5 -5t-49.5 -23l-58 48l78 322h358l-26 -134h-220l-28 -100q14 6 26.5 8t25.5 2q72 0 121 -42.5t49 -125.5q0 -59 -22 -106t-59.5 -80t-84 -50.5t-96.5 -17.5z
" />
    <glyph glyph-name="six" unicode="6" horiz-adv-x="520" 
d="M198 201q0 -47 19 -71t47 -24q27 0 44 19t24.5 46t7.5 50q0 34 -14.5 52.5t-41.5 18.5q-18 0 -39 -12t-46 -43q-1 -9 -1 -18v-18zM256 -12q-63 0 -109 29t-71.5 81t-25.5 120q0 130 42 226t115.5 149t168.5 53q42 0 73.5 -14.5t54 -35.5t36.5 -40l-100 -84
q-13 20 -30.5 33t-43.5 13q-50 0 -92 -42t-62 -131q26 26 59.5 40.5t56.5 14.5q44 0 80 -17t57 -53.5t21 -95.5q0 -46 -16.5 -90t-47.5 -79t-73 -56t-93 -21z" />
    <glyph glyph-name="seven" unicode="7" horiz-adv-x="520" 
d="M92 0q45 161 106 283.5t158 216.5h-266l26 134h444l-20 -100q-73 -65 -121.5 -132t-79 -135t-50 -135t-33.5 -132h-164z" />
    <glyph glyph-name="eight" unicode="8" horiz-adv-x="520" 
d="M238 -12q-35 0 -71 9t-66.5 29t-49.5 51t-19 75q0 64 39.5 108t96.5 66v4q-28 29 -43 61t-15 69q0 58 30 99.5t80.5 64t109.5 22.5q45 0 87 -15t69.5 -47.5t27.5 -85.5q0 -58 -30.5 -100.5t-83.5 -69.5v-4q38 -25 59 -61.5t21 -84.5q0 -58 -33.5 -100.5t-88.5 -66
t-120 -23.5zM330 372q19 19 33.5 43.5t14.5 58.5q0 25 -12.5 42.5t-47.5 17.5q-28 0 -48 -17.5t-20 -50.5q0 -31 20.5 -51.5t59.5 -42.5zM250 98q33 0 58.5 20t25.5 60q0 32 -27.5 53t-74.5 49q-23 -19 -40.5 -47t-17.5 -63q0 -28 18.5 -50t57.5 -22z" />
    <glyph glyph-name="nine" unicode="9" horiz-adv-x="520" 
d="M208 413q0 -34 14.5 -52.5t41.5 -18.5q18 0 39 12t46 43q1 9 1 18v18q0 47 -18.5 71t-47.5 24q-27 0 -43.5 -19t-24.5 -45.5t-8 -50.5zM172 -12q-42 0 -73.5 14.5t-54 35.5t-36.5 40l100 84q14 -19 31.5 -32.5t42.5 -13.5q50 0 92.5 42t61.5 131q-25 -26 -59 -40.5
t-57 -14.5q-44 0 -80 17t-57 54t-21 95q0 46 16.5 90t47.5 79t73 56t93 21q63 0 109.5 -29t71.5 -80.5t25 -120.5q0 -130 -42 -226t-115.5 -149t-168.5 -53z" />
    <glyph glyph-name="colon" unicode=":" horiz-adv-x="310" 
d="M158 308q-36 0 -58 23.5t-22 60.5q0 27 14 53t38.5 42.5t57.5 16.5q36 0 58 -24t22 -60q0 -28 -13.5 -53.5t-38.5 -42t-58 -16.5zM104 -12q-36 0 -58 23.5t-22 60.5q0 27 14 53t38.5 42.5t57.5 16.5q36 0 58 -24t22 -60q0 -28 -13.5 -53.5t-38.5 -42t-58 -16.5z" />
    <glyph glyph-name="semicolon" unicode=";" horiz-adv-x="310" 
d="M158 308q-36 0 -58 23.5t-22 60.5q0 27 14 53t38.5 42.5t57.5 16.5q36 0 58 -24t22 -60q0 -28 -13.5 -53.5t-38.5 -42t-58 -16.5zM-10 -196l-16 86q62 17 94.5 47.5t42.5 64.5q-37 2 -61 22.5t-24 57.5q0 41 28 71.5t76 30.5q45 0 69.5 -28.5t24.5 -79.5
q0 -69 -28 -125.5t-80.5 -94.5t-125.5 -52z" />
    <glyph glyph-name="less" unicode="&#x3c;" horiz-adv-x="520" 
d="M496 98l-450 178v110l450 178v-130l-158 -54l-130 -46v-4l130 -46l158 -54v-132z" />
    <glyph glyph-name="equal" unicode="=" horiz-adv-x="520" 
d="M48 394v112h448v-112h-448zM48 154v112h448v-112h-448z" />
    <glyph glyph-name="greater" unicode="&#x3e;" horiz-adv-x="520" 
d="M48 98v132l158 54l130 46v4l-130 46l-158 54v130l450 -178v-110z" />
    <glyph glyph-name="question" unicode="?" horiz-adv-x="458" 
d="M146 244q5 47 24 79t43.5 55t48 41.5t39 38t15.5 44.5q0 24 -15 38t-41 14q-32 0 -66 -34l-80 90q75 72 166 72q86 0 139 -41t53 -115q0 -46 -17 -77.5t-43 -55t-53.5 -46t-48.5 -49.5t-28 -66zM168 -12q-36 0 -58 23.5t-22 60.5q0 27 14 53t38.5 42.5t57.5 16.5
q36 0 58 -24t22 -60q0 -28 -13.5 -53.5t-38.5 -42t-58 -16.5z" />
    <glyph glyph-name="at" unicode="@" horiz-adv-x="886" 
d="M390 -176q-68 0 -130.5 21t-111.5 62.5t-77.5 105.5t-28.5 149q0 108 38 201t103.5 163t150 109t178.5 39q107 0 182.5 -42t115.5 -113t40 -157q0 -109 -34 -181.5t-91 -108.5t-125 -36q-34 0 -63 18.5t-39 55.5h-4q-18 -28 -50 -46t-62 -18q-55 0 -91.5 41t-36.5 107
q0 48 16 93t45 80t66 56t79 21q23 0 39.5 -11t28.5 -37h2l16 40h96l-52 -224q-9 -40 0.5 -59t39.5 -19q25 0 53 23.5t47.5 70.5t19.5 118q0 44 -13 86t-42 76t-78 54t-121 20q-61 0 -122 -30.5t-112 -85t-81.5 -127.5t-30.5 -159q0 -67 22 -116t59 -81t82 -47.5t91 -15.5
q24 0 56 9.5t56 24.5l42 -86q-43 -21 -84 -32.5t-84 -11.5zM416 144q14 0 27 10t29 34l30 130q-12 26 -38 26t-47 -23t-33 -56t-12 -63q0 -27 11 -42.5t33 -15.5z" />
    <glyph glyph-name="A" unicode="A" horiz-adv-x="562" 
d="M266 344l-34 -76h120l-2 76q-1 47 -2.5 92t-1.5 94h-4q-19 -48 -37 -93.5t-39 -92.5zM-66 0l340 650h192l62 -650h-168l-4 148h-179l-67 -148h-176z" />
    <glyph glyph-name="B" unicode="B" horiz-adv-x="612" 
d="M26 0l130 650h208q66 0 117 -15.5t80 -48.5t29 -86q0 -52 -36 -96.5t-104 -65.5l-2 -4q110 -27 110 -118q0 -78 -40 -125.5t-105 -69t-141 -21.5h-246zM264 390h54q59 0 83.5 22.5t24.5 59.5q0 56 -88 56h-46zM210 122h74q60 0 90 24t30 64q0 72 -88 72h-74z" />
    <glyph glyph-name="C" unicode="C" horiz-adv-x="574" 
d="M310 -12q-76 0 -133 32.5t-89 94t-32 149.5q0 87 27.5 160t75.5 126t111.5 82.5t135.5 29.5q57 0 103.5 -27.5t74.5 -78.5l-108 -84q-35 52 -78 52q-47 0 -87.5 -33.5t-65.5 -90t-25 -126.5t29 -109t95 -39q26 0 52 13.5t48 32.5l66 -102q-18 -17 -47.5 -36t-68 -32.5
t-84.5 -13.5z" />
    <glyph glyph-name="D" unicode="D" horiz-adv-x="626" 
d="M26 0l130 650h152q137 0 214.5 -62t77.5 -194t-47.5 -219.5t-129 -131t-183.5 -43.5h-214zM212 128h24q54 0 99.5 25t73 81t27.5 150q0 77 -37.5 107.5t-94.5 30.5h-14z" />
    <glyph glyph-name="E" unicode="E" horiz-adv-x="536" 
d="M26 0l130 650h396l-26 -134h-238l-22 -114h202l-26 -134h-202l-28 -134h246l-26 -134h-406z" />
    <glyph glyph-name="F" unicode="F" horiz-adv-x="516" 
d="M26 0l130 650h396l-26 -134h-238l-26 -134h202l-26 -134h-202l-50 -248h-160z" />
    <glyph glyph-name="G" unicode="G" horiz-adv-x="620" 
d="M320 -12q-121 0 -192.5 72t-71.5 204q0 87 27.5 160t76.5 126t114.5 82.5t141.5 29.5q65 0 112.5 -27.5t75.5 -78.5l-108 -84q-35 52 -88 52q-52 0 -94.5 -33.5t-68 -90t-25.5 -126.5t29.5 -110t98.5 -40q32 0 56 16l24 108h-96l24 130h236l-62 -322q-37 -28 -92 -48
t-118 -20z" />
    <glyph glyph-name="H" unicode="H" horiz-adv-x="664" 
d="M26 0l130 650h160l-50 -244h194l48 244h160l-130 -650h-160l54 266h-194l-52 -266h-160z" />
    <glyph glyph-name="I" unicode="I" horiz-adv-x="310" 
d="M26 0l130 650h160l-130 -650h-160z" />
    <glyph glyph-name="J" unicode="J" horiz-adv-x="504" 
d="M182 -12q-55 0 -107.5 25t-84.5 73l96 98q15 -21 40 -39.5t56 -18.5q35 0 56.5 27t33.5 86l82 411h160l-88 -439q-12 -59 -41 -110t-79 -82t-124 -31z" />
    <glyph glyph-name="K" unicode="K" horiz-adv-x="622" 
d="M26 0l130 650h160l-49 -246h4l213 246h174l-234 -274l144 -376h-166l-96 276l-84 -96l-36 -180h-160z" />
    <glyph glyph-name="L" unicode="L" horiz-adv-x="514" 
d="M26 0l130 650h160l-104 -516h236l-26 -134h-396z" />
    <glyph glyph-name="M" unicode="M" horiz-adv-x="754" 
d="M26 0l130 650h166l42 -280l15 -110h4l57 110l152 280h166l-130 -650h-150l46 216q7 34 18 74.5t23 80.5t23 73h-3l-81 -152l-138 -236h-60l-42 236l-20 152h-3q-2 -33 -5.5 -73.5t-8 -81t-11.5 -73.5l-44 -216h-146z" />
    <glyph glyph-name="N" unicode="N" horiz-adv-x="652" 
d="M26 0l130 650h154l90 -308l32 -146h4q5 53 9.5 120.5t16.5 125.5l42 208h152l-130 -650h-154l-90 308l-30 146h-4q-4 -55 -10 -120t-18 -124l-42 -210h-152z" />
    <glyph glyph-name="O" unicode="O" horiz-adv-x="670" 
d="M308 -12q-75 0 -131.5 32.5t-88.5 94t-32 149.5q0 91 28 164t75.5 125.5t108 80.5t124.5 28q75 0 132 -32.5t88.5 -94t31.5 -149.5q0 -91 -28 -164t-75.5 -125.5t-107.5 -80.5t-125 -28zM316 126q37 0 75 31.5t63.5 87.5t25.5 131q0 71 -25.5 109.5t-70.5 38.5
q-37 0 -75 -31.5t-63.5 -87.5t-25.5 -131q0 -70 25.5 -109t70.5 -39z" />
    <glyph glyph-name="P" unicode="P" horiz-adv-x="596" 
d="M26 0l130 650h214q65 0 117 -17.5t82.5 -56.5t30.5 -104q0 -71 -24.5 -121t-67.5 -80.5t-98 -44.5t-116 -14h-66l-42 -212h-160zM254 338h59q62 0 95.5 28t33.5 82q0 39 -25 57.5t-69 18.5h-58z" />
    <glyph glyph-name="Q" unicode="Q" horiz-adv-x="670" 
d="M316 120q37 0 75 31t63.5 88.5t25.5 136.5q0 71 -25.5 109.5t-70.5 38.5q-37 0 -75 -31.5t-63.5 -87.5t-25.5 -131q0 -76 25.5 -115t70.5 -39zM492 -182q-213 0 -289 189q-68 28 -107.5 93.5t-39.5 163.5q0 91 28 164t75.5 125.5t108 80.5t124.5 28q75 0 132 -32.5
t88.5 -94t31.5 -149.5q0 -105 -37 -186.5t-98.5 -134t-134.5 -69.5q21 -26 56 -38t72 -12q21 0 37.5 3t32.5 7l6 -120q-18 -7 -43 -12.5t-43 -5.5z" />
    <glyph glyph-name="R" unicode="R" horiz-adv-x="612" 
d="M26 0l130 650h214q65 0 117 -16.5t82.5 -54.5t30.5 -101q0 -91 -44.5 -147t-112.5 -82l97 -249h-168l-75 224h-67l-44 -224h-160zM256 350h58q65 0 96.5 29t31.5 75q0 36 -24.5 53t-69.5 17h-58z" />
    <glyph glyph-name="S" unicode="S" horiz-adv-x="538" 
d="M240 -12q-62 0 -124.5 28.5t-113.5 96.5l114 90q26 -35 62.5 -57t73.5 -22q35 0 55.5 15t20.5 42q0 22 -20 35.5t-54 34.5l-56 35q-45 29 -70.5 67t-25.5 99q0 59 32 106.5t86.5 75.5t120.5 28q57 0 109.5 -27t92.5 -74l-100 -94q-25 25 -50.5 41t-57.5 16
q-34 0 -51.5 -16.5t-17.5 -39.5q0 -20 20.5 -33.5t59.5 -38.5l60 -37q47 -28 67.5 -63t20.5 -92q0 -59 -31 -108.5t-88 -78.5t-135 -29z" />
    <glyph glyph-name="T" unicode="T" horiz-adv-x="540" 
d="M142 0l102 516h-164l26 134h488l-26 -134h-164l-102 -516h-160z" />
    <glyph glyph-name="U" unicode="U" horiz-adv-x="654" 
d="M316 -12q-121 0 -181.5 57t-60.5 177q0 23 5 54t9 56l64 318h160l-70 -350q-3 -19 -5.5 -37.5t-2.5 -36.5q0 -49 18.5 -74.5t67.5 -25.5q44 0 70 36t42 120l74 368h156l-74 -364q-30 -153 -95.5 -225.5t-176.5 -72.5z" />
    <glyph glyph-name="V" unicode="V" horiz-adv-x="576" 
d="M132 0l-54 650h168l12 -304q2 -51 3 -102.5t1 -103.5h4q22 52 43 103t43 103l132 304h176l-334 -650h-194z" />
    <glyph glyph-name="W" unicode="W" horiz-adv-x="808" 
d="M70 0l28 650h164l-26 -294q-5 -51 -10.5 -103.5t-13.5 -104.5h4q20 52 41.5 105t40.5 103l123 294h133v-294q-1 -49 -4 -102l-6 -106h4q17 53 35 105.5t33 102.5l98 294h152l-246 -650h-202l8 278q0 29 3.5 71.5t7.5 79.5h-4q-13 -36 -28 -74.5t-29 -76.5l-108 -278h-198
z" />
    <glyph glyph-name="X" unicode="X" horiz-adv-x="576" 
d="M-36 0l238 334l-98 316h178l24 -114q5 -22 10 -48.5t12 -57.5h4q17 31 32 57.5t28 48.5l64 114h170l-226 -322l106 -328h-178l-28 126q-6 26 -12 51.5t-12 54.5h-4q-16 -29 -31.5 -54.5t-30.5 -51.5l-76 -126h-170z" />
    <glyph glyph-name="Y" unicode="Y" horiz-adv-x="528" 
d="M137 0l45 228l-103 422h166l21 -144q6 -37 11 -71t11 -73h4q20 39 37.5 74t38.5 72l78 142h172l-276 -422l-46 -228h-159z" />
    <glyph glyph-name="Z" unicode="Z" horiz-adv-x="530" 
d="M-6 0l20 96l330 420h-240l26 134h432l-20 -96l-326 -420h264l-28 -134h-458z" />
    <glyph glyph-name="bracketleft" unicode="[" horiz-adv-x="344" 
d="M-8 -152l172 860h212l-16 -84h-94l-138 -692h94l-18 -84h-212z" />
    <glyph glyph-name="backslash" unicode="\" horiz-adv-x="324" 
d="M144 -160l-60 870h102l62 -870h-104z" />
    <glyph glyph-name="bracketright" unicode="]" horiz-adv-x="344" 
d="M-22 -152l18 84h92l138 692h-92l16 84h212l-172 -860h-212z" />
    <glyph glyph-name="asciicircum" unicode="^" horiz-adv-x="516" 
d="M68 272l150 398h126l150 -398h-130l-38 118l-42 136h-4l-44 -136l-38 -118h-130z" />
    <glyph glyph-name="underscore" unicode="_" horiz-adv-x="480" 
d="M-52 -144l18 88h456l-18 -88h-456z" />
    <glyph glyph-name="grave" unicode="`" horiz-adv-x="540" 
d="M366 569l-162 173l136 102l124 -199z" />
    <glyph glyph-name="a" unicode="a" horiz-adv-x="558" 
d="M168 -12q-66 0 -103 48t-37 136q0 71 22 133t59.5 108.5t85 72.5t99.5 26q32 0 61.5 -16.5t42.5 -45.5h2l22 50h128l-100 -500h-130v62h-2q-33 -34 -73.5 -54t-76.5 -20zM240 118q20 0 44.5 13t43.5 53l32 160q-9 20 -24.5 29t-29.5 9q-29 0 -54.5 -24t-41.5 -67t-16 -99
q0 -39 12.5 -56.5t33.5 -17.5z" />
    <glyph glyph-name="b" unicode="b" horiz-adv-x="560" 
d="M264 -12q-31 0 -58.5 17t-41.5 45h-2l-22 -50h-132l140 696h160l-30 -146l-26 -92h2q32 26 67 40t69 14q66 0 103 -47.5t37 -136.5q0 -71 -22 -133t-59.5 -108.5t-85 -72.5t-99.5 -26zM252 118q29 0 54.5 24t41.5 67t16 99q0 39 -12.5 56.5t-33.5 17.5q-19 0 -42.5 -11.5
t-41.5 -44.5l-34 -170q8 -19 22.5 -28.5t29.5 -9.5z" />
    <glyph glyph-name="c" unicode="c" horiz-adv-x="446" 
d="M226 -12q-56 0 -101.5 24.5t-72 71t-26.5 112.5q0 63 22.5 120t63 101t95.5 69.5t119 25.5q48 0 83 -19.5t53 -42.5l-88 -94q-13 14 -26.5 21t-31.5 7q-36 0 -64.5 -25t-45 -67.5t-16.5 -93.5q0 -37 18 -59.5t54 -22.5q23 0 39 9t29 19l66 -98q-28 -21 -69 -39.5
t-101 -18.5z" />
    <glyph glyph-name="d" unicode="d" horiz-adv-x="550" 
d="M168 -12q-66 0 -103 48t-37 136q0 71 22 133t59.5 108.5t85 72.5t99.5 26q32 0 57.5 -15t38.5 -41h2l10 94l28 146h160l-140 -696h-130v62h-2q-33 -34 -73.5 -54t-76.5 -20zM240 118q20 0 43.5 13t44.5 53l32 160q-9 20 -24.5 29t-29.5 9q-29 0 -54.5 -24t-41.5 -67
t-16 -99q0 -39 12.5 -56.5t33.5 -17.5z" />
    <glyph glyph-name="e" unicode="e" horiz-adv-x="502" 
d="M234 -12q-61 0 -108 26t-73.5 74.5t-26.5 115.5q0 69 25 125.5t66 97.5t91 63t100 22q61 0 97.5 -26t52.5 -69t16 -95q0 -36 -10 -70.5t-16 -45.5h-272q0 -52 30.5 -75t73.5 -23q21 0 44.5 10t39.5 22l56 -100q-30 -21 -77 -36.5t-109 -15.5zM188 302h152q2 5 3 13t1 15
q0 26 -12 43t-44 17q-28 0 -55.5 -20.5t-44.5 -67.5z" />
    <glyph glyph-name="f" unicode="f" horiz-adv-x="344" 
d="M34 0l76 376h-64l24 118l66 6l2 14q10 52 34.5 96t66.5 71t105 27q61 0 114 -28l-50 -112q-7 5 -20.5 9.5t-25.5 4.5q-25 0 -40.5 -10.5t-23.5 -51.5l-4 -20h82l-24 -124h-84l-74 -376h-160z" />
    <glyph glyph-name="g" unicode="g" horiz-adv-x="552" 
d="M180 -196q-42 0 -92.5 17t-95.5 53l68 106q29 -21 60 -35.5t64 -14.5q41 0 69.5 19.5t40.5 56.5l26 82q-65 -68 -146 -68q-63 0 -104.5 43t-41.5 131q0 67 21 124.5t57.5 101t83 68t98.5 24.5q32 0 60.5 -16.5t41.5 -45.5h2l22 50h130l-96 -480q-22 -112 -91.5 -164
t-176.5 -52zM238 150q21 0 45 11t43 45l26 138q-9 20 -23.5 29t-28.5 9q-43 0 -74.5 -46.5t-31.5 -121.5q0 -33 12.5 -48.5t31.5 -15.5z" />
    <glyph glyph-name="h" unicode="h" horiz-adv-x="556" 
d="M8 0l140 696h160l-34 -162l-24 -88h4q30 27 68.5 46.5t83.5 19.5q62 0 90 -32.5t28 -97.5q0 -16 -1.5 -35t-6.5 -37l-62 -310h-160l58 290q3 14 5.5 24.5t2.5 19.5q0 42 -42 42q-21 0 -41 -13.5t-47 -42.5l-62 -320h-160z" />
    <glyph glyph-name="i" unicode="i" horiz-adv-x="276" 
d="M8 0l100 500h160l-100 -500h-160zM210 564q-31 0 -57.5 18.5t-26.5 55.5q0 36 28 63t68 27q32 0 58 -19t26 -55q0 -39 -27.5 -64.5t-68.5 -25.5z" />
    <glyph glyph-name="j" unicode="j" horiz-adv-x="278" 
d="M-30 -188q-27 0 -52 5.5t-52 18.5l48 114q21 -12 42 -12q24 0 35.5 16.5t20.5 55.5l98 490h160l-100 -498q-11 -52 -34 -95t-63.5 -69t-102.5 -26zM210 564q-31 0 -57.5 18.5t-26.5 55.5q0 36 28 63t68 27q32 0 58 -19t26 -55q0 -39 -27.5 -64.5t-68.5 -25.5z" />
    <glyph glyph-name="k" unicode="k" horiz-adv-x="544" 
d="M8 0l140 696h160l-76 -376h4l164 180h176l-206 -222l118 -278h-160l-68 186l-68 -68l-24 -118h-160z" />
    <glyph glyph-name="l" unicode="l" horiz-adv-x="286" 
d="M148 -12q-61 0 -87.5 29.5t-26.5 80.5q0 15 2 31t6 37l106 530h160l-108 -536q-1 -7 -1.5 -11t-0.5 -8q0 -14 6.5 -19.5t13.5 -5.5q5 0 8.5 0.5t9.5 1.5l-6 -118q-13 -4 -34 -8t-48 -4z" />
    <glyph glyph-name="m" unicode="m" horiz-adv-x="838" 
d="M8 0l100 500h130v-64h4q35 30 75 53t83 23q54 0 79 -22.5t37 -61.5q39 36 81 60t85 24q62 0 90 -32.5t28 -97.5q0 -34 -8 -72l-62 -310h-160l58 290q3 14 5.5 24.5t2.5 19.5q0 42 -42 42q-29 0 -82 -56l-64 -320h-160l58 290q3 14 5.5 24.5t2.5 19.5q0 21 -11 31.5
t-29 10.5q-31 0 -84 -56l-62 -320h-160z" />
    <glyph glyph-name="n" unicode="n" horiz-adv-x="562" 
d="M8 0l100 500h130v-64h4q35 30 75.5 53t88.5 23q62 0 90 -32.5t28 -97.5q0 -34 -8 -72l-62 -310h-160l58 290q3 14 5.5 24.5t2.5 19.5q0 42 -42 42q-21 0 -41 -13.5t-47 -42.5l-62 -320h-160z" />
    <glyph glyph-name="o" unicode="o" horiz-adv-x="540" 
d="M226 -12q-60 0 -105 26t-70 73t-25 109q0 73 24.5 131t65.5 99.5t91.5 63.5t102.5 22q60 0 105 -26t70 -73t25 -109q0 -73 -24.5 -131t-65.5 -99.5t-91.5 -63.5t-102.5 -22zM244 116q29 0 52.5 24t37.5 66t14 96q0 38 -13.5 60t-42.5 22t-52.5 -24t-37.5 -66t-14 -96
q0 -37 14 -59.5t42 -22.5z" />
    <glyph glyph-name="p" unicode="p" horiz-adv-x="560" 
d="M-28 -176l136 676h130l4 -54h2q33 30 71.5 48t74.5 18q66 0 103 -47.5t37 -136.5q0 -71 -22 -133t-59.5 -108.5t-85 -72.5t-99.5 -26q-28 0 -53.5 14.5t-40.5 39.5h-2l-12 -94l-24 -124h-160zM252 118q29 0 54.5 24t41.5 67t16 99q0 39 -12.5 56.5t-33.5 17.5
q-19 0 -42.5 -11.5t-41.5 -44.5l-34 -170q8 -19 22.5 -28.5t29.5 -9.5z" />
    <glyph glyph-name="q" unicode="q" horiz-adv-x="558" 
d="M254 -176l26 124l40 114h-2q-33 -34 -73.5 -54t-76.5 -20q-66 0 -103 48t-37 136q0 71 22 133t59.5 108.5t85 72.5t99.5 26q32 0 61.5 -16.5t42.5 -45.5h2l22 50h128l-136 -676h-160zM240 118q20 0 43.5 13t44.5 53l32 160q-9 20 -24.5 29t-29.5 9q-29 0 -54.5 -24
t-41.5 -67t-16 -99q0 -39 12.5 -56.5t33.5 -17.5z" />
    <glyph glyph-name="r" unicode="r" horiz-adv-x="400" 
d="M8 0l100 500h130l-4 -98h4q29 48 68.5 79t81.5 31q21 0 34 -2.5t20 -7.5l-52 -138q-10 6 -25 7t-27 1q-31 0 -59 -21t-57 -71l-54 -280h-160z" />
    <glyph glyph-name="s" unicode="s" horiz-adv-x="432" 
d="M172 -12q-29 0 -63 11t-65.5 32.5t-53.5 54.5l92 76q27 -31 52.5 -44.5t47.5 -13.5q23 0 39.5 9.5t16.5 24.5q0 20 -22.5 32t-61.5 34q-37 21 -66.5 56t-29.5 84q0 48 27 86t73 60t102 22q54 0 96.5 -23.5t73.5 -56.5l-86 -82q-18 18 -39 31t-45 13t-38 -10.5t-14 -25.5
q0 -21 26 -33t54 -29q24 -13 47 -31.5t38 -45t15 -63.5q0 -50 -27.5 -88t-76.5 -59t-112 -21z" />
    <glyph glyph-name="t" unicode="t" horiz-adv-x="384" 
d="M210 -12q-79 0 -114.5 39.5t-35.5 100.5q0 17 2.5 33.5t5.5 32.5l38 182h-64l24 118l72 6l44 128h134l-24 -128h108l-24 -124h-112l-38 -188q-1 -9 -1.5 -16.5t-0.5 -15.5q0 -44 48 -44q9 0 18 3t18 7l28 -112q-21 -7 -52.5 -14.5t-73.5 -7.5z" />
    <glyph glyph-name="u" unicode="u" horiz-adv-x="552" 
d="M150 -12q-61 0 -89.5 33t-28.5 97q0 34 8 72l62 310h160l-58 -290q-3 -13 -5.5 -24t-2.5 -20q0 -42 42 -42q20 0 39 14t43 42l62 320h160l-98 -500h-130v64h-4q-31 -30 -73 -53t-87 -23z" />
    <glyph glyph-name="v" unicode="v" horiz-adv-x="518" 
d="M120 0l-60 500h160l10 -228q2 -37 2 -75.5v-78.5h4q17 39 32.5 77t31.5 77l98 228h156l-250 -500h-184z" />
    <glyph glyph-name="w" unicode="w" horiz-adv-x="764" 
d="M92 0l-19 500h158l-5 -222q-1 -37 -4.5 -74.5t-5.5 -75.5h4q14 38 27 76t29 74l91 222h136l5 -222q1 -37 -0.5 -74.5t-1.5 -75.5h4q14 38 25.5 75.5t24.5 74.5l80 222h148l-208 -500h-186v186q2 35 2 70.5t2 75.5h-4q-14 -40 -25.5 -75.5t-24.5 -70.5l-72 -186h-180z" />
    <glyph glyph-name="x" unicode="x" horiz-adv-x="514" 
d="M-38 0l206 268l-84 232h162l25 -78q5 -21 11 -42t11 -42h4q11 21 24 42t23 42l38 78h170l-192 -268l90 -232h-164l-26 76q-7 21 -13 43t-13 43h-4q-12 -21 -25 -42.5t-26 -43.5l-46 -76h-171z" />
    <glyph glyph-name="y" unicode="y" horiz-adv-x="518" 
d="M52 -188q-15 0 -38 6.5t-38 15.5l48 114q17 -10 38 -10q23 0 45.5 15.5t35.5 41.5l10 20l-88 485h159l18 -205q3 -32 4.5 -73.5t1.5 -77.5h4q15 35 32 76t32 75l90 205h154l-261 -499q-56 -97 -111.5 -143t-135.5 -46z" />
    <glyph glyph-name="z" unicode="z" horiz-adv-x="456" 
d="M-10 0l18 90l240 286h-164l24 124h364l-18 -92l-240 -284h190l-24 -124h-390z" />
    <glyph glyph-name="braceleft" unicode="{" horiz-adv-x="342" 
d="M144 -152q-55 0 -77.5 23.5t-22.5 66.5q0 30 7.5 63.5t17.5 66.5t17.5 60t7.5 44q0 23 -14.5 41t-55.5 19l20 92q50 2 71.5 26.5t26.5 49.5q6 31 8 54.5t4.5 48t9.5 59.5q11 55 28.5 87t47 45.5t75.5 13.5h70l-18 -84h-16q-28 0 -40 -14.5t-20 -53.5q-7 -38 -13 -75
t-14 -81q-12 -60 -37.5 -87.5t-66.5 -36.5l-1 -4q30 -7 45.5 -23t15.5 -51q0 -25 -6.5 -56.5t-15.5 -64t-15.5 -62t-6.5 -49.5q0 -19 8 -26.5t30 -7.5h14l-16 -84h-68z" />
    <glyph glyph-name="bar" unicode="|" horiz-adv-x="264" 
d="M86 -250v1000h98v-1000h-98z" />
    <glyph glyph-name="braceright" unicode="}" horiz-adv-x="346" 
d="M-32 -152l18 84h16q28 0 40.5 14.5t19.5 53.5q8 38 13.5 75.5t13.5 80.5q12 60 37.5 87.5t66.5 36.5l1 4q-30 7 -45.5 23.5t-15.5 50.5q0 25 6.5 56.5t15.5 64t15.5 62t6.5 49.5q0 19 -7.5 26.5t-30.5 7.5h-14l16 84h68q56 0 78 -23t22 -67q0 -30 -7.5 -63.5t-17.5 -66.5
t-17.5 -60t-7.5 -44q0 -22 15 -40t55 -20l-20 -92q-49 -1 -71 -25.5t-27 -50.5q-6 -31 -8 -54.5t-4.5 -48t-9.5 -59.5q-11 -55 -28.5 -87t-47 -45.5t-75.5 -13.5h-70z" />
    <glyph glyph-name="asciitilde" unicode="~" horiz-adv-x="520" 
d="M346 240q-28 0 -50.5 11t-40.5 26t-35.5 26t-37.5 11q-39 0 -66 -54l-80 54q35 60 75 84t77 24q29 0 51 -11t40 -26t36 -26t37 -11q39 0 66 54l80 -54q-34 -60 -74 -84t-78 -24z" />
    <glyph glyph-name="exclamdown" unicode="&#xa1;" horiz-adv-x="350" 
d="M16 -170l32 140l82 292h104l-58 -432h-160zM198 316q-36 0 -58 24t-22 60q0 28 14 53.5t38.5 42t57.5 16.5q36 0 58 -23t22 -61q0 -27 -13.5 -52.5t-38.5 -42.5t-58 -17z" />
    <glyph glyph-name="cent" unicode="&#xa2;" horiz-adv-x="520" 
d="M216 -20l18 93q-74 13 -119 68t-45 145q0 85 38 148.5t99 101.5t129 48l18 94h86l-19 -94q36 -7 62.5 -27t48.5 -45l-92 -86q-11 11 -22 18t-22 11l-50 -255q35 6 68 30l48 -102q-34 -22 -69 -36t-73 -19l-18 -93h-86zM226 310q0 -65 37 -94l46 233q-39 -16 -61 -53.5
t-22 -85.5z" />
    <glyph glyph-name="sterling" unicode="&#xa3;" horiz-adv-x="520" 
d="M-4 0l20 98q58 24 94.5 65.5t40.5 98.5h-95l20 108l66 5q-1 9 -1.5 17.5t-0.5 15.5q0 71 33 124.5t89 83.5t124 30q54 0 94 -22.5t70 -63.5l-102 -84q-16 21 -31.5 31.5t-38.5 10.5q-36 0 -63 -31t-27 -103v-4v-4h144l-22 -114h-116q-7 -69 -54 -124v-4h226l-24 -134
h-446z" />
    <glyph glyph-name="currency" unicode="&#xa4;" horiz-adv-x="520" 
d="M74 86l-68 80l63 54q-17 34 -17 76q0 45 15.5 82.5t41.5 66.5l-45 55l84 72l51 -63q52 23 107 23q28 0 53 -5.5t46 -15.5l71 61l68 -80l-64 -55q8 -16 12 -34.5t4 -38.5q0 -45 -15.5 -82.5t-41.5 -66.5l47 -57l-84 -72l-53 64q-25 -11 -52.5 -16.5t-54.5 -5.5t-51 5
t-45 15zM260 240q35 0 62.5 31.5t27.5 80.5q0 33 -16.5 50.5t-45.5 17.5q-34 0 -62 -31t-28 -81q0 -31 17 -49.5t45 -18.5z" />
    <glyph glyph-name="yen" unicode="&#xa5;" horiz-adv-x="520" 
d="M130 0l29 145h-145l15 74h145l10 53h-145l15 75h112l-79 288h163l16 -127q4 -33 8.5 -66t10.5 -65h3l36 66t36 65l66 127h159l-194 -288h112l-15 -75h-145l-11 -53h145l-15 -74h-145l-29 -145h-158z" />
    <glyph glyph-name="brokenbar" unicode="&#xa6;" horiz-adv-x="264" 
d="M86 316v434h98v-434h-98zM86 -250v452h98v-452h-98z" />
    <glyph glyph-name="section" unicode="&#xa7;" horiz-adv-x="516" 
d="M196 -88q-49 0 -103.5 23t-96.5 65l78 98q24 -24 59 -46t71 -22q48 0 48 38q0 18 -21 34t-51.5 33.5t-61 41t-51.5 56.5t-21 79q0 50 29 87.5t73 59.5q-7 14 -11.5 29t-4.5 32q0 49 23 88t65 61.5t98 22.5q48 0 94.5 -21.5t83.5 -60.5l-80 -88q-19 18 -44 34t-54 16
q-18 0 -30 -9t-12 -27q0 -17 21.5 -33t53.5 -34.5t64 -42.5t53.5 -57t21.5 -77q0 -55 -28 -93.5t-75 -64.5q9 -21 9 -48q0 -79 -55 -126.5t-145 -47.5zM182 330q0 -23 21.5 -41.5t53 -36.5t61.5 -40q16 10 25 25t9 37q0 23 -21 41t-52 35.5t-62 38.5q-15 -9 -25 -23.5
t-10 -35.5z" />
    <glyph glyph-name="dieresis" unicode="&#xa8;" horiz-adv-x="540" 
d="M226 566q-28 0 -47 17t-19 49t24 57t60 25q28 0 47 -17.5t19 -48.5q0 -34 -24 -58t-60 -24zM446 566q-28 0 -47 17t-19 49t24 57t60 25q28 0 47 -17.5t19 -48.5q0 -34 -24 -58t-60 -24z" />
    <glyph glyph-name="copyright" unicode="&#xa9;" horiz-adv-x="674" 
d="M298 -8q-78 0 -139 36t-96 99t-35 143q0 81 28 151t78.5 123t120 82.5t151.5 29.5q78 0 139 -36t96 -99t35 -143q0 -81 -28 -151t-78.5 -123t-119.5 -82.5t-152 -29.5zM304 60q63 0 117.5 24t95.5 66.5t64 99.5t23 122q0 57 -22.5 106.5t-68 79.5t-113.5 30
q-63 0 -117.5 -24t-95.5 -66.5t-64 -99.5t-23 -122q0 -57 22.5 -106.5t68 -79.5t113.5 -30zM332 128q-72 0 -116 42t-44 114q0 53 20 96t53 73.5t73 46.5t80 16q35 0 62 -17t42 -35l-66 -64q-12 14 -25 19t-27 5q-23 0 -45.5 -16t-37.5 -44.5t-15 -65.5q0 -36 19 -57t53 -21
q18 0 31.5 5.5t32.5 18.5l44 -68q-31 -25 -65.5 -36.5t-68.5 -11.5z" />
    <glyph glyph-name="ordfeminine" unicode="&#xaa;" horiz-adv-x="369" 
d="M168 360q-43 0 -68.5 32t-25.5 90q0 63 25.5 114.5t66 81.5t86.5 30q21 0 38 -12t26 -30h4l16 34h90l-66 -332h-90v40h-4q-21 -22 -47.5 -35t-50.5 -13zM216 450q14 0 29.5 8.5t28.5 33.5l18 102q-4 12 -13.5 18t-18.5 6q-27 0 -49.5 -34t-22.5 -88q0 -24 8 -35t20 -11z
" />
    <glyph glyph-name="guillemotleft" unicode="&#xab;" horiz-adv-x="480" 
d="M144 54l-104 146l20 112l152 136l48 -52l-130 -150l76 -152zM344 54l-104 146l20 112l152 136l48 -52l-130 -150l76 -152z" />
    <glyph glyph-name="logicalnot" unicode="&#xac;" horiz-adv-x="520" 
d="M382 92v182h-334v112h448v-294h-114z" />
    <glyph glyph-name="registered" unicode="&#xae;" horiz-adv-x="458" 
d="M262 308q-48 0 -88.5 23.5t-65 64t-24.5 92.5q0 58 26.5 110t74 85t111.5 33q47 0 87 -23.5t65 -64t26 -92.5q0 -58 -26.5 -110t-74.5 -85t-111 -33zM266 360q45 0 79.5 24t53.5 63t19 85q0 56 -34.5 94t-91.5 38q-45 0 -79 -24t-53.5 -63t-19.5 -85q0 -55 34.5 -93.5
t91.5 -38.5zM180 416l40 194h88q30 0 49 -15.5t19 -42.5q0 -19 -12 -37t-36 -27l24 -72h-60l-16 58h-24l-12 -58h-60zM260 516h14q18 0 27 9t9 21q0 20 -24 20h-16z" />
    <glyph glyph-name="macron" unicode="&#xaf;" horiz-adv-x="540" 
d="M188 590l20 100h294l-20 -100h-294z" />
    <glyph glyph-name="degree" unicode="&#xb0;" horiz-adv-x="362" 
d="M224 392q-58 0 -95 36t-37 96q0 45 22.5 82t59 58.5t78.5 21.5q59 0 95.5 -36t36.5 -96q0 -45 -22.5 -81.5t-59 -58.5t-78.5 -22zM230 468q32 0 51 26t19 60q0 23 -13.5 39.5t-40.5 16.5q-31 0 -50.5 -25.5t-19.5 -60.5q0 -22 13.5 -39t40.5 -17z" />
    <glyph glyph-name="plusminus" unicode="&#xb1;" horiz-adv-x="520" 
d="M212 164v146h-164v112h166v146h116v-146h166v-112h-168v-146h-116zM48 0v112h448v-112h-448z" />
    <glyph glyph-name="two.sups" unicode="&#xb2;" horiz-adv-x="368" 
d="M58 368l12 62q98 62 149 112.5t51 89.5q0 17 -10.5 27.5t-31.5 10.5q-13 0 -26 -9t-28 -23l-64 68q36 32 67 48t73 16q63 0 99.5 -31t36.5 -85q0 -51 -35 -96.5t-89 -91.5h100l-20 -98h-284z" />
    <glyph glyph-name="three.sups" unicode="&#xb3;" horiz-adv-x="364" 
d="M214 356q-55 0 -92 22t-60 58l74 54q27 -42 67 -42q26 0 40.5 12.5t14.5 27.5q0 21 -14.5 32.5t-63.5 11.5l14 69q52 0 67 15.5t15 34.5q0 13 -9.5 21t-26.5 8q-16 0 -28 -4t-32 -18l-48 76q36 21 67 28.5t68 7.5q55 0 90 -27t35 -71q0 -37 -17.5 -63t-58.5 -43
q54 -32 54 -84q0 -40 -21 -68t-56.5 -43t-78.5 -15z" />
    <glyph glyph-name="acute" unicode="&#xb4;" horiz-adv-x="540" 
d="M316 578l-69 90l191 172l95 -122z" />
    <glyph glyph-name="mu" unicode="&#x3bc;" horiz-adv-x="554" 
d="M-28 -176l134 676h160l-58 -290q-3 -13 -5.5 -24t-2.5 -20q0 -42 42 -42q20 0 39 13.5t43 41.5l62 321h158l-96 -500h-130v64h-4q-18 -28 -44.5 -48t-53.5 -20q-16 0 -30 4t-22 14l-6 -52l-27 -138h-159z" />
    <glyph glyph-name="mu" unicode="&#xb5;" horiz-adv-x="554" 
d="M-28 -176l134 676h160l-58 -290q-3 -13 -5.5 -24t-2.5 -20q0 -42 42 -42q20 0 39 13.5t43 41.5l62 321h158l-96 -500h-130v64h-4q-18 -28 -44.5 -48t-53.5 -20q-16 0 -30 4t-22 14l-6 -52l-27 -138h-159z" />
    <glyph glyph-name="paragraph" unicode="&#xb6;" horiz-adv-x="636" 
d="M320 -80l144 730h160l-144 -730h-160zM282 190q-57 0 -105.5 21.5t-78.5 63t-30 101.5q0 73 24.5 125t66.5 85t96 48.5t113 15.5h42l-92 -460h-36z" />
    <glyph glyph-name="periodcentered" unicode="&#xb7;" horiz-adv-x="310" 
d="M154 228q-36 0 -58 23.5t-22 60.5q0 27 14 53t38.5 42.5t57.5 16.5q36 0 58 -24t22 -60q0 -28 -13.5 -53.5t-38.5 -42t-58 -16.5z" />
    <glyph glyph-name="cedilla" unicode="&#xb8;" horiz-adv-x="540" 
d="M70 -244v66q57 3 80.5 12t27.5 30q2 14 -11.5 24t-58.5 16l68 100h98l-40 -64q38 -9 54.5 -26.5t11.5 -49.5q-10 -54 -69.5 -79.5t-160.5 -28.5z" />
    <glyph glyph-name="one.sups" unicode="&#xb9;" horiz-adv-x="384" 
d="M182 368l56 274h-86l14 72q42 6 67 16t53 28h90l-76 -390h-118z" />
    <glyph glyph-name="ordmasculine" unicode="&#xba;" horiz-adv-x="362" 
d="M212 360q-57 0 -96.5 36.5t-39.5 102.5q0 64 27.5 110.5t71 72.5t91.5 26q57 0 96.5 -36.5t39.5 -102.5q0 -64 -27.5 -110.5t-71 -72.5t-91.5 -26zM222 448q32 0 50 34.5t18 85.5q0 24 -8 38t-26 14q-31 0 -49.5 -34.5t-18.5 -85.5q0 -24 8 -38t26 -14z" />
    <glyph glyph-name="guillemotright" unicode="&#xbb;" horiz-adv-x="480" 
d="M76 54l-48 52l130 150l-76 152l62 40l104 -146l-20 -112zM276 54l-48 52l130 150l-76 152l62 40l104 -146l-20 -112z" />
    <glyph glyph-name="onequarter" unicode="&#xbc;" horiz-adv-x="788" 
d="M130 270l56 274h-86l14 72q42 6 67 16t53 28h90l-76 -390h-118zM124 -12l470 684h90l-470 -684h-90zM526 158h84l8 38l28 124h-4l-58 -86zM578 0l17 82h-187l12 60l188 248h146l-45 -232h57l-16 -76h-56l-16 -82h-100z" />
    <glyph glyph-name="onehalf" unicode="&#xbd;" horiz-adv-x="828" 
d="M126 270l56 274h-86l14 72q42 6 67 16t53 28h90l-76 -390h-118zM114 -12l470 684h90l-470 -684h-90zM452 0l12 62q98 62 149 112.5t51 89.5q0 17 -10.5 27.5t-31.5 10.5q-13 0 -26 -9t-28 -23l-64 68q36 32 67 48t73 16q63 0 99.5 -31t36.5 -85q0 -51 -35 -96.5
t-89 -91.5h100l-20 -98h-284z" />
    <glyph glyph-name="threequarters" unicode="&#xbe;" horiz-adv-x="798" 
d="M188 258q-55 0 -92 22t-60 58l74 54q27 -42 67 -42q26 0 40.5 12.5t14.5 27.5q0 21 -14.5 32.5t-63.5 11.5l14 69q52 0 67 15.5t15 34.5q0 13 -9.5 21t-26.5 8q-16 0 -28 -4t-32 -18l-48 76q36 21 67 28.5t68 7.5q55 0 90 -27t35 -71q0 -37 -17.5 -63t-58.5 -43
q54 -32 54 -84q0 -40 -21 -68t-56.5 -43t-78.5 -15zM144 -12l470 684h90l-470 -684h-90zM536 158h84l8 38l28 124h-4l-58 -86zM588 0l17 82h-187l12 60l188 248h146l-45 -232h57l-16 -76h-56l-16 -82h-100z" />
    <glyph glyph-name="questiondown" unicode="&#xbf;" horiz-adv-x="458" 
d="M192 -182q-85 0 -138.5 41.5t-53.5 114.5q0 46 17 77.5t43 55t53.5 46t48.5 49.5t28 66l136 -12q-5 -47 -24 -79t-43.5 -55t-48 -41.5t-39 -38t-15.5 -44.5q0 -24 15.5 -38t40.5 -14q32 0 66 34l80 -90q-75 -72 -166 -72zM274 316q-36 0 -58 24t-22 60q0 28 14 53.5
t38.5 42t57.5 16.5q36 0 58 -23t22 -61q0 -27 -13.5 -52.5t-38.5 -42.5t-58 -17z" />
    <glyph glyph-name="Agrave" unicode="&#xc0;" horiz-adv-x="562" 
d="M266 344l-34 -76h120l-2 76q-1 47 -2.5 92t-1.5 94h-4q-19 -48 -37 -93.5t-39 -92.5zM-66 0l340 650h192l62 -650h-168l-4 148h-179l-67 -148h-176zM398 670l-175 136l109 101l156 -159z" />
    <glyph glyph-name="Aacute" unicode="&#xc1;" horiz-adv-x="562" 
d="M266 344l-34 -76h120l-2 76q-1 47 -2.5 92t-1.5 94h-4q-19 -48 -37 -93.5t-39 -92.5zM-66 0l340 650h192l62 -650h-168l-4 148h-179l-67 -148h-176zM332 680l-61 92l207 127l70 -117z" />
    <glyph glyph-name="Acircumflex" unicode="&#xc2;" horiz-adv-x="562" 
d="M266 344l-34 -76h120l-2 76q-1 47 -2.5 92t-1.5 94h-4q-19 -48 -37 -93.5t-39 -92.5zM-66 0l340 650h192l62 -650h-168l-4 148h-179l-67 -148h-176zM264 680l-66 50l104 104h188l64 -110l-78 -44l-84 80h-4z" />
    <glyph glyph-name="Atilde" unicode="&#xc3;" horiz-adv-x="562" 
d="M266 344l-34 -76h120l-2 76q-1 47 -2.5 92t-1.5 94h-4q-19 -48 -37 -93.5t-39 -92.5zM-66 0l340 650h192l62 -650h-168l-4 148h-179l-67 -148h-176zM446 686q-35 0 -57.5 13t-38.5 26t-30 13q-12 0 -22 -8t-18 -34l-108 8q20 83 63.5 117.5t98.5 34.5q35 0 57.5 -13
t38.5 -26t30 -13q12 0 22.5 8.5t17.5 33.5l108 -8q-19 -82 -63 -117t-99 -35z" />
    <glyph glyph-name="Adieresis" unicode="&#xc4;" horiz-adv-x="562" 
d="M266 344l-34 -76h120l-2 76q-1 47 -2.5 92t-1.5 94h-4q-19 -48 -37 -93.5t-39 -92.5zM-66 0l340 650h192l62 -650h-168l-4 148h-179l-67 -148h-176zM270 696q-27 0 -45.5 17t-18.5 47t23 57t59 27q26 0 45 -17t19 -47t-23 -57t-59 -27zM490 696q-27 0 -45.5 17t-18.5 47
t23 57t59 27q26 0 45 -17t19 -47t-23 -57t-59 -27z" />
    <glyph glyph-name="Aring" unicode="&#xc5;" horiz-adv-x="562" 
d="M266 344l-34 -76h120l-2 76q-1 47 -2.5 92t-1.5 94h-4q-19 -48 -37 -93.5t-39 -92.5zM-66 0l340 650h192l62 -650h-168l-4 148h-179l-67 -148h-176zM386 696q-46 0 -80 21t-34 67q0 31 17.5 57t47.5 41.5t65 15.5q44 0 79 -21.5t35 -66.5q0 -32 -17.5 -58t-47 -41
t-65.5 -15zM388 756q17 0 30.5 14.5t13.5 33.5q0 14 -8 24t-24 10q-19 0 -31.5 -15t-12.5 -33q0 -13 8 -23.5t24 -10.5z" />
    <glyph glyph-name="AE" unicode="&#xc6;" horiz-adv-x="852" 
d="M350 360l-55 -96h108l54 272h-3q-27 -46 -52.5 -88.5t-51.5 -87.5zM-36 0l408 650h496l-26 -134h-230l-22 -114h194l-26 -134h-194l-28 -134h238l-26 -134h-398l28 140h-154l-80 -140h-180z" />
    <glyph glyph-name="Ccedilla" unicode="&#xc7;" horiz-adv-x="574" 
d="M310 -12q-76 0 -133 32.5t-89 94t-32 149.5q0 87 27.5 160t75.5 126t111.5 82.5t135.5 29.5q57 0 103.5 -27.5t74.5 -78.5l-108 -84q-35 52 -78 52q-47 0 -87.5 -33.5t-65.5 -90t-25 -126.5t29 -109t95 -39q26 0 52 13.5t48 32.5l66 -102q-18 -17 -47.5 -36t-68 -32.5
t-84.5 -13.5zM130 -244v66q57 3 80.5 12t27.5 30q2 14 -11.5 24t-58.5 16l68 100h98l-40 -64q38 -9 54.5 -26.5t11.5 -49.5q-10 -54 -69.5 -79.5t-160.5 -28.5z" />
    <glyph glyph-name="Egrave" unicode="&#xc8;" horiz-adv-x="536" 
d="M26 0l130 650h396l-26 -134h-238l-22 -114h202l-26 -134h-202l-28 -134h246l-26 -134h-406zM388 670l-175 136l109 101l156 -159z" />
    <glyph glyph-name="Eacute" unicode="&#xc9;" horiz-adv-x="536" 
d="M26 0l130 650h396l-26 -134h-238l-22 -114h202l-26 -134h-202l-28 -134h246l-26 -134h-406zM322 680l-61 92l207 127l70 -117z" />
    <glyph glyph-name="Ecircumflex" unicode="&#xca;" horiz-adv-x="536" 
d="M26 0l130 650h396l-26 -134h-238l-22 -114h202l-26 -134h-202l-28 -134h246l-26 -134h-406zM254 680l-66 50l104 104h188l64 -110l-78 -44l-84 80h-4z" />
    <glyph glyph-name="Edieresis" unicode="&#xcb;" horiz-adv-x="536" 
d="M26 0l130 650h396l-26 -134h-238l-22 -114h202l-26 -134h-202l-28 -134h246l-26 -134h-406zM260 696q-27 0 -45.5 17t-18.5 47t23 57t59 27q26 0 45 -17t19 -47t-23 -57t-59 -27zM480 696q-27 0 -45.5 17t-18.5 47t23 57t59 27q26 0 45 -17t19 -47t-23 -57t-59 -27z" />
    <glyph glyph-name="Igrave" unicode="&#xcc;" horiz-adv-x="310" 
d="M26 0l130 650h160l-130 -650h-160zM268 670l-175 136l109 101l156 -159z" />
    <glyph glyph-name="Iacute" unicode="&#xcd;" horiz-adv-x="310" 
d="M26 0l130 650h160l-130 -650h-160zM202 680l-61 92l207 127l70 -117z" />
    <glyph glyph-name="Icircumflex" unicode="&#xce;" horiz-adv-x="310" 
d="M26 0l130 650h160l-130 -650h-160zM134 680l-66 50l104 104h188l64 -110l-78 -44l-84 80h-4z" />
    <glyph glyph-name="Idieresis" unicode="&#xcf;" horiz-adv-x="310" 
d="M26 0l130 650h160l-130 -650h-160zM140 696q-27 0 -45.5 17t-18.5 47t23 57t59 27q26 0 45 -17t19 -47t-23 -57t-59 -27zM360 696q-27 0 -45.5 17t-18.5 47t23 57t59 27q26 0 45 -17t19 -47t-23 -57t-59 -27z" />
    <glyph glyph-name="Eth" unicode="&#xd0;" horiz-adv-x="644" 
d="M44 0l60 300h-70l14 70l71 6l55 274h152q137 0 214.5 -62t77.5 -194t-47.5 -219.5t-129 -131t-183.5 -43.5h-214zM230 128h24q54 0 99.5 25t73 81t27.5 150q0 77 -37.5 107.5t-94.5 30.5h-14l-29 -146h115l-16 -76h-114z" />
    <glyph glyph-name="Ntilde" unicode="&#xd1;" horiz-adv-x="652" 
d="M26 0l130 650h154l90 -308l32 -146h4q5 53 9.5 120.5t16.5 125.5l42 208h152l-130 -650h-154l-90 308l-30 146h-4q-4 -55 -10 -120t-18 -124l-42 -210h-152zM486 686q-35 0 -57.5 13t-38.5 26t-30 13q-12 0 -22 -8t-18 -34l-108 8q20 83 63.5 117.5t98.5 34.5
q35 0 57.5 -13t38.5 -26t30 -13q12 0 22.5 8.5t17.5 33.5l108 -8q-19 -82 -63 -117t-99 -35z" />
    <glyph glyph-name="Ograve" unicode="&#xd2;" horiz-adv-x="670" 
d="M308 -12q-75 0 -131.5 32.5t-88.5 94t-32 149.5q0 91 28 164t75.5 125.5t108 80.5t124.5 28q75 0 132 -32.5t88.5 -94t31.5 -149.5q0 -91 -28 -164t-75.5 -125.5t-107.5 -80.5t-125 -28zM316 126q37 0 75 31.5t63.5 87.5t25.5 131q0 71 -25.5 109.5t-70.5 38.5
q-37 0 -75 -31.5t-63.5 -87.5t-25.5 -131q0 -70 25.5 -109t70.5 -39zM438 670l-175 136l109 101l156 -159z" />
    <glyph glyph-name="Oacute" unicode="&#xd3;" horiz-adv-x="670" 
d="M308 -12q-75 0 -131.5 32.5t-88.5 94t-32 149.5q0 91 28 164t75.5 125.5t108 80.5t124.5 28q75 0 132 -32.5t88.5 -94t31.5 -149.5q0 -91 -28 -164t-75.5 -125.5t-107.5 -80.5t-125 -28zM316 126q37 0 75 31.5t63.5 87.5t25.5 131q0 71 -25.5 109.5t-70.5 38.5
q-37 0 -75 -31.5t-63.5 -87.5t-25.5 -131q0 -70 25.5 -109t70.5 -39zM372 680l-61 92l207 127l70 -117z" />
    <glyph glyph-name="Ocircumflex" unicode="&#xd4;" horiz-adv-x="670" 
d="M308 -12q-75 0 -131.5 32.5t-88.5 94t-32 149.5q0 91 28 164t75.5 125.5t108 80.5t124.5 28q75 0 132 -32.5t88.5 -94t31.5 -149.5q0 -91 -28 -164t-75.5 -125.5t-107.5 -80.5t-125 -28zM316 126q37 0 75 31.5t63.5 87.5t25.5 131q0 71 -25.5 109.5t-70.5 38.5
q-37 0 -75 -31.5t-63.5 -87.5t-25.5 -131q0 -70 25.5 -109t70.5 -39zM304 680l-66 50l104 104h188l64 -110l-78 -44l-84 80h-4z" />
    <glyph glyph-name="Otilde" unicode="&#xd5;" horiz-adv-x="670" 
d="M308 -12q-75 0 -131.5 32.5t-88.5 94t-32 149.5q0 91 28 164t75.5 125.5t108 80.5t124.5 28q75 0 132 -32.5t88.5 -94t31.5 -149.5q0 -91 -28 -164t-75.5 -125.5t-107.5 -80.5t-125 -28zM316 126q37 0 75 31.5t63.5 87.5t25.5 131q0 71 -25.5 109.5t-70.5 38.5
q-37 0 -75 -31.5t-63.5 -87.5t-25.5 -131q0 -70 25.5 -109t70.5 -39zM486 686q-35 0 -57.5 13t-38.5 26t-30 13q-12 0 -22 -8t-18 -34l-108 8q20 83 63.5 117.5t98.5 34.5q35 0 57.5 -13t38.5 -26t30 -13q12 0 22.5 8.5t17.5 33.5l108 -8q-19 -82 -63 -117t-99 -35z" />
    <glyph glyph-name="Odieresis" unicode="&#xd6;" horiz-adv-x="670" 
d="M308 -12q-75 0 -131.5 32.5t-88.5 94t-32 149.5q0 91 28 164t75.5 125.5t108 80.5t124.5 28q75 0 132 -32.5t88.5 -94t31.5 -149.5q0 -91 -28 -164t-75.5 -125.5t-107.5 -80.5t-125 -28zM316 126q37 0 75 31.5t63.5 87.5t25.5 131q0 71 -25.5 109.5t-70.5 38.5
q-37 0 -75 -31.5t-63.5 -87.5t-25.5 -131q0 -70 25.5 -109t70.5 -39zM310 696q-27 0 -45.5 17t-18.5 47t23 57t59 27q26 0 45 -17t19 -47t-23 -57t-59 -27zM530 696q-27 0 -45.5 17t-18.5 47t23 57t59 27q26 0 45 -17t19 -47t-23 -57t-59 -27z" />
    <glyph glyph-name="multiply" unicode="&#xd7;" horiz-adv-x="520" 
d="M140 114l-78 78l132 138l-132 138l78 78l132 -138l132 138l78 -78l-132 -138l132 -138l-78 -78l-132 138z" />
    <glyph glyph-name="Oslash" unicode="&#xd8;" horiz-adv-x="670" 
d="M58 -44l-70 64l97 99q-29 61 -29 145q0 91 28 164t75.5 125.5t108 80.5t124.5 28q102 0 168 -58l96 98l70 -64l-109 -112q13 -29 20 -64t7 -76q0 -91 -28 -164t-75.5 -125.5t-107.5 -80.5t-125 -28q-99 0 -165 55zM220 274v-8v-9l230 235q-24 32 -66 32q-37 0 -75 -31.5
t-63.5 -87.5t-25.5 -131zM316 126q37 0 75 31.5t63.5 87.5t25.5 131v5.5v5.5l-227 -232q24 -29 63 -29z" />
    <glyph glyph-name="Ugrave" unicode="&#xd9;" horiz-adv-x="654" 
d="M316 -12q-121 0 -181.5 57t-60.5 177q0 23 5 54t9 56l64 318h160l-70 -350q-3 -19 -5.5 -37.5t-2.5 -36.5q0 -49 18.5 -74.5t67.5 -25.5q44 0 70 36t42 120l74 368h156l-74 -364q-30 -153 -95.5 -225.5t-176.5 -72.5zM448 670l-175 136l109 101l156 -159z" />
    <glyph glyph-name="Uacute" unicode="&#xda;" horiz-adv-x="654" 
d="M316 -12q-121 0 -181.5 57t-60.5 177q0 23 5 54t9 56l64 318h160l-70 -350q-3 -19 -5.5 -37.5t-2.5 -36.5q0 -49 18.5 -74.5t67.5 -25.5q44 0 70 36t42 120l74 368h156l-74 -364q-30 -153 -95.5 -225.5t-176.5 -72.5zM382 680l-61 92l207 127l70 -117z" />
    <glyph glyph-name="Ucircumflex" unicode="&#xdb;" horiz-adv-x="654" 
d="M316 -12q-121 0 -181.5 57t-60.5 177q0 23 5 54t9 56l64 318h160l-70 -350q-3 -19 -5.5 -37.5t-2.5 -36.5q0 -49 18.5 -74.5t67.5 -25.5q44 0 70 36t42 120l74 368h156l-74 -364q-30 -153 -95.5 -225.5t-176.5 -72.5zM314 680l-66 50l104 104h188l64 -110l-78 -44l-84 80
h-4z" />
    <glyph glyph-name="Udieresis" unicode="&#xdc;" horiz-adv-x="654" 
d="M316 -12q-121 0 -181.5 57t-60.5 177q0 23 5 54t9 56l64 318h160l-70 -350q-3 -19 -5.5 -37.5t-2.5 -36.5q0 -49 18.5 -74.5t67.5 -25.5q44 0 70 36t42 120l74 368h156l-74 -364q-30 -153 -95.5 -225.5t-176.5 -72.5zM320 696q-27 0 -45.5 17t-18.5 47t23 57t59 27
q26 0 45 -17t19 -47t-23 -57t-59 -27zM540 696q-27 0 -45.5 17t-18.5 47t23 57t59 27q26 0 45 -17t19 -47t-23 -57t-59 -27z" />
    <glyph glyph-name="Yacute" unicode="&#xdd;" horiz-adv-x="528" 
d="M137 0l45 228l-103 422h166l21 -144q6 -37 11 -71t11 -73h4q20 39 37.5 74t38.5 72l78 142h172l-276 -422l-46 -228h-159zM312 680l-61 92l207 127l70 -117z" />
    <glyph glyph-name="Thorn" unicode="&#xde;" horiz-adv-x="608" 
d="M26 0l130 660h160l-20 -100h78q59 0 107 -17.5t76.5 -56.5t28.5 -104q0 -71 -25 -121t-68 -80.5t-98.5 -44.5t-116.5 -14h-70l-24 -122h-158zM234 248h62q63 0 97.5 28t34.5 82q0 39 -22.5 57.5t-63.5 18.5h-72z" />
    <glyph glyph-name="germandbls" unicode="&#xdf;" horiz-adv-x="630" 
d="M388 -12q-39 0 -77 10t-73 32l64 106q18 -12 39 -21t45 -9q23 0 35.5 13.5t12.5 34.5q0 17 -13 31t-32.5 28.5t-39 31.5t-32.5 39.5t-13 53.5q0 32 16.5 55t37.5 42.5t37.5 41t16.5 51.5q0 26 -12.5 40t-41.5 14q-37 0 -61 -33.5t-35 -80.5l-94 -468h-160l100 498
q12 60 45 107.5t86 75t125 27.5q50 0 96.5 -16t76 -50.5t29.5 -89.5q0 -41 -16 -70t-37 -49.5t-37 -37.5t-16 -35q0 -16 18.5 -32t42.5 -36.5t42.5 -49.5t18.5 -72q0 -51 -26 -92t-70 -65.5t-98 -24.5z" />
    <glyph glyph-name="agrave" unicode="&#xe0;" horiz-adv-x="558" 
d="M168 -12q-66 0 -103 48t-37 136q0 71 22 133t59.5 108.5t85 72.5t99.5 26q32 0 61.5 -16.5t42.5 -45.5h2l22 50h128l-100 -500h-130v62h-2q-33 -34 -73.5 -54t-76.5 -20zM240 118q20 0 44.5 13t43.5 53l32 160q-9 20 -24.5 29t-29.5 9q-29 0 -54.5 -24t-41.5 -67t-16 -99
q0 -39 12.5 -56.5t33.5 -17.5zM366 569l-162 173l136 102l124 -199z" />
    <glyph glyph-name="aacute" unicode="&#xe1;" horiz-adv-x="558" 
d="M168 -12q-66 0 -103 48t-37 136q0 71 22 133t59.5 108.5t85 72.5t99.5 26q32 0 61.5 -16.5t42.5 -45.5h2l22 50h128l-100 -500h-130v62h-2q-33 -34 -73.5 -54t-76.5 -20zM240 118q20 0 44.5 13t43.5 53l32 160q-9 20 -24.5 29t-29.5 9q-29 0 -54.5 -24t-41.5 -67t-16 -99
q0 -39 12.5 -56.5t33.5 -17.5zM316 578l-69 90l191 172l95 -122z" />
    <glyph glyph-name="acircumflex" unicode="&#xe2;" horiz-adv-x="558" 
d="M168 -12q-66 0 -103 48t-37 136q0 71 22 133t59.5 108.5t85 72.5t99.5 26q32 0 61.5 -16.5t42.5 -45.5h2l22 50h128l-100 -500h-130v62h-2q-33 -34 -73.5 -54t-76.5 -20zM240 118q20 0 44.5 13t43.5 53l32 160q-9 20 -24.5 29t-29.5 9q-29 0 -54.5 -24t-41.5 -67t-16 -99
q0 -39 12.5 -56.5t33.5 -17.5zM196 558l-54 64l128 124h176l84 -128l-70 -60l-110 88h-4z" />
    <glyph glyph-name="atilde" unicode="&#xe3;" horiz-adv-x="558" 
d="M168 -12q-66 0 -103 48t-37 136q0 71 22 133t59.5 108.5t85 72.5t99.5 26q32 0 61.5 -16.5t42.5 -45.5h2l22 50h128l-100 -500h-130v62h-2q-33 -34 -73.5 -54t-76.5 -20zM240 118q20 0 44.5 13t43.5 53l32 160q-9 20 -24.5 29t-29.5 9q-29 0 -54.5 -24t-41.5 -67t-16 -99
q0 -39 12.5 -56.5t33.5 -17.5zM406 572q-32 0 -52.5 14t-36.5 28t-35 14q-12 0 -22.5 -9.5t-15.5 -36.5l-104 6q14 85 54 121.5t96 36.5q33 0 53 -14t36 -28t35 -14q12 0 23 9.5t15 36.5l104 -6q-13 -85 -53.5 -121.5t-96.5 -36.5z" />
    <glyph glyph-name="adieresis" unicode="&#xe4;" horiz-adv-x="558" 
d="M168 -12q-66 0 -103 48t-37 136q0 71 22 133t59.5 108.5t85 72.5t99.5 26q32 0 61.5 -16.5t42.5 -45.5h2l22 50h128l-100 -500h-130v62h-2q-33 -34 -73.5 -54t-76.5 -20zM240 118q20 0 44.5 13t43.5 53l32 160q-9 20 -24.5 29t-29.5 9q-29 0 -54.5 -24t-41.5 -67t-16 -99
q0 -39 12.5 -56.5t33.5 -17.5zM226 566q-28 0 -47 17t-19 49t24 57t60 25q28 0 47 -17.5t19 -48.5q0 -34 -24 -58t-60 -24zM446 566q-28 0 -47 17t-19 49t24 57t60 25q28 0 47 -17.5t19 -48.5q0 -34 -24 -58t-60 -24z" />
    <glyph glyph-name="aring" unicode="&#xe5;" horiz-adv-x="558" 
d="M168 -12q-66 0 -103 48t-37 136q0 71 22 133t59.5 108.5t85 72.5t99.5 26q32 0 61.5 -16.5t42.5 -45.5h2l22 50h128l-100 -500h-130v62h-2q-33 -34 -73.5 -54t-76.5 -20zM240 118q20 0 44.5 13t43.5 53l32 160q-9 20 -24.5 29t-29.5 9q-29 0 -54.5 -24t-41.5 -67t-16 -99
q0 -39 12.5 -56.5t33.5 -17.5zM336 570q-53 0 -87.5 24.5t-34.5 67.5q0 50 43.5 83t110.5 33q54 0 88 -24t34 -68q0 -49 -43.5 -82.5t-110.5 -33.5zM346 630q18 0 31 15.5t13 36.5q0 14 -7.5 25t-24.5 11q-18 0 -31 -15.5t-13 -36.5q0 -15 8 -25.5t24 -10.5z" />
    <glyph glyph-name="ae" unicode="&#xe6;" horiz-adv-x="752" 
d="M154 -12q-58 0 -97 34.5t-39 91.5q0 74 40.5 117t108.5 62t149 21v12q0 33 -15.5 47.5t-44.5 14.5q-27 0 -57.5 -9.5t-66.5 -26.5l-34 110q47 23 97 36.5t101 13.5q85 0 122 -56q67 56 140 56q61 0 97.5 -26t52.5 -69t16 -95q0 -36 -10 -70.5t-16 -45.5h-262
q-1 -55 26.5 -76.5t69.5 -21.5q20 0 43 10t39 22l56 -100q-28 -21 -72.5 -36.5t-101.5 -15.5q-52 0 -94.5 22t-64.5 53q-43 -35 -86 -55t-97 -20zM220 110q39 0 78 48l-2 28t0 32q-66 -1 -94 -22t-28 -50q0 -16 12.5 -26t33.5 -10zM448 302h142q2 8 3 14.5t1 13.5
q0 26 -12 43t-44 17q-25 0 -50 -20.5t-40 -67.5z" />
    <glyph glyph-name="ccedilla" unicode="&#xe7;" horiz-adv-x="446" 
d="M226 -12q-56 0 -101.5 24.5t-72 71t-26.5 112.5q0 63 22.5 120t63 101t95.5 69.5t119 25.5q48 0 83 -19.5t53 -42.5l-88 -94q-13 14 -26.5 21t-31.5 7q-36 0 -64.5 -25t-45 -67.5t-16.5 -93.5q0 -37 18 -59.5t54 -22.5q23 0 39 9t29 19l66 -98q-28 -21 -69 -39.5
t-101 -18.5zM60 -244v66q57 3 80.5 12t27.5 30q2 14 -11.5 24t-58.5 16l68 100h98l-40 -64q38 -9 54.5 -26.5t11.5 -49.5q-10 -54 -69.5 -79.5t-160.5 -28.5z" />
    <glyph glyph-name="egrave" unicode="&#xe8;" horiz-adv-x="502" 
d="M234 -12q-61 0 -108 26t-73.5 74.5t-26.5 115.5q0 69 25 125.5t66 97.5t91 63t100 22q61 0 97.5 -26t52.5 -69t16 -95q0 -36 -10 -70.5t-16 -45.5h-272q0 -52 30.5 -75t73.5 -23q21 0 44.5 10t39.5 22l56 -100q-30 -21 -77 -36.5t-109 -15.5zM188 302h152q2 5 3 13t1 15
q0 26 -12 43t-44 17q-28 0 -55.5 -20.5t-44.5 -67.5zM366 569l-162 173l136 102l124 -199z" />
    <glyph glyph-name="eacute" unicode="&#xe9;" horiz-adv-x="502" 
d="M234 -12q-61 0 -108 26t-73.5 74.5t-26.5 115.5q0 69 25 125.5t66 97.5t91 63t100 22q61 0 97.5 -26t52.5 -69t16 -95q0 -36 -10 -70.5t-16 -45.5h-272q0 -52 30.5 -75t73.5 -23q21 0 44.5 10t39.5 22l56 -100q-30 -21 -77 -36.5t-109 -15.5zM188 302h152q2 5 3 13t1 15
q0 26 -12 43t-44 17q-28 0 -55.5 -20.5t-44.5 -67.5zM316 578l-69 90l191 172l95 -122z" />
    <glyph glyph-name="ecircumflex" unicode="&#xea;" horiz-adv-x="502" 
d="M234 -12q-61 0 -108 26t-73.5 74.5t-26.5 115.5q0 69 25 125.5t66 97.5t91 63t100 22q61 0 97.5 -26t52.5 -69t16 -95q0 -36 -10 -70.5t-16 -45.5h-272q0 -52 30.5 -75t73.5 -23q21 0 44.5 10t39.5 22l56 -100q-30 -21 -77 -36.5t-109 -15.5zM188 302h152q2 5 3 13t1 15
q0 26 -12 43t-44 17q-28 0 -55.5 -20.5t-44.5 -67.5zM196 558l-54 64l128 124h176l84 -128l-70 -60l-110 88h-4z" />
    <glyph glyph-name="edieresis" unicode="&#xeb;" horiz-adv-x="502" 
d="M234 -12q-61 0 -108 26t-73.5 74.5t-26.5 115.5q0 69 25 125.5t66 97.5t91 63t100 22q61 0 97.5 -26t52.5 -69t16 -95q0 -36 -10 -70.5t-16 -45.5h-272q0 -52 30.5 -75t73.5 -23q21 0 44.5 10t39.5 22l56 -100q-30 -21 -77 -36.5t-109 -15.5zM188 302h152q2 5 3 13t1 15
q0 26 -12 43t-44 17q-28 0 -55.5 -20.5t-44.5 -67.5zM226 566q-28 0 -47 17t-19 49t24 57t60 25q28 0 47 -17.5t19 -48.5q0 -34 -24 -58t-60 -24zM446 566q-28 0 -47 17t-19 49t24 57t60 25q28 0 47 -17.5t19 -48.5q0 -34 -24 -58t-60 -24z" />
    <glyph glyph-name="igrave" unicode="&#xec;" horiz-adv-x="276" 
d="M8 0l100 500h160l-100 -500h-160zM236 569l-162 173l136 102l124 -199z" />
    <glyph glyph-name="iacute" unicode="&#xed;" horiz-adv-x="276" 
d="M8 0l100 500h160l-100 -500h-160zM186 578l-69 90l191 172l95 -122z" />
    <glyph glyph-name="icircumflex" unicode="&#xee;" horiz-adv-x="276" 
d="M8 0l100 500h160l-100 -500h-160zM66 558l-54 64l128 124h176l84 -128l-70 -60l-110 88h-4z" />
    <glyph glyph-name="idieresis" unicode="&#xef;" horiz-adv-x="276" 
d="M8 0l100 500h160l-100 -500h-160zM96 566q-28 0 -47 17t-19 49t24 57t60 25q28 0 47 -17.5t19 -48.5q0 -34 -24 -58t-60 -24zM316 566q-28 0 -47 17t-19 49t24 57t60 25q28 0 47 -17.5t19 -48.5q0 -34 -24 -58t-60 -24z" />
    <glyph glyph-name="eth" unicode="&#xf0;" horiz-adv-x="542" 
d="M174 198q0 -34 16.5 -58t49.5 -24q46 0 75.5 50t37.5 129q-11 18 -30 30.5t-43 12.5q-36 0 -59.5 -21t-35 -53.5t-11.5 -65.5zM226 -12q-53 0 -98 23.5t-71.5 68t-26.5 106.5q0 49 15 97t44 87.5t71.5 63.5t97.5 24q29 0 54 -11.5t41 -34.5q-9 69 -41 121l-144 -57
l-30 74l120 47q-16 14 -34.5 28t-39.5 27l72 92q75 -38 132 -95l144 57l30 -74l-122 -48q31 -47 47.5 -103t16.5 -121q0 -67 -16.5 -133.5t-50.5 -120t-86.5 -86t-124.5 -32.5z" />
    <glyph glyph-name="ntilde" unicode="&#xf1;" horiz-adv-x="562" 
d="M8 0l100 500h130v-64h4q35 30 75.5 53t88.5 23q62 0 90 -32.5t28 -97.5q0 -34 -8 -72l-62 -310h-160l58 290q3 14 5.5 24.5t2.5 19.5q0 42 -42 42q-21 0 -41 -13.5t-47 -42.5l-62 -320h-160zM446 572q-32 0 -52.5 14t-36.5 28t-35 14q-12 0 -22.5 -9.5t-15.5 -36.5
l-104 6q14 85 54 121.5t96 36.5q33 0 53 -14t36 -28t35 -14q12 0 23 9.5t15 36.5l104 -6q-13 -85 -53.5 -121.5t-96.5 -36.5z" />
    <glyph glyph-name="ograve" unicode="&#xf2;" horiz-adv-x="540" 
d="M226 -12q-60 0 -105 26t-70 73t-25 109q0 73 24.5 131t65.5 99.5t91.5 63.5t102.5 22q60 0 105 -26t70 -73t25 -109q0 -73 -24.5 -131t-65.5 -99.5t-91.5 -63.5t-102.5 -22zM244 116q29 0 52.5 24t37.5 66t14 96q0 38 -13.5 60t-42.5 22t-52.5 -24t-37.5 -66t-14 -96
q0 -37 14 -59.5t42 -22.5zM366 569l-162 173l136 102l124 -199z" />
    <glyph glyph-name="oacute" unicode="&#xf3;" horiz-adv-x="540" 
d="M226 -12q-60 0 -105 26t-70 73t-25 109q0 73 24.5 131t65.5 99.5t91.5 63.5t102.5 22q60 0 105 -26t70 -73t25 -109q0 -73 -24.5 -131t-65.5 -99.5t-91.5 -63.5t-102.5 -22zM244 116q29 0 52.5 24t37.5 66t14 96q0 38 -13.5 60t-42.5 22t-52.5 -24t-37.5 -66t-14 -96
q0 -37 14 -59.5t42 -22.5zM316 578l-69 90l191 172l95 -122z" />
    <glyph glyph-name="ocircumflex" unicode="&#xf4;" horiz-adv-x="540" 
d="M226 -12q-60 0 -105 26t-70 73t-25 109q0 73 24.5 131t65.5 99.5t91.5 63.5t102.5 22q60 0 105 -26t70 -73t25 -109q0 -73 -24.5 -131t-65.5 -99.5t-91.5 -63.5t-102.5 -22zM244 116q29 0 52.5 24t37.5 66t14 96q0 38 -13.5 60t-42.5 22t-52.5 -24t-37.5 -66t-14 -96
q0 -37 14 -59.5t42 -22.5zM196 558l-54 64l128 124h176l84 -128l-70 -60l-110 88h-4z" />
    <glyph glyph-name="otilde" unicode="&#xf5;" horiz-adv-x="540" 
d="M226 -12q-60 0 -105 26t-70 73t-25 109q0 73 24.5 131t65.5 99.5t91.5 63.5t102.5 22q60 0 105 -26t70 -73t25 -109q0 -73 -24.5 -131t-65.5 -99.5t-91.5 -63.5t-102.5 -22zM244 116q29 0 52.5 24t37.5 66t14 96q0 38 -13.5 60t-42.5 22t-52.5 -24t-37.5 -66t-14 -96
q0 -37 14 -59.5t42 -22.5zM406 572q-32 0 -52.5 14t-36.5 28t-35 14q-12 0 -22.5 -9.5t-15.5 -36.5l-104 6q14 85 54 121.5t96 36.5q33 0 53 -14t36 -28t35 -14q12 0 23 9.5t15 36.5l104 -6q-13 -85 -53.5 -121.5t-96.5 -36.5z" />
    <glyph glyph-name="odieresis" unicode="&#xf6;" horiz-adv-x="540" 
d="M226 -12q-60 0 -105 26t-70 73t-25 109q0 73 24.5 131t65.5 99.5t91.5 63.5t102.5 22q60 0 105 -26t70 -73t25 -109q0 -73 -24.5 -131t-65.5 -99.5t-91.5 -63.5t-102.5 -22zM244 116q29 0 52.5 24t37.5 66t14 96q0 38 -13.5 60t-42.5 22t-52.5 -24t-37.5 -66t-14 -96
q0 -37 14 -59.5t42 -22.5zM226 566q-28 0 -47 17t-19 49t24 57t60 25q28 0 47 -17.5t19 -48.5q0 -34 -24 -58t-60 -24zM446 566q-28 0 -47 17t-19 49t24 57t60 25q28 0 47 -17.5t19 -48.5q0 -34 -24 -58t-60 -24z" />
    <glyph glyph-name="divide" unicode="&#xf7;" horiz-adv-x="520" 
d="M48 274v112h448v-112h-448zM272 68q-36 0 -61 22t-25 58q0 35 25 58.5t61 23.5t61 -23.5t25 -58.5q0 -36 -25 -58t-61 -22zM272 430q-36 0 -61 23t-25 59q0 35 25 57.5t61 22.5t61 -22.5t25 -57.5q0 -36 -25 -59t-61 -23z" />
    <glyph glyph-name="oslash" unicode="&#xf8;" horiz-adv-x="540" 
d="M298 388q-32 0 -55 -18t-38 -46t-22 -60.5t-7 -62.5l163 168q-16 19 -41 19zM48 -26l-48 46l56 58q-14 24 -22 53.5t-8 64.5q0 73 24.5 131t65.5 99.5t91.5 63.5t102.5 22q76 0 128 -42l52 54l50 -44l-59 -60q29 -49 29 -116q0 -73 -24.5 -131.5t-65.5 -100t-91.5 -63
t-102.5 -21.5q-73 0 -125 40zM238 112q33 0 56 17.5t38 45t21.5 59.5t6.5 61l-162 -167q14 -16 40 -16z" />
    <glyph glyph-name="ugrave" unicode="&#xf9;" horiz-adv-x="552" 
d="M150 -12q-61 0 -89.5 33t-28.5 97q0 34 8 72l62 310h160l-58 -290q-3 -13 -5.5 -24t-2.5 -20q0 -42 42 -42q20 0 39 14t43 42l62 320h160l-98 -500h-130v64h-4q-31 -30 -73 -53t-87 -23zM366 569l-162 173l136 102l124 -199z" />
    <glyph glyph-name="uacute" unicode="&#xfa;" horiz-adv-x="552" 
d="M150 -12q-61 0 -89.5 33t-28.5 97q0 34 8 72l62 310h160l-58 -290q-3 -13 -5.5 -24t-2.5 -20q0 -42 42 -42q20 0 39 14t43 42l62 320h160l-98 -500h-130v64h-4q-31 -30 -73 -53t-87 -23zM316 578l-69 90l191 172l95 -122z" />
    <glyph glyph-name="ucircumflex" unicode="&#xfb;" horiz-adv-x="552" 
d="M150 -12q-61 0 -89.5 33t-28.5 97q0 34 8 72l62 310h160l-58 -290q-3 -13 -5.5 -24t-2.5 -20q0 -42 42 -42q20 0 39 14t43 42l62 320h160l-98 -500h-130v64h-4q-31 -30 -73 -53t-87 -23zM196 558l-54 64l128 124h176l84 -128l-70 -60l-110 88h-4z" />
    <glyph glyph-name="udieresis" unicode="&#xfc;" horiz-adv-x="552" 
d="M150 -12q-61 0 -89.5 33t-28.5 97q0 34 8 72l62 310h160l-58 -290q-3 -13 -5.5 -24t-2.5 -20q0 -42 42 -42q20 0 39 14t43 42l62 320h160l-98 -500h-130v64h-4q-31 -30 -73 -53t-87 -23zM226 566q-28 0 -47 17t-19 49t24 57t60 25q28 0 47 -17.5t19 -48.5q0 -34 -24 -58
t-60 -24zM446 566q-28 0 -47 17t-19 49t24 57t60 25q28 0 47 -17.5t19 -48.5q0 -34 -24 -58t-60 -24z" />
    <glyph glyph-name="yacute" unicode="&#xfd;" horiz-adv-x="518" 
d="M52 -188q-15 0 -38 6.5t-38 15.5l48 114q17 -10 38 -10q23 0 45.5 15.5t35.5 41.5l10 20l-88 485h159l18 -205q3 -32 4.5 -73.5t1.5 -77.5h4q15 35 32 76t32 75l90 205h154l-261 -499q-56 -97 -111.5 -143t-135.5 -46zM306 578l-69 90l191 172l95 -122z" />
    <glyph glyph-name="thorn" unicode="&#xfe;" horiz-adv-x="560" 
d="M-28 -176l176 872h160l-30 -146l-26 -92h2q32 26 67 40t69 14q66 0 103 -47.5t37 -136.5q0 -71 -22 -133t-59.5 -108.5t-85 -72.5t-99.5 -26q-28 0 -53.5 14.5t-40.5 39.5h-2l-12 -94l-24 -124h-160zM252 118q29 0 54.5 24t41.5 67t16 99q0 39 -12.5 56.5t-33.5 17.5
q-19 0 -42.5 -11.5t-41.5 -44.5l-34 -170q8 -19 22.5 -28.5t29.5 -9.5z" />
    <glyph glyph-name="ydieresis" unicode="&#xff;" horiz-adv-x="518" 
d="M52 -188q-15 0 -38 6.5t-38 15.5l48 114q17 -10 38 -10q23 0 45.5 15.5t35.5 41.5l10 20l-88 485h159l18 -205q3 -32 4.5 -73.5t1.5 -77.5h4q15 35 32 76t32 75l90 205h154l-261 -499q-56 -97 -111.5 -143t-135.5 -46zM216 566q-28 0 -47 17t-19 49t24 57t60 25
q28 0 47 -17.5t19 -48.5q0 -34 -24 -58t-60 -24zM436 566q-28 0 -47 17t-19 49t24 57t60 25q28 0 47 -17.5t19 -48.5q0 -34 -24 -58t-60 -24z" />
    <glyph glyph-name="Amacron" unicode="&#x100;" horiz-adv-x="562" 
d="M266 344l-34 -76h120l-2 76q-1 47 -2.5 92t-1.5 94h-4q-19 -48 -37 -93.5t-39 -92.5zM-66 0l340 650h192l62 -650h-168l-4 148h-179l-67 -148h-176zM230 716l20 102h300l-20 -102h-300z" />
    <glyph glyph-name="amacron" unicode="&#x101;" horiz-adv-x="558" 
d="M168 -12q-66 0 -103 48t-37 136q0 71 22 133t59.5 108.5t85 72.5t99.5 26q32 0 61.5 -16.5t42.5 -45.5h2l22 50h128l-100 -500h-130v62h-2q-33 -34 -73.5 -54t-76.5 -20zM240 118q20 0 44.5 13t43.5 53l32 160q-9 20 -24.5 29t-29.5 9q-29 0 -54.5 -24t-41.5 -67t-16 -99
q0 -39 12.5 -56.5t33.5 -17.5zM188 590l20 100h294l-20 -100h-294z" />
    <glyph glyph-name="Abreve" unicode="&#x102;" horiz-adv-x="562" 
d="M266 344l-34 -76h120l-2 76q-1 47 -2.5 92t-1.5 94h-4q-19 -48 -37 -93.5t-39 -92.5zM-66 0l340 650h192l62 -650h-168l-4 148h-179l-67 -148h-176zM379 694q-76 0 -113 34t-33 106l96 16q1 -29 19.5 -43.5t48.5 -14.5q63 0 88 58l88 -16q-19 -72 -68 -106t-126 -34z" />
    <glyph glyph-name="abreve" unicode="&#x103;" horiz-adv-x="558" 
d="M168 -12q-66 0 -103 48t-37 136q0 71 22 133t59.5 108.5t85 72.5t99.5 26q32 0 61.5 -16.5t42.5 -45.5h2l22 50h128l-100 -500h-130v62h-2q-33 -34 -73.5 -54t-76.5 -20zM240 118q20 0 44.5 13t43.5 53l32 160q-9 20 -24.5 29t-29.5 9q-29 0 -54.5 -24t-41.5 -67t-16 -99
q0 -39 12.5 -56.5t33.5 -17.5zM339 572q-88 0 -122 45t-24 115l100 16q-1 -30 14.5 -50t51.5 -20t58 20t32 50l92 -16q-13 -70 -63 -115t-139 -45z" />
    <glyph glyph-name="Aogonek" unicode="&#x104;" horiz-adv-x="562" 
d="M266 344l-34 -76h120l-2 76q-1 47 -2.5 92t-1.5 94h-4q-19 -48 -37 -93.5t-39 -92.5zM394 -226q-43 0 -70.5 21.5t-27.5 58.5q0 34 17 62.5t39.5 50t39.5 33.5h-32l-4 148h-179l-67 -148h-176l340 650h192l62 -650q-63 -21 -85.5 -47t-22.5 -47q0 -15 10.5 -22.5
t23.5 -7.5q11 0 24 8l30 -76q-22 -15 -54.5 -24.5t-59.5 -9.5z" />
    <glyph glyph-name="aogonek" unicode="&#x105;" horiz-adv-x="558" 
d="M322 -212q-39 0 -64.5 19.5t-25.5 56.5q0 33 16.5 60t37.5 46.5t34 29.5v62h-2q-33 -34 -73.5 -54t-76.5 -20q-66 0 -103 48t-37 136q0 71 22 133t59.5 108.5t85 72.5t99.5 26q32 0 61.5 -16.5t42.5 -45.5h2l22 50h128l-100 -500q-48 -12 -76 -36t-28 -54
q0 -13 10.5 -20.5t23.5 -7.5t30 10l26 -64q-22 -16 -54.5 -28t-59.5 -12zM240 118q20 0 44.5 13t43.5 53l32 160q-9 20 -24.5 29t-29.5 9q-29 0 -54.5 -24t-41.5 -67t-16 -99q0 -39 12.5 -56.5t33.5 -17.5z" />
    <glyph glyph-name="Cacute" unicode="&#x106;" horiz-adv-x="574" 
d="M310 -12q-76 0 -133 32.5t-89 94t-32 149.5q0 87 27.5 160t75.5 126t111.5 82.5t135.5 29.5q57 0 103.5 -27.5t74.5 -78.5l-108 -84q-35 52 -78 52q-47 0 -87.5 -33.5t-65.5 -90t-25 -126.5t29 -109t95 -39q26 0 52 13.5t48 32.5l66 -102q-18 -17 -47.5 -36t-68 -32.5
t-84.5 -13.5zM372 680l-61 92l207 127l70 -117z" />
    <glyph glyph-name="cacute" unicode="&#x107;" horiz-adv-x="446" 
d="M226 -12q-56 0 -101.5 24.5t-72 71t-26.5 112.5q0 63 22.5 120t63 101t95.5 69.5t119 25.5q48 0 83 -19.5t53 -42.5l-88 -94q-13 14 -26.5 21t-31.5 7q-36 0 -64.5 -25t-45 -67.5t-16.5 -93.5q0 -37 18 -59.5t54 -22.5q23 0 39 9t29 19l66 -98q-28 -21 -69 -39.5
t-101 -18.5zM296 578l-69 90l191 172l95 -122z" />
    <glyph glyph-name="Ccircumflex" unicode="&#x108;" horiz-adv-x="574" 
d="M310 -12q-76 0 -133 32.5t-89 94t-32 149.5q0 87 27.5 160t75.5 126t111.5 82.5t135.5 29.5q57 0 103.5 -27.5t74.5 -78.5l-108 -84q-35 52 -78 52q-47 0 -87.5 -33.5t-65.5 -90t-25 -126.5t29 -109t95 -39q26 0 52 13.5t48 32.5l66 -102q-18 -17 -47.5 -36t-68 -32.5
t-84.5 -13.5zM304 680l-66 50l104 104h188l64 -110l-78 -44l-84 80h-4z" />
    <glyph glyph-name="ccircumflex" unicode="&#x109;" horiz-adv-x="446" 
d="M226 -12q-56 0 -101.5 24.5t-72 71t-26.5 112.5q0 63 22.5 120t63 101t95.5 69.5t119 25.5q48 0 83 -19.5t53 -42.5l-88 -94q-13 14 -26.5 21t-31.5 7q-36 0 -64.5 -25t-45 -67.5t-16.5 -93.5q0 -37 18 -59.5t54 -22.5q23 0 39 9t29 19l66 -98q-28 -21 -69 -39.5
t-101 -18.5zM176 558l-54 64l128 124h176l84 -128l-70 -60l-110 88h-4z" />
    <glyph glyph-name="Cdotaccent" unicode="&#x10a;" horiz-adv-x="574" 
d="M310 -12q-76 0 -133 32.5t-89 94t-32 149.5q0 87 27.5 160t75.5 126t111.5 82.5t135.5 29.5q57 0 103.5 -27.5t74.5 -78.5l-108 -84q-35 52 -78 52q-47 0 -87.5 -33.5t-65.5 -90t-25 -126.5t29 -109t95 -39q26 0 52 13.5t48 32.5l66 -102q-18 -17 -47.5 -36t-68 -32.5
t-84.5 -13.5zM426 698q-31 0 -57.5 18.5t-26.5 55.5q0 36 28 63t68 27q32 0 58 -19t26 -55q0 -39 -27.5 -64.5t-68.5 -25.5z" />
    <glyph glyph-name="cdotaccent" unicode="&#x10b;" horiz-adv-x="446" 
d="M226 -12q-56 0 -101.5 24.5t-72 71t-26.5 112.5q0 63 22.5 120t63 101t95.5 69.5t119 25.5q48 0 83 -19.5t53 -42.5l-88 -94q-13 14 -26.5 21t-31.5 7q-36 0 -64.5 -25t-45 -67.5t-16.5 -93.5q0 -37 18 -59.5t54 -22.5q23 0 39 9t29 19l66 -98q-28 -21 -69 -39.5
t-101 -18.5zM320 564q-31 0 -57.5 18.5t-26.5 55.5q0 36 28 63t68 27q32 0 58 -19t26 -55q0 -39 -27.5 -64.5t-68.5 -25.5z" />
    <glyph glyph-name="Ccaron" unicode="&#x10c;" horiz-adv-x="574" 
d="M310 -12q-76 0 -133 32.5t-89 94t-32 149.5q0 87 27.5 160t75.5 126t111.5 82.5t135.5 29.5q57 0 103.5 -27.5t74.5 -78.5l-108 -84q-35 52 -78 52q-47 0 -87.5 -33.5t-65.5 -90t-25 -126.5t29 -109t95 -39q26 0 52 13.5t48 32.5l66 -102q-18 -17 -47.5 -36t-68 -32.5
t-84.5 -13.5zM328 700l-64 110l78 44l84 -80h4l124 80l66 -50l-104 -104h-188z" />
    <glyph glyph-name="ccaron" unicode="&#x10d;" horiz-adv-x="446" 
d="M226 -12q-56 0 -101.5 24.5t-72 71t-26.5 112.5q0 63 22.5 120t63 101t95.5 69.5t119 25.5q48 0 83 -19.5t53 -42.5l-88 -94q-13 14 -26.5 21t-31.5 7q-36 0 -64.5 -25t-45 -67.5t-16.5 -93.5q0 -37 18 -59.5t54 -22.5q23 0 39 9t29 19l66 -98q-28 -21 -69 -39.5
t-101 -18.5zM232 580l-84 128l70 60l110 -88h4l150 88l54 -64l-128 -124h-176z" />
    <glyph glyph-name="Dcaron" unicode="&#x10e;" horiz-adv-x="626" 
d="M26 0l130 650h152q137 0 214.5 -62t77.5 -194t-47.5 -219.5t-129 -131t-183.5 -43.5h-214zM212 128h24q54 0 99.5 25t73 81t27.5 150q0 77 -37.5 107.5t-94.5 30.5h-14zM308 700l-64 110l78 44l84 -80h4l124 80l66 -50l-104 -104h-188z" />
    <glyph glyph-name="dcaron" unicode="&#x10f;" horiz-adv-x="580" 
d="M168 -12q-66 0 -103 48t-37 136q0 71 22 133t59.5 108.5t85 72.5t99.5 26q32 0 57.5 -15t38.5 -41h2l10 94l28 146h160l-140 -696h-130v62h-2q-33 -34 -73.5 -54t-76.5 -20zM240 118q20 0 43.5 13t44.5 53l32 160q-9 20 -24.5 29t-29.5 9q-29 0 -54.5 -24t-41.5 -67
t-16 -99q0 -39 12.5 -56.5t33.5 -17.5zM596 548l40 226h100l-16 -74l-56 -152h-68z" />
    <glyph glyph-name="Dcroat" unicode="&#x110;" horiz-adv-x="644" 
d="M44 0l60 300h-70l14 70l71 6l55 274h152q137 0 214.5 -62t77.5 -194t-47.5 -219.5t-129 -131t-183.5 -43.5h-214zM230 128h24q54 0 99.5 25t73 81t27.5 150q0 77 -37.5 107.5t-94.5 30.5h-14l-29 -146h115l-16 -76h-114z" />
    <glyph glyph-name="dcroat" unicode="&#x111;" horiz-adv-x="556" 
d="M168 -12q-66 0 -103 48t-37 136q0 63 22 120.5t59.5 102.5t85 71t99.5 26q32 0 56 -15t36 -41h2l10 94l4 22h-138l14 76h139l13 68h160l-14 -68h66l-16 -70l-65 -5l-111 -553h-130v62h-2q-33 -34 -73.5 -54t-76.5 -20zM240 118q20 0 43.5 13t44.5 53l28 140
q-7 20 -21.5 29t-28.5 9q-29 0 -54.5 -23.5t-41.5 -62.5t-16 -84q0 -39 12.5 -56.5t33.5 -17.5z" />
    <glyph glyph-name="Emacron" unicode="&#x112;" horiz-adv-x="536" 
d="M26 0l130 650h396l-26 -134h-238l-22 -114h202l-26 -134h-202l-28 -134h246l-26 -134h-406zM220 716l20 102h300l-20 -102h-300z" />
    <glyph glyph-name="emacron" unicode="&#x113;" horiz-adv-x="502" 
d="M234 -12q-61 0 -108 26t-73.5 74.5t-26.5 115.5q0 69 25 125.5t66 97.5t91 63t100 22q61 0 97.5 -26t52.5 -69t16 -95q0 -36 -10 -70.5t-16 -45.5h-272q0 -52 30.5 -75t73.5 -23q21 0 44.5 10t39.5 22l56 -100q-30 -21 -77 -36.5t-109 -15.5zM188 302h152q2 5 3 13t1 15
q0 26 -12 43t-44 17q-28 0 -55.5 -20.5t-44.5 -67.5zM188 590l20 100h294l-20 -100h-294z" />
    <glyph glyph-name="Ebreve" unicode="&#x114;" horiz-adv-x="536" 
d="M26 0l130 650h396l-26 -134h-238l-22 -114h202l-26 -134h-202l-28 -134h246l-26 -134h-406zM369 694q-76 0 -113 34t-33 106l96 16q1 -29 19.5 -43.5t48.5 -14.5q63 0 88 58l88 -16q-19 -72 -68 -106t-126 -34z" />
    <glyph glyph-name="ebreve" unicode="&#x115;" horiz-adv-x="502" 
d="M234 -12q-61 0 -108 26t-73.5 74.5t-26.5 115.5q0 69 25 125.5t66 97.5t91 63t100 22q61 0 97.5 -26t52.5 -69t16 -95q0 -36 -10 -70.5t-16 -45.5h-272q0 -52 30.5 -75t73.5 -23q21 0 44.5 10t39.5 22l56 -100q-30 -21 -77 -36.5t-109 -15.5zM188 302h152q2 5 3 13t1 15
q0 26 -12 43t-44 17q-28 0 -55.5 -20.5t-44.5 -67.5zM339 572q-88 0 -122 45t-24 115l100 16q-1 -30 14.5 -50t51.5 -20t58 20t32 50l92 -16q-13 -70 -63 -115t-139 -45z" />
    <glyph glyph-name="Edotaccent" unicode="&#x116;" horiz-adv-x="536" 
d="M26 0l130 650h396l-26 -134h-238l-22 -114h202l-26 -134h-202l-28 -134h246l-26 -134h-406zM376 698q-31 0 -57.5 18.5t-26.5 55.5q0 36 28 63t68 27q32 0 58 -19t26 -55q0 -39 -27.5 -64.5t-68.5 -25.5z" />
    <glyph glyph-name="edotaccent" unicode="&#x117;" horiz-adv-x="502" 
d="M234 -12q-61 0 -108 26t-73.5 74.5t-26.5 115.5q0 69 25 125.5t66 97.5t91 63t100 22q61 0 97.5 -26t52.5 -69t16 -95q0 -36 -10 -70.5t-16 -45.5h-272q0 -52 30.5 -75t73.5 -23q21 0 44.5 10t39.5 22l56 -100q-30 -21 -77 -36.5t-109 -15.5zM188 302h152q2 5 3 13t1 15
q0 26 -12 43t-44 17q-28 0 -55.5 -20.5t-44.5 -67.5zM340 564q-31 0 -57.5 18.5t-26.5 55.5q0 36 28 63t68 27q32 0 58 -19t26 -55q0 -39 -27.5 -64.5t-68.5 -25.5z" />
    <glyph glyph-name="Eogonek" unicode="&#x118;" horiz-adv-x="536" 
d="M310 -226q-43 0 -70.5 21.5t-27.5 58.5q0 35 18 65t41 51t37 30h-282l130 650h396l-26 -134h-238l-22 -114h202l-26 -134h-202l-28 -134h246l-26 -134q-30 -5 -51.5 -22t-33 -37.5t-11.5 -34.5q0 -15 10.5 -22.5t23.5 -7.5q11 0 24 8l30 -76q-22 -15 -54.5 -24.5
t-59.5 -9.5z" />
    <glyph glyph-name="eogonek" unicode="&#x119;" horiz-adv-x="502" 
d="M256 -212q-39 0 -64.5 19.5t-25.5 56.5q0 40 24.5 71t48.5 53h-3q-62 0 -109.5 26t-74 74.5t-26.5 115.5q0 69 25 125.5t66 97.5t91 63t100 22q61 0 97.5 -26t52.5 -69t16 -95q0 -25 -5.5 -50t-12 -44t-10.5 -26h-270q2 -49 31.5 -71.5t72.5 -22.5q21 0 44.5 10t39.5 22
l56 -100q-61 -28 -91 -52.5t-39.5 -44t-9.5 -33.5q0 -13 10.5 -20.5t23.5 -7.5t30 10l26 -64q-22 -16 -54.5 -28t-59.5 -12zM188 298h152q2 6 3 14.5t1 17.5q0 26 -12 43t-44 17q-28 0 -55.5 -22t-44.5 -70z" />
    <glyph glyph-name="Ecaron" unicode="&#x11a;" horiz-adv-x="536" 
d="M26 0l130 650h396l-26 -134h-238l-22 -114h202l-26 -134h-202l-28 -134h246l-26 -134h-406zM278 700l-64 110l78 44l84 -80h4l124 80l66 -50l-104 -104h-188z" />
    <glyph glyph-name="ecaron" unicode="&#x11b;" horiz-adv-x="502" 
d="M234 -12q-61 0 -108 26t-73.5 74.5t-26.5 115.5q0 69 25 125.5t66 97.5t91 63t100 22q61 0 97.5 -26t52.5 -69t16 -95q0 -36 -10 -70.5t-16 -45.5h-272q0 -52 30.5 -75t73.5 -23q21 0 44.5 10t39.5 22l56 -100q-30 -21 -77 -36.5t-109 -15.5zM188 302h152q2 5 3 13t1 15
q0 26 -12 43t-44 17q-28 0 -55.5 -20.5t-44.5 -67.5zM252 580l-84 128l70 60l110 -88h4l150 88l54 -64l-128 -124h-176z" />
    <glyph glyph-name="Gcircumflex" unicode="&#x11c;" horiz-adv-x="620" 
d="M320 -12q-121 0 -192.5 72t-71.5 204q0 87 27.5 160t76.5 126t114.5 82.5t141.5 29.5q65 0 112.5 -27.5t75.5 -78.5l-108 -84q-35 52 -88 52q-52 0 -94.5 -33.5t-68 -90t-25.5 -126.5t29.5 -110t98.5 -40q32 0 56 16l24 108h-96l24 130h236l-62 -322q-37 -28 -92 -48
t-118 -20zM304 680l-66 50l104 104h188l64 -110l-78 -44l-84 80h-4z" />
    <glyph glyph-name="gcircumflex" unicode="&#x11d;" horiz-adv-x="552" 
d="M180 -196q-42 0 -92.5 17t-95.5 53l68 106q29 -21 60 -35.5t64 -14.5q41 0 69.5 19.5t40.5 56.5l26 82q-65 -68 -146 -68q-63 0 -104.5 43t-41.5 131q0 67 21 124.5t57.5 101t83 68t98.5 24.5q32 0 60.5 -16.5t41.5 -45.5h2l22 50h130l-96 -480q-22 -112 -91.5 -164
t-176.5 -52zM238 150q21 0 45 11t43 45l26 138q-9 20 -23.5 29t-28.5 9q-43 0 -74.5 -46.5t-31.5 -121.5q0 -33 12.5 -48.5t31.5 -15.5zM186 558l-54 64l128 124h176l84 -128l-70 -60l-110 88h-4z" />
    <glyph glyph-name="Gbreve" unicode="&#x11e;" horiz-adv-x="620" 
d="M320 -12q-121 0 -192.5 72t-71.5 204q0 87 27.5 160t76.5 126t114.5 82.5t141.5 29.5q65 0 112.5 -27.5t75.5 -78.5l-108 -84q-35 52 -88 52q-52 0 -94.5 -33.5t-68 -90t-25.5 -126.5t29.5 -110t98.5 -40q32 0 56 16l24 108h-96l24 130h236l-62 -322q-37 -28 -92 -48
t-118 -20zM419 694q-76 0 -113 34t-33 106l96 16q1 -29 19.5 -43.5t48.5 -14.5q63 0 88 58l88 -16q-19 -72 -68 -106t-126 -34z" />
    <glyph glyph-name="gbreve" unicode="&#x11f;" horiz-adv-x="552" 
d="M180 -196q-42 0 -92.5 17t-95.5 53l68 106q29 -21 60 -35.5t64 -14.5q41 0 69.5 19.5t40.5 56.5l26 82q-65 -68 -146 -68q-63 0 -104.5 43t-41.5 131q0 67 21 124.5t57.5 101t83 68t98.5 24.5q32 0 60.5 -16.5t41.5 -45.5h2l22 50h130l-96 -480q-22 -112 -91.5 -164
t-176.5 -52zM238 150q21 0 45 11t43 45l26 138q-9 20 -23.5 29t-28.5 9q-43 0 -74.5 -46.5t-31.5 -121.5q0 -33 12.5 -48.5t31.5 -15.5zM329 572q-88 0 -122 45t-24 115l100 16q-1 -30 14.5 -50t51.5 -20t58 20t32 50l92 -16q-13 -70 -63 -115t-139 -45z" />
    <glyph glyph-name="Gdotaccent" unicode="&#x120;" horiz-adv-x="620" 
d="M320 -12q-121 0 -192.5 72t-71.5 204q0 87 27.5 160t76.5 126t114.5 82.5t141.5 29.5q65 0 112.5 -27.5t75.5 -78.5l-108 -84q-35 52 -88 52q-52 0 -94.5 -33.5t-68 -90t-25.5 -126.5t29.5 -110t98.5 -40q32 0 56 16l24 108h-96l24 130h236l-62 -322q-37 -28 -92 -48
t-118 -20zM426 698q-31 0 -57.5 18.5t-26.5 55.5q0 36 28 63t68 27q32 0 58 -19t26 -55q0 -39 -27.5 -64.5t-68.5 -25.5z" />
    <glyph glyph-name="gdotaccent" unicode="&#x121;" horiz-adv-x="552" 
d="M180 -196q-42 0 -92.5 17t-95.5 53l68 106q29 -21 60 -35.5t64 -14.5q41 0 69.5 19.5t40.5 56.5l26 82q-65 -68 -146 -68q-63 0 -104.5 43t-41.5 131q0 67 21 124.5t57.5 101t83 68t98.5 24.5q32 0 60.5 -16.5t41.5 -45.5h2l22 50h130l-96 -480q-22 -112 -91.5 -164
t-176.5 -52zM238 150q21 0 45 11t43 45l26 138q-9 20 -23.5 29t-28.5 9q-43 0 -74.5 -46.5t-31.5 -121.5q0 -33 12.5 -48.5t31.5 -15.5zM330 564q-31 0 -57.5 18.5t-26.5 55.5q0 36 28 63t68 27q32 0 58 -19t26 -55q0 -39 -27.5 -64.5t-68.5 -25.5z" />
    <glyph glyph-name="uni0122" unicode="&#x122;" horiz-adv-x="620" 
d="M320 -12q-121 0 -192.5 72t-71.5 204q0 87 27.5 160t76.5 126t114.5 82.5t141.5 29.5q65 0 112.5 -27.5t75.5 -78.5l-108 -84q-35 52 -88 52q-52 0 -94.5 -33.5t-68 -90t-25.5 -126.5t29.5 -110t98.5 -40q32 0 56 16l24 108h-96l24 130h236l-62 -322q-37 -28 -92 -48
t-118 -20zM156 -244v66q58 3 81.5 13.5t23.5 26.5q0 9 -11 18.5t-43 9.5l44 60q56 -2 85 -12t39.5 -26t10.5 -36q0 -41 -30 -66.5t-82 -38.5t-118 -15z" />
    <glyph glyph-name="uni0123" unicode="&#x123;" horiz-adv-x="552" 
d="M180 -196q-42 0 -92.5 17t-95.5 53l68 106q29 -21 60 -35.5t64 -14.5q41 0 69.5 19.5t40.5 56.5l26 82q-65 -68 -146 -68q-63 0 -104.5 43t-41.5 131q0 67 21 124.5t57.5 101t83 68t98.5 24.5q32 0 60.5 -16.5t41.5 -45.5h2l22 50h130l-96 -480q-22 -112 -91.5 -164
t-176.5 -52zM238 150q21 0 45 11t43 45l26 138q-9 20 -23.5 29t-28.5 9q-43 0 -74.5 -46.5t-31.5 -121.5q0 -33 12.5 -48.5t31.5 -15.5zM363 566q-55 2 -84.5 12t-40 26.5t-10.5 35.5q0 41 30.5 67t83.5 38.5t119 14.5l-3 -66q-58 -3 -81.5 -13t-23.5 -27q0 -9 11 -18.5
t43 -9.5z" />
    <glyph glyph-name="Hcircumflex" unicode="&#x124;" horiz-adv-x="664" 
d="M26 0l130 650h160l-50 -244h194l48 244h160l-130 -650h-160l54 266h-194l-52 -266h-160zM304 680l-66 50l104 104h188l64 -110l-78 -44l-84 80h-4z" />
    <glyph glyph-name="hcircumflex" unicode="&#x125;" horiz-adv-x="556" 
d="M8 0l140 696h160l-34 -162l-24 -88h4q30 27 68.5 46.5t83.5 19.5q62 0 90 -32.5t28 -97.5q0 -16 -1.5 -35t-6.5 -37l-62 -310h-160l58 290q3 14 5.5 24.5t2.5 19.5q0 42 -42 42q-21 0 -41 -13.5t-47 -42.5l-62 -320h-160zM324 718l-66 50l104 104h188l64 -110l-78 -44
l-84 80h-4z" />
    <glyph glyph-name="Hbar" unicode="&#x126;" horiz-adv-x="696" 
d="M42 0l95 476h-71l18 90l72 5l16 79h160l-16 -78h193l15 78h160l-16 -78h74l-18 -96h-75l-95 -476h-160l54 266h-194l-52 -266h-160zM282 406h194l14 70h-194z" />
    <glyph glyph-name="hbar" unicode="&#x127;" horiz-adv-x="556" 
d="M8 0l109 542h-67l18 90l68 6l12 58h160l-12 -58h156l-20 -96h-156l-6 -28l-24 -88h4q30 27 68.5 46.5t83.5 19.5q62 0 90 -32.5t28 -97.5q0 -16 -1.5 -35t-6.5 -37l-58 -290h-160l54 270q3 14 5.5 24.5t2.5 19.5q0 42 -42 42q-21 0 -41 -13.5t-47 -42.5l-58 -300h-160z
" />
    <glyph glyph-name="Itilde" unicode="&#x128;" horiz-adv-x="310" 
d="M26 0l130 650h160l-130 -650h-160zM316 686q-35 0 -57.5 13t-38.5 26t-30 13q-12 0 -22 -8t-18 -34l-108 8q20 83 63.5 117.5t98.5 34.5q35 0 57.5 -13t38.5 -26t30 -13q12 0 22.5 8.5t17.5 33.5l108 -8q-19 -82 -63 -117t-99 -35z" />
    <glyph glyph-name="itilde" unicode="&#x129;" horiz-adv-x="276" 
d="M8 0l100 500h160l-100 -500h-160zM276 572q-32 0 -52.5 14t-36.5 28t-35 14q-12 0 -22.5 -9.5t-15.5 -36.5l-104 6q14 85 54 121.5t96 36.5q33 0 53 -14t36 -28t35 -14q12 0 23 9.5t15 36.5l104 -6q-13 -85 -53.5 -121.5t-96.5 -36.5z" />
    <glyph glyph-name="Imacron" unicode="&#x12a;" horiz-adv-x="310" 
d="M26 0l130 650h160l-130 -650h-160zM100 716l20 102h300l-20 -102h-300z" />
    <glyph glyph-name="imacron" unicode="&#x12b;" horiz-adv-x="276" 
d="M8 0l100 500h160l-100 -500h-160zM58 590l20 100h294l-20 -100h-294z" />
    <glyph glyph-name="uni012C" unicode="&#x12c;" horiz-adv-x="310" 
d="M26 0l130 650h160l-130 -650h-160zM249 694q-76 0 -113 34t-33 106l96 16q1 -29 19.5 -43.5t48.5 -14.5q63 0 88 58l88 -16q-19 -72 -68 -106t-126 -34z" />
    <glyph glyph-name="uni012D" unicode="&#x12d;" horiz-adv-x="276" 
d="M8 0l100 500h160l-100 -500h-160zM209 572q-88 0 -122 45t-24 115l100 16q-1 -30 14.5 -50t51.5 -20t58 20t32 50l92 -16q-13 -70 -63 -115t-139 -45z" />
    <glyph glyph-name="Iogonek" unicode="&#x12e;" horiz-adv-x="310" 
d="M64 -226q-43 0 -70.5 21.5t-27.5 58.5q0 35 18.5 65t41.5 51t38 30h-38l130 650h160l-130 -650q-51 -16 -73.5 -44.5t-22.5 -49.5q0 -15 10.5 -22.5t23.5 -7.5q11 0 24 8l30 -76q-22 -15 -54.5 -24.5t-59.5 -9.5z" />
    <glyph glyph-name="iogonek" unicode="&#x12f;" horiz-adv-x="276" 
d="M52 -212q-39 0 -64.5 19.5t-25.5 56.5q0 33 17 60.5t39 47t36 28.5h-46l100 500h160l-100 -500q-51 -16 -71.5 -40t-20.5 -50q0 -13 10.5 -20.5t23.5 -7.5t30 10l26 -64q-22 -16 -54.5 -28t-59.5 -12zM210 564q-31 0 -57.5 18.5t-26.5 55.5q0 36 28 63t68 27q32 0 58 -19
t26 -55q0 -39 -27.5 -64.5t-68.5 -25.5z" />
    <glyph glyph-name="Idotaccent" unicode="&#x130;" horiz-adv-x="310" 
d="M26 0l130 650h160l-130 -650h-160zM256 698q-31 0 -57.5 18.5t-26.5 55.5q0 36 28 63t68 27q32 0 58 -19t26 -55q0 -39 -27.5 -64.5t-68.5 -25.5z" />
    <glyph glyph-name="dotlessi" unicode="&#x131;" horiz-adv-x="276" 
d="M8 0l100 500h160l-100 -500h-160z" />
    <glyph glyph-name="uni0132" unicode="&#x132;" horiz-adv-x="624" 
d="M300 -182q-27 0 -52 5.5t-52 18.5l48 114q21 -12 42 -12q24 0 35.5 16.5t20.5 55.5l126 634h160l-128 -642q-11 -52 -34 -95t-63.5 -69t-102.5 -26zM26 0l130 650h160l-130 -650h-160z" />
    <glyph glyph-name="uni0133" unicode="&#x133;" horiz-adv-x="554" 
d="M8 0l100 500h160l-100 -500h-160zM210 564q-31 0 -57.5 18.5t-26.5 55.5q0 36 28 63t68 27q32 0 58 -19t26 -55q0 -39 -27.5 -64.5t-68.5 -25.5zM246 -188q-27 0 -52 5.5t-52 18.5l48 114q21 -12 42 -12q24 0 35.5 16.5t20.5 55.5l98 490h160l-100 -498q-11 -52 -34 -95
t-63.5 -69t-102.5 -26zM486 564q-31 0 -57.5 18.5t-26.5 55.5q0 36 28 63t68 27q32 0 58 -19t26 -55q0 -39 -27.5 -64.5t-68.5 -25.5z" />
    <glyph glyph-name="Jcircumflex" unicode="&#x134;" horiz-adv-x="504" 
d="M182 -12q-55 0 -107.5 25t-84.5 73l96 98q15 -21 40 -39.5t56 -18.5q35 0 56.5 27t33.5 86l82 411h160l-88 -439q-12 -59 -41 -110t-79 -82t-124 -31zM334 680l-66 50l104 104h188l64 -110l-78 -44l-84 80h-4z" />
    <glyph glyph-name="jcircumflex" unicode="&#x135;" horiz-adv-x="278" 
d="M-30 -188q-27 0 -52 5.5t-52 18.5l48 114q21 -12 42 -12q24 0 35.5 16.5t20.5 55.5l98 490h160l-100 -498q-11 -52 -34 -95t-63.5 -69t-102.5 -26zM66 558l-54 64l128 124h176l84 -128l-70 -60l-110 88h-4z" />
    <glyph glyph-name="uni0136" unicode="&#x136;" horiz-adv-x="622" 
d="M26 0l130 650h160l-49 -246h4l213 246h174l-234 -274l144 -376h-166l-96 276l-84 -96l-36 -180h-160zM156 -244v66q58 3 81.5 13.5t23.5 26.5q0 9 -11 18.5t-43 9.5l44 60q56 -2 85 -12t39.5 -26t10.5 -36q0 -41 -30 -66.5t-82 -38.5t-118 -15z" />
    <glyph glyph-name="uni0137" unicode="&#x137;" horiz-adv-x="544" 
d="M8 0l140 696h160l-76 -376h4l164 180h176l-206 -222l118 -278h-160l-68 186l-68 -68l-24 -118h-160zM96 -244v66q58 3 81.5 13.5t23.5 26.5q0 9 -11 18.5t-43 9.5l44 60q56 -2 85 -12t39.5 -26t10.5 -36q0 -41 -30 -66.5t-82 -38.5t-118 -15z" />
    <glyph glyph-name="kgreenlandic" unicode="&#x138;" horiz-adv-x="544" 
d="M8 0l98 500h160l-34 -180h4l164 180h176l-206 -222l118 -278h-160l-68 186l-68 -68l-24 -118h-160z" />
    <glyph glyph-name="Lacute" unicode="&#x139;" horiz-adv-x="514" 
d="M26 0l130 650h160l-104 -516h236l-26 -134h-396zM222 680l-61 92l207 127l70 -117z" />
    <glyph glyph-name="lacute" unicode="&#x13a;" horiz-adv-x="286" 
d="M148 -12q-61 0 -87.5 29.5t-26.5 80.5q0 15 2 31t6 37l106 530h160l-108 -536q-1 -7 -1.5 -11t-0.5 -8q0 -14 6.5 -19.5t13.5 -5.5q5 0 8.5 0.5t9.5 1.5l-6 -118q-13 -4 -34 -8t-48 -4zM182 718l-61 92l207 127l70 -117z" />
    <glyph glyph-name="uni013B" unicode="&#x13b;" horiz-adv-x="514" 
d="M26 0l130 650h160l-104 -516h236l-26 -134h-396zM76 -244v66q58 3 81.5 13.5t23.5 26.5q0 9 -11 18.5t-43 9.5l44 60q56 -2 85 -12t39.5 -26t10.5 -36q0 -41 -30 -66.5t-82 -38.5t-118 -15z" />
    <glyph glyph-name="uni013C" unicode="&#x13c;" horiz-adv-x="286" 
d="M148 -12q-61 0 -87.5 29.5t-26.5 80.5q0 15 2 31t6 37l106 530h160l-108 -536q-1 -7 -1.5 -11t-0.5 -8q0 -14 6.5 -19.5t13.5 -5.5q5 0 8.5 0.5t9.5 1.5l-6 -118q-13 -4 -34 -8t-48 -4zM-24 -244v66q58 3 81.5 13.5t23.5 26.5q0 9 -11 18.5t-43 9.5l44 60q56 -2 85 -12
t39.5 -26t10.5 -36q0 -41 -30 -66.5t-82 -38.5t-118 -15z" />
    <glyph glyph-name="Lcaron" unicode="&#x13d;" horiz-adv-x="514" 
d="M26 0l130 650h160l-104 -516h236l-26 -134h-396zM398 506l40 226h100l-16 -74l-56 -152h-68z" />
    <glyph glyph-name="lcaron" unicode="&#x13e;" horiz-adv-x="300" 
d="M148 -12q-61 0 -87.5 29.5t-26.5 80.5q0 15 2 31t6 37l106 530h160l-108 -536q-1 -7 -1.5 -11t-0.5 -8q0 -14 6.5 -19.5t13.5 -5.5q5 0 8.5 0.5t9.5 1.5l-6 -118q-13 -4 -34 -8t-48 -4zM316 548l40 226h100l-16 -74l-56 -152h-68z" />
    <glyph glyph-name="Ldot" unicode="&#x13f;" horiz-adv-x="514" 
d="M26 0l130 650h160l-104 -516h236l-26 -134h-396zM414 228q-36 0 -58 23.5t-22 60.5q0 27 14 53t38.5 42.5t57.5 16.5q36 0 58 -24t22 -60q0 -28 -13.5 -53.5t-38.5 -42t-58 -16.5z" />
    <glyph glyph-name="ldot" unicode="&#x140;" horiz-adv-x="456" 
d="M148 -12q-61 0 -87.5 29.5t-26.5 80.5q0 15 2 31t6 37l106 530h160l-108 -536q-1 -7 -1.5 -11t-0.5 -8q0 -14 6.5 -19.5t13.5 -5.5q5 0 8.5 0.5t9.5 1.5l-6 -118q-13 -4 -34 -8t-48 -4zM368 238q-36 0 -58 23.5t-22 60.5q0 27 14 53t38.5 42.5t57.5 16.5q36 0 58 -24
t22 -60q0 -28 -13.5 -53.5t-38.5 -42t-58 -16.5z" />
    <glyph glyph-name="Lslash" unicode="&#x141;" horiz-adv-x="514" 
d="M26 0l38 192l-47 -24l-38 102l112 56l65 324h160l-49 -241l144 73l38 -102l-208 -104l-29 -142h236l-26 -134h-396z" />
    <glyph glyph-name="lslash" unicode="&#x142;" horiz-adv-x="358" 
d="M190 -12q-61 0 -87.5 29.5t-26.5 80.5q0 15 2 31t6 37l20 101l-64 -33l-36 96l124 58l62 308h160l-47 -234l95 48l36 -96l-155 -72l-37 -182q-1 -7 -1.5 -11t-0.5 -8q0 -14 6.5 -19.5t13.5 -5.5q5 0 8.5 0.5t9.5 1.5l-6 -118q-13 -4 -34 -8t-48 -4z" />
    <glyph glyph-name="Nacute" unicode="&#x143;" horiz-adv-x="652" 
d="M26 0l130 650h154l90 -308l32 -146h4q5 53 9.5 120.5t16.5 125.5l42 208h152l-130 -650h-154l-90 308l-30 146h-4q-4 -55 -10 -120t-18 -124l-42 -210h-152zM372 680l-61 92l207 127l70 -117z" />
    <glyph glyph-name="nacute" unicode="&#x144;" horiz-adv-x="562" 
d="M8 0l100 500h130v-64h4q35 30 75.5 53t88.5 23q62 0 90 -32.5t28 -97.5q0 -34 -8 -72l-62 -310h-160l58 290q3 14 5.5 24.5t2.5 19.5q0 42 -42 42q-21 0 -41 -13.5t-47 -42.5l-62 -320h-160zM356 578l-69 90l191 172l95 -122z" />
    <glyph glyph-name="uni0145" unicode="&#x145;" horiz-adv-x="652" 
d="M26 0l130 650h154l90 -308l32 -146h4q5 53 9.5 120.5t16.5 125.5l42 208h152l-130 -650h-154l-90 308l-30 146h-4q-4 -55 -10 -120t-18 -124l-42 -210h-152zM136 -252v66q58 3 81.5 13.5t23.5 26.5q0 9 -11 18.5t-43 9.5l44 60q56 -2 85 -12t39.5 -26t10.5 -36
q0 -41 -30 -66.5t-82 -38.5t-118 -15z" />
    <glyph glyph-name="uni0146" unicode="&#x146;" horiz-adv-x="562" 
d="M8 0l100 500h130v-64h4q35 30 75.5 53t88.5 23q62 0 90 -32.5t28 -97.5q0 -34 -8 -72l-62 -310h-160l58 290q3 14 5.5 24.5t2.5 19.5q0 42 -42 42q-21 0 -41 -13.5t-47 -42.5l-62 -320h-160zM86 -244v66q58 3 81.5 13.5t23.5 26.5q0 9 -11 18.5t-43 9.5l44 60
q56 -2 85 -12t39.5 -26t10.5 -36q0 -41 -30 -66.5t-82 -38.5t-118 -15z" />
    <glyph glyph-name="Ncaron" unicode="&#x147;" horiz-adv-x="652" 
d="M26 0l130 650h154l90 -308l32 -146h4q5 53 9.5 120.5t16.5 125.5l42 208h152l-130 -650h-154l-90 308l-30 146h-4q-4 -55 -10 -120t-18 -124l-42 -210h-152zM328 700l-64 110l78 44l84 -80h4l124 80l66 -50l-104 -104h-188z" />
    <glyph glyph-name="ncaron" unicode="&#x148;" horiz-adv-x="562" 
d="M8 0l100 500h130v-64h4q35 30 75.5 53t88.5 23q62 0 90 -32.5t28 -97.5q0 -34 -8 -72l-62 -310h-160l58 290q3 14 5.5 24.5t2.5 19.5q0 42 -42 42q-21 0 -41 -13.5t-47 -42.5l-62 -320h-160zM292 580l-84 128l70 60l110 -88h4l150 88l54 -64l-128 -124h-176z" />
    <glyph glyph-name="napostrophe" unicode="&#x149;" horiz-adv-x="858" 
d="M130 348l-24 68q40 14 67 36.5t41 45t14 36.5h-2.5h-3.5q-34 0 -57 18.5t-23 51.5q0 36 25.5 64t68.5 28q38 0 60 -28.5t22 -79.5q0 -65 -26 -114t-69 -80.5t-93 -45.5zM304 0l100 500h130v-64h4q35 30 75.5 53t88.5 23q62 0 90 -32.5t28 -97.5q0 -34 -8 -72l-62 -310
h-160l58 290q3 14 5.5 24.5t2.5 19.5q0 42 -42 42q-21 0 -41 -13.5t-47 -42.5l-62 -320h-160z" />
    <glyph glyph-name="uni014A" unicode="&#x14a;" horiz-adv-x="660" 
d="M370 -12q-28 0 -59 4.5t-46 14.5l58 127q5 -3 12 -5.5t15 -2.5q23 0 45 23.5t40.5 64t29.5 90.5t11 102q0 63 -19 90.5t-54 27.5q-27 0 -61 -16.5t-66 -49.5l-90 -458h-160l130 650h152l-12 -58q41 35 80 52.5t82 17.5q54 0 95 -24.5t64 -78.5t23 -143
q0 -86 -19.5 -163.5t-55 -137t-85 -93.5t-110.5 -34z" />
    <glyph glyph-name="uni014B" unicode="&#x14b;" horiz-adv-x="562" 
d="M254 -188q-27 0 -52 5.5t-52 18.5l48 114q21 -12 42 -12q24 0 35.5 16.5t20.5 55.5l56 280q3 14 5.5 24.5t2.5 19.5q0 42 -42 42q-21 0 -41 -13.5t-47 -42.5l-62 -320h-160l100 500h130v-64h4q35 30 75.5 53t88.5 23q62 0 90 -32.5t28 -97.5q0 -34 -8 -72l-62 -308
q-11 -52 -34 -95t-63.5 -69t-102.5 -26z" />
    <glyph glyph-name="Omacron" unicode="&#x14c;" horiz-adv-x="670" 
d="M308 -12q-75 0 -131.5 32.5t-88.5 94t-32 149.5q0 91 28 164t75.5 125.5t108 80.5t124.5 28q75 0 132 -32.5t88.5 -94t31.5 -149.5q0 -91 -28 -164t-75.5 -125.5t-107.5 -80.5t-125 -28zM316 126q37 0 75 31.5t63.5 87.5t25.5 131q0 71 -25.5 109.5t-70.5 38.5
q-37 0 -75 -31.5t-63.5 -87.5t-25.5 -131q0 -70 25.5 -109t70.5 -39zM270 716l20 102h300l-20 -102h-300z" />
    <glyph glyph-name="omacron" unicode="&#x14d;" horiz-adv-x="540" 
d="M226 -12q-60 0 -105 26t-70 73t-25 109q0 73 24.5 131t65.5 99.5t91.5 63.5t102.5 22q60 0 105 -26t70 -73t25 -109q0 -73 -24.5 -131t-65.5 -99.5t-91.5 -63.5t-102.5 -22zM244 116q29 0 52.5 24t37.5 66t14 96q0 38 -13.5 60t-42.5 22t-52.5 -24t-37.5 -66t-14 -96
q0 -37 14 -59.5t42 -22.5zM188 590l20 100h294l-20 -100h-294z" />
    <glyph glyph-name="uni014E" unicode="&#x14e;" horiz-adv-x="670" 
d="M308 -12q-75 0 -131.5 32.5t-88.5 94t-32 149.5q0 91 28 164t75.5 125.5t108 80.5t124.5 28q75 0 132 -32.5t88.5 -94t31.5 -149.5q0 -91 -28 -164t-75.5 -125.5t-107.5 -80.5t-125 -28zM316 126q37 0 75 31.5t63.5 87.5t25.5 131q0 71 -25.5 109.5t-70.5 38.5
q-37 0 -75 -31.5t-63.5 -87.5t-25.5 -131q0 -70 25.5 -109t70.5 -39zM419 694q-76 0 -113 34t-33 106l96 16q1 -29 19.5 -43.5t48.5 -14.5q63 0 88 58l88 -16q-19 -72 -68 -106t-126 -34z" />
    <glyph glyph-name="uni014F" unicode="&#x14f;" horiz-adv-x="540" 
d="M226 -12q-60 0 -105 26t-70 73t-25 109q0 73 24.5 131t65.5 99.5t91.5 63.5t102.5 22q60 0 105 -26t70 -73t25 -109q0 -73 -24.5 -131t-65.5 -99.5t-91.5 -63.5t-102.5 -22zM244 116q29 0 52.5 24t37.5 66t14 96q0 38 -13.5 60t-42.5 22t-52.5 -24t-37.5 -66t-14 -96
q0 -37 14 -59.5t42 -22.5zM339 572q-88 0 -122 45t-24 115l100 16q-1 -30 14.5 -50t51.5 -20t58 20t32 50l92 -16q-13 -70 -63 -115t-139 -45z" />
    <glyph glyph-name="Ohungarumlaut" unicode="&#x150;" horiz-adv-x="670" 
d="M308 -12q-75 0 -131.5 32.5t-88.5 94t-32 149.5q0 91 28 164t75.5 125.5t108 80.5t124.5 28q75 0 132 -32.5t88.5 -94t31.5 -149.5q0 -91 -28 -164t-75.5 -125.5t-107.5 -80.5t-125 -28zM316 126q37 0 75 31.5t63.5 87.5t25.5 131q0 71 -25.5 109.5t-70.5 38.5
q-37 0 -75 -31.5t-63.5 -87.5t-25.5 -131q0 -70 25.5 -109t70.5 -39zM348 693l-76 47l132 153l97 -69zM546 693l-76 47l132 153l97 -69z" />
    <glyph glyph-name="ohungarumlaut" unicode="&#x151;" horiz-adv-x="540" 
d="M226 -12q-60 0 -105 26t-70 73t-25 109q0 73 24.5 131t65.5 99.5t91.5 63.5t102.5 22q60 0 105 -26t70 -73t25 -109q0 -73 -24.5 -131t-65.5 -99.5t-91.5 -63.5t-102.5 -22zM244 116q29 0 52.5 24t37.5 66t14 96q0 38 -13.5 60t-42.5 22t-52.5 -24t-37.5 -66t-14 -96
q0 -37 14 -59.5t42 -22.5zM288 566l-82 48l120 174l104 -60zM478 566l-82 48l120 174l104 -60z" />
    <glyph glyph-name="OE" unicode="&#x152;" horiz-adv-x="840" 
d="M348 0q-136 0 -214 62t-78 194t47.5 219.5t129 131t183.5 43.5h440l-26 -134h-228l-22 -114h192l-26 -134h-192l-28 -134h236l-26 -134h-388zM352 128h14l78 394h-24q-54 0 -99.5 -25t-73 -81t-27.5 -150q0 -76 37.5 -107t94.5 -31z" />
    <glyph glyph-name="oe" unicode="&#x153;" horiz-adv-x="792" 
d="M216 -12q-57 0 -99.5 26t-66.5 73t-24 109q0 73 24 131t64 99.5t88.5 63.5t97.5 22q53 0 84.5 -21.5t53.5 -62.5q35 41 77.5 62.5t82.5 21.5q61 0 97.5 -26t52.5 -69t16 -95q0 -36 -10 -70t-16 -46h-262q2 -55 28.5 -76.5t65.5 -21.5q21 0 44.5 10t39.5 22l56 -100
q-28 -19 -70 -35.5t-96 -16.5q-51 0 -93 21.5t-65 64.5q-36 -42 -80.5 -64t-89.5 -22zM244 116q26 0 47.5 24t34 66t12.5 96q0 38 -13.5 60t-42.5 22q-24 0 -45.5 -24t-35 -66t-13.5 -96q0 -37 14 -59.5t42 -22.5zM488 302h142q2 6 3 13.5t1 14.5q0 26 -12 43t-44 17
q-25 0 -50 -20.5t-40 -67.5z" />
    <glyph glyph-name="Racute" unicode="&#x154;" horiz-adv-x="612" 
d="M26 0l130 650h214q65 0 117 -16.5t82.5 -54.5t30.5 -101q0 -91 -44.5 -147t-112.5 -82l97 -249h-168l-75 224h-67l-44 -224h-160zM256 350h58q65 0 96.5 29t31.5 75q0 36 -24.5 53t-69.5 17h-58zM352 680l-61 92l207 127l70 -117z" />
    <glyph glyph-name="racute" unicode="&#x155;" horiz-adv-x="400" 
d="M8 0l100 500h130l-4 -98h4q29 48 68.5 79t81.5 31q21 0 34 -2.5t20 -7.5l-52 -138q-10 6 -25 7t-27 1q-31 0 -59 -21t-57 -71l-54 -280h-160zM286 578l-69 90l191 172l95 -122z" />
    <glyph glyph-name="uni0156" unicode="&#x156;" horiz-adv-x="612" 
d="M26 0l130 650h214q65 0 117 -16.5t82.5 -54.5t30.5 -101q0 -91 -44.5 -147t-112.5 -82l97 -249h-168l-75 224h-67l-44 -224h-160zM256 350h58q65 0 96.5 29t31.5 75q0 36 -24.5 53t-69.5 17h-58zM146 -252v66q58 3 81.5 13.5t23.5 26.5q0 9 -11 18.5t-43 9.5l44 60
q56 -2 85 -12t39.5 -26t10.5 -36q0 -41 -30 -66.5t-82 -38.5t-118 -15z" />
    <glyph glyph-name="uni0157" unicode="&#x157;" horiz-adv-x="400" 
d="M8 0l100 500h130l-4 -98h4q29 48 68.5 79t81.5 31q21 0 34 -2.5t20 -7.5l-52 -138q-10 6 -25 7t-27 1q-31 0 -59 -21t-57 -71l-54 -280h-160zM-64 -244v66q58 3 81.5 13.5t23.5 26.5q0 9 -11 18.5t-43 9.5l44 60q56 -2 85 -12t39.5 -26t10.5 -36q0 -41 -30 -66.5
t-82 -38.5t-118 -15z" />
    <glyph glyph-name="Rcaron" unicode="&#x158;" horiz-adv-x="612" 
d="M26 0l130 650h214q65 0 117 -16.5t82.5 -54.5t30.5 -101q0 -91 -44.5 -147t-112.5 -82l97 -249h-168l-75 224h-67l-44 -224h-160zM256 350h58q65 0 96.5 29t31.5 75q0 36 -24.5 53t-69.5 17h-58zM308 700l-64 110l78 44l84 -80h4l124 80l66 -50l-104 -104h-188z" />
    <glyph glyph-name="rcaron" unicode="&#x159;" horiz-adv-x="400" 
d="M8 0l100 500h130l-4 -98h4q29 48 68.5 79t81.5 31q21 0 34 -2.5t20 -7.5l-52 -138q-10 6 -25 7t-27 1q-31 0 -59 -21t-57 -71l-54 -280h-160zM222 580l-84 128l70 60l110 -88h4l150 88l54 -64l-128 -124h-176z" />
    <glyph glyph-name="Sacute" unicode="&#x15a;" horiz-adv-x="538" 
d="M240 -12q-62 0 -124.5 28.5t-113.5 96.5l114 90q26 -35 62.5 -57t73.5 -22q35 0 55.5 15t20.5 42q0 22 -20 35.5t-54 34.5l-56 35q-45 29 -70.5 67t-25.5 99q0 59 32 106.5t86.5 75.5t120.5 28q57 0 109.5 -27t92.5 -74l-100 -94q-25 25 -50.5 41t-57.5 16
q-34 0 -51.5 -16.5t-17.5 -39.5q0 -20 20.5 -33.5t59.5 -38.5l60 -37q47 -28 67.5 -63t20.5 -92q0 -59 -31 -108.5t-88 -78.5t-135 -29zM322 688l-61 92l207 127l70 -117z" />
    <glyph glyph-name="sacute" unicode="&#x15b;" horiz-adv-x="432" 
d="M172 -12q-29 0 -63 11t-65.5 32.5t-53.5 54.5l92 76q27 -31 52.5 -44.5t47.5 -13.5q23 0 39.5 9.5t16.5 24.5q0 20 -22.5 32t-61.5 34q-37 21 -66.5 56t-29.5 84q0 48 27 86t73 60t102 22q54 0 96.5 -23.5t73.5 -56.5l-86 -82q-18 18 -39 31t-45 13t-38 -10.5t-14 -25.5
q0 -21 26 -33t54 -29q24 -13 47 -31.5t38 -45t15 -63.5q0 -50 -27.5 -88t-76.5 -59t-112 -21zM266 578l-69 90l191 172l95 -122z" />
    <glyph glyph-name="Scircumflex" unicode="&#x15c;" horiz-adv-x="538" 
d="M240 -12q-62 0 -124.5 28.5t-113.5 96.5l114 90q26 -35 62.5 -57t73.5 -22q35 0 55.5 15t20.5 42q0 22 -20 35.5t-54 34.5l-56 35q-45 29 -70.5 67t-25.5 99q0 59 32 106.5t86.5 75.5t120.5 28q57 0 109.5 -27t92.5 -74l-100 -94q-25 25 -50.5 41t-57.5 16
q-34 0 -51.5 -16.5t-17.5 -39.5q0 -20 20.5 -33.5t59.5 -38.5l60 -37q47 -28 67.5 -63t20.5 -92q0 -59 -31 -108.5t-88 -78.5t-135 -29zM254 688l-66 50l104 104h188l64 -110l-78 -44l-84 80h-4z" />
    <glyph glyph-name="scircumflex" unicode="&#x15d;" horiz-adv-x="432" 
d="M172 -12q-29 0 -63 11t-65.5 32.5t-53.5 54.5l92 76q27 -31 52.5 -44.5t47.5 -13.5q23 0 39.5 9.5t16.5 24.5q0 20 -22.5 32t-61.5 34q-37 21 -66.5 56t-29.5 84q0 48 27 86t73 60t102 22q54 0 96.5 -23.5t73.5 -56.5l-86 -82q-18 18 -39 31t-45 13t-38 -10.5t-14 -25.5
q0 -21 26 -33t54 -29q24 -13 47 -31.5t38 -45t15 -63.5q0 -50 -27.5 -88t-76.5 -59t-112 -21zM146 558l-54 64l128 124h176l84 -128l-70 -60l-110 88h-4z" />
    <glyph glyph-name="uni015E" unicode="&#x15e;" horiz-adv-x="538" 
d="M240 -12q-62 0 -124.5 28.5t-113.5 96.5l114 90q26 -35 62.5 -57t73.5 -22q35 0 55.5 15t20.5 42q0 22 -20 35.5t-54 34.5l-56 35q-45 29 -70.5 67t-25.5 99q0 59 32 106.5t86.5 75.5t120.5 28q57 0 109.5 -27t92.5 -74l-100 -94q-25 25 -50.5 41t-57.5 16
q-34 0 -51.5 -16.5t-17.5 -39.5q0 -20 20.5 -33.5t59.5 -38.5l60 -37q47 -28 67.5 -63t20.5 -92q0 -59 -31 -108.5t-88 -78.5t-135 -29zM90 -244v66q57 3 80.5 12t27.5 30q2 14 -11.5 24t-58.5 16l68 100h98l-40 -64q38 -9 54.5 -26.5t11.5 -49.5q-10 -54 -69.5 -79.5
t-160.5 -28.5z" />
    <glyph glyph-name="uni015F" unicode="&#x15f;" horiz-adv-x="432" 
d="M172 -12q-29 0 -63 11t-65.5 32.5t-53.5 54.5l92 76q27 -31 52.5 -44.5t47.5 -13.5q23 0 39.5 9.5t16.5 24.5q0 20 -22.5 32t-61.5 34q-37 21 -66.5 56t-29.5 84q0 48 27 86t73 60t102 22q54 0 96.5 -23.5t73.5 -56.5l-86 -82q-18 18 -39 31t-45 13t-38 -10.5t-14 -25.5
q0 -21 26 -33t54 -29q24 -13 47 -31.5t38 -45t15 -63.5q0 -50 -27.5 -88t-76.5 -59t-112 -21zM20 -244v66q57 3 80.5 12t27.5 30q2 14 -11.5 24t-58.5 16l68 100h98l-40 -64q38 -9 54.5 -26.5t11.5 -49.5q-10 -54 -69.5 -79.5t-160.5 -28.5z" />
    <glyph glyph-name="Scaron" unicode="&#x160;" horiz-adv-x="538" 
d="M240 -12q-62 0 -124.5 28.5t-113.5 96.5l114 90q26 -35 62.5 -57t73.5 -22q35 0 55.5 15t20.5 42q0 22 -20 35.5t-54 34.5l-56 35q-45 29 -70.5 67t-25.5 99q0 59 32 106.5t86.5 75.5t120.5 28q57 0 109.5 -27t92.5 -74l-100 -94q-25 25 -50.5 41t-57.5 16
q-34 0 -51.5 -16.5t-17.5 -39.5q0 -20 20.5 -33.5t59.5 -38.5l60 -37q47 -28 67.5 -63t20.5 -92q0 -59 -31 -108.5t-88 -78.5t-135 -29zM278 708l-64 110l78 44l84 -80h4l124 80l66 -50l-104 -104h-188z" />
    <glyph glyph-name="scaron" unicode="&#x161;" horiz-adv-x="432" 
d="M172 -12q-29 0 -63 11t-65.5 32.5t-53.5 54.5l92 76q27 -31 52.5 -44.5t47.5 -13.5q23 0 39.5 9.5t16.5 24.5q0 20 -22.5 32t-61.5 34q-37 21 -66.5 56t-29.5 84q0 48 27 86t73 60t102 22q54 0 96.5 -23.5t73.5 -56.5l-86 -82q-18 18 -39 31t-45 13t-38 -10.5t-14 -25.5
q0 -21 26 -33t54 -29q24 -13 47 -31.5t38 -45t15 -63.5q0 -50 -27.5 -88t-76.5 -59t-112 -21zM202 580l-84 128l70 60l110 -88h4l150 88l54 -64l-128 -124h-176z" />
    <glyph glyph-name="uni0162" unicode="&#x162;" horiz-adv-x="540" 
d="M142 0l102 516h-164l26 134h488l-26 -134h-164l-102 -516h-160zM76 -244v66q57 3 80.5 12t27.5 30q2 14 -11.5 24t-58.5 16l68 100h98l-40 -64q38 -9 54.5 -26.5t11.5 -49.5q-10 -54 -69.5 -79.5t-160.5 -28.5z" />
    <glyph glyph-name="uni0163" unicode="&#x163;" horiz-adv-x="384" 
d="M210 -12q-79 0 -114.5 39.5t-35.5 100.5q0 17 2.5 33.5t5.5 32.5l38 182h-64l24 118l72 6l44 128h134l-24 -128h108l-24 -124h-112l-38 -188q-1 -9 -1.5 -16.5t-0.5 -15.5q0 -44 48 -44q9 0 18 3t18 7l28 -112q-21 -7 -52.5 -14.5t-73.5 -7.5zM40 -244v66q57 3 80.5 12
t27.5 30q2 14 -11.5 24t-58.5 16l68 100h98l-40 -64q38 -9 54.5 -26.5t11.5 -49.5q-10 -54 -69.5 -79.5t-160.5 -28.5z" />
    <glyph glyph-name="Tcaron" unicode="&#x164;" horiz-adv-x="540" 
d="M142 0l102 516h-164l26 134h488l-26 -134h-164l-102 -516h-160zM268 700l-64 110l78 44l84 -80h4l124 80l66 -50l-104 -104h-188z" />
    <glyph glyph-name="tcaron" unicode="&#x165;" horiz-adv-x="384" 
d="M210 -12q-79 0 -114.5 39.5t-35.5 100.5q0 17 2.5 33.5t5.5 32.5l38 182h-64l24 118l72 6l44 128h134l-24 -128h108l-24 -124h-112l-38 -188q-1 -9 -1.5 -16.5t-0.5 -15.5q0 -44 48 -44q9 0 18 3t18 7l28 -112q-21 -7 -52.5 -14.5t-73.5 -7.5zM337 548l40 226h100
l-16 -74l-56 -152h-68z" />
    <glyph glyph-name="uni0166" unicode="&#x166;" horiz-adv-x="540" 
d="M142 0l53 266h-121l18 90l92 6h30l30 154h-164l26 134h488l-26 -134h-164l-30 -154h118l-18 -96h-119l-53 -266h-160z" />
    <glyph glyph-name="uni0167" unicode="&#x167;" horiz-adv-x="384" 
d="M210 -12q-79 0 -114.5 39.5t-35.5 100.5q0 17 2.5 33.5t5.5 32.5l4 20h-62l18 90l64 4l14 68h-64l24 118l72 6l44 128h134l-24 -128h108l-24 -124h-112l-13 -66h109l-18 -96h-111l-5 -26q-1 -9 -1.5 -16.5t-0.5 -15.5q0 -44 48 -44q9 0 18 3t18 7l28 -112
q-21 -7 -52.5 -14.5t-73.5 -7.5z" />
    <glyph glyph-name="Utilde" unicode="&#x168;" horiz-adv-x="654" 
d="M316 -12q-121 0 -181.5 57t-60.5 177q0 23 5 54t9 56l64 318h160l-70 -350q-3 -19 -5.5 -37.5t-2.5 -36.5q0 -49 18.5 -74.5t67.5 -25.5q44 0 70 36t42 120l74 368h156l-74 -364q-30 -153 -95.5 -225.5t-176.5 -72.5zM496 686q-35 0 -57.5 13t-38.5 26t-30 13
q-12 0 -22 -8t-18 -34l-108 8q20 83 63.5 117.5t98.5 34.5q35 0 57.5 -13t38.5 -26t30 -13q12 0 22.5 8.5t17.5 33.5l108 -8q-19 -82 -63 -117t-99 -35z" />
    <glyph glyph-name="utilde" unicode="&#x169;" horiz-adv-x="552" 
d="M150 -12q-61 0 -89.5 33t-28.5 97q0 34 8 72l62 310h160l-58 -290q-3 -13 -5.5 -24t-2.5 -20q0 -42 42 -42q20 0 39 14t43 42l62 320h160l-98 -500h-130v64h-4q-31 -30 -73 -53t-87 -23zM406 572q-32 0 -52.5 14t-36.5 28t-35 14q-12 0 -22.5 -9.5t-15.5 -36.5l-104 6
q14 85 54 121.5t96 36.5q33 0 53 -14t36 -28t35 -14q12 0 23 9.5t15 36.5l104 -6q-13 -85 -53.5 -121.5t-96.5 -36.5z" />
    <glyph glyph-name="Umacron" unicode="&#x16a;" horiz-adv-x="654" 
d="M316 -12q-121 0 -181.5 57t-60.5 177q0 23 5 54t9 56l64 318h160l-70 -350q-3 -19 -5.5 -37.5t-2.5 -36.5q0 -49 18.5 -74.5t67.5 -25.5q44 0 70 36t42 120l74 368h156l-74 -364q-30 -153 -95.5 -225.5t-176.5 -72.5zM280 716l20 102h300l-20 -102h-300z" />
    <glyph glyph-name="umacron" unicode="&#x16b;" horiz-adv-x="552" 
d="M150 -12q-61 0 -89.5 33t-28.5 97q0 34 8 72l62 310h160l-58 -290q-3 -13 -5.5 -24t-2.5 -20q0 -42 42 -42q20 0 39 14t43 42l62 320h160l-98 -500h-130v64h-4q-31 -30 -73 -53t-87 -23zM188 590l20 100h294l-20 -100h-294z" />
    <glyph glyph-name="Ubreve" unicode="&#x16c;" horiz-adv-x="654" 
d="M316 -12q-121 0 -181.5 57t-60.5 177q0 23 5 54t9 56l64 318h160l-70 -350q-3 -19 -5.5 -37.5t-2.5 -36.5q0 -49 18.5 -74.5t67.5 -25.5q44 0 70 36t42 120l74 368h156l-74 -364q-30 -153 -95.5 -225.5t-176.5 -72.5zM429 694q-76 0 -113 34t-33 106l96 16
q1 -29 19.5 -43.5t48.5 -14.5q63 0 88 58l88 -16q-19 -72 -68 -106t-126 -34z" />
    <glyph glyph-name="ubreve" unicode="&#x16d;" horiz-adv-x="552" 
d="M150 -12q-61 0 -89.5 33t-28.5 97q0 34 8 72l62 310h160l-58 -290q-3 -13 -5.5 -24t-2.5 -20q0 -42 42 -42q20 0 39 14t43 42l62 320h160l-98 -500h-130v64h-4q-31 -30 -73 -53t-87 -23zM339 572q-88 0 -122 45t-24 115l100 16q-1 -30 14.5 -50t51.5 -20t58 20t32 50
l92 -16q-13 -70 -63 -115t-139 -45z" />
    <glyph glyph-name="Uring" unicode="&#x16e;" horiz-adv-x="654" 
d="M316 -12q-121 0 -181.5 57t-60.5 177q0 23 5 54t9 56l64 318h160l-70 -350q-3 -19 -5.5 -37.5t-2.5 -36.5q0 -49 18.5 -74.5t67.5 -25.5q44 0 70 36t42 120l74 368h156l-74 -364q-30 -153 -95.5 -225.5t-176.5 -72.5zM436 696q-46 0 -80 21t-34 67q0 31 17.5 57
t47.5 41.5t65 15.5q44 0 79 -21.5t35 -66.5q0 -32 -17.5 -58t-47 -41t-65.5 -15zM438 756q17 0 30.5 14.5t13.5 33.5q0 14 -8 24t-24 10q-19 0 -31.5 -15t-12.5 -33q0 -13 8 -23.5t24 -10.5z" />
    <glyph glyph-name="uring" unicode="&#x16f;" horiz-adv-x="552" 
d="M150 -12q-61 0 -89.5 33t-28.5 97q0 34 8 72l62 310h160l-58 -290q-3 -13 -5.5 -24t-2.5 -20q0 -42 42 -42q20 0 39 14t43 42l62 320h160l-98 -500h-130v64h-4q-31 -30 -73 -53t-87 -23zM336 570q-53 0 -87.5 24.5t-34.5 67.5q0 50 43.5 83t110.5 33q54 0 88 -24t34 -68
q0 -49 -43.5 -82.5t-110.5 -33.5zM346 630q18 0 31 15.5t13 36.5q0 14 -7.5 25t-24.5 11q-18 0 -31 -15.5t-13 -36.5q0 -15 8 -25.5t24 -10.5z" />
    <glyph glyph-name="Uhungarumlaut" unicode="&#x170;" horiz-adv-x="654" 
d="M316 -12q-121 0 -181.5 57t-60.5 177q0 23 5 54t9 56l64 318h160l-70 -350q-3 -19 -5.5 -37.5t-2.5 -36.5q0 -49 18.5 -74.5t67.5 -25.5q44 0 70 36t42 120l74 368h156l-74 -364q-30 -153 -95.5 -225.5t-176.5 -72.5zM358 693l-76 47l132 153l97 -69zM556 693l-76 47
l132 153l97 -69z" />
    <glyph glyph-name="uhungarumlaut" unicode="&#x171;" horiz-adv-x="552" 
d="M150 -12q-61 0 -89.5 33t-28.5 97q0 34 8 72l62 310h160l-58 -290q-3 -13 -5.5 -24t-2.5 -20q0 -42 42 -42q20 0 39 14t43 42l62 320h160l-98 -500h-130v64h-4q-31 -30 -73 -53t-87 -23zM288 566l-82 48l120 174l104 -60zM478 566l-82 48l120 174l104 -60z" />
    <glyph glyph-name="Uogonek" unicode="&#x172;" horiz-adv-x="654" 
d="M258 -226q-43 0 -70.5 21.5t-27.5 58.5q0 30 15 57.5t35.5 49t37.5 33.5q-85 15 -129.5 71.5t-44.5 156.5q0 23 5 54t9 56l64 318h160l-70 -350q-3 -19 -5.5 -37.5t-2.5 -36.5q0 -49 18.5 -74.5t67.5 -25.5q44 0 70 36t42 120l74 368h156l-74 -364q-16 -89 -43 -145.5
t-67.5 -90.5t-99.5 -56q-51 -18 -72.5 -42.5t-21.5 -45.5q0 -15 10.5 -22.5t23.5 -7.5q11 0 24 8l30 -76q-22 -15 -54.5 -24.5t-59.5 -9.5z" />
    <glyph glyph-name="uogonek" unicode="&#x173;" horiz-adv-x="552" 
d="M316 -212q-39 0 -64.5 19.5t-25.5 56.5q0 33 16.5 60t37.5 46.5t34 29.5v64h-4q-31 -30 -73 -53t-87 -23q-61 0 -89.5 33t-28.5 97q0 34 8 72l62 310h160l-58 -290q-3 -13 -5.5 -24t-2.5 -20q0 -42 42 -42q20 0 39 14t43 42l62 320h160l-98 -500q-48 -12 -76 -36t-28 -54
q0 -13 10.5 -20.5t23.5 -7.5t30 10l26 -64q-22 -16 -54.5 -28t-59.5 -12z" />
    <glyph glyph-name="Wcircumflex" unicode="&#x174;" horiz-adv-x="808" 
d="M70 0l28 650h164l-26 -294q-5 -51 -10.5 -103.5t-13.5 -104.5h4q20 52 41.5 105t40.5 103l123 294h133v-294q-1 -49 -4 -102l-6 -106h4q17 53 35 105.5t33 102.5l98 294h152l-246 -650h-202l8 278q0 29 3.5 71.5t7.5 79.5h-4q-13 -36 -28 -74.5t-29 -76.5l-108 -278h-198
zM384 680l-66 50l104 104h188l64 -110l-78 -44l-84 80h-4z" />
    <glyph glyph-name="wcircumflex" unicode="&#x175;" horiz-adv-x="764" 
d="M92 0l-19 500h158l-5 -222q-1 -37 -4.5 -74.5t-5.5 -75.5h4q14 38 27 76t29 74l91 222h136l5 -222q1 -37 -0.5 -74.5t-1.5 -75.5h4q14 38 25.5 75.5t24.5 74.5l80 222h148l-208 -500h-186v186q2 35 2 70.5t2 75.5h-4q-14 -40 -25.5 -75.5t-24.5 -70.5l-72 -186h-180z
M316 558l-54 64l128 124h176l84 -128l-70 -60l-110 88h-4z" />
    <glyph glyph-name="Ycircumflex" unicode="&#x176;" horiz-adv-x="528" 
d="M137 0l45 228l-103 422h166l21 -144q6 -37 11 -71t11 -73h4q20 39 37.5 74t38.5 72l78 142h172l-276 -422l-46 -228h-159zM244 680l-66 50l104 104h188l64 -110l-78 -44l-84 80h-4z" />
    <glyph glyph-name="ycircumflex" unicode="&#x177;" horiz-adv-x="518" 
d="M52 -188q-15 0 -38 6.5t-38 15.5l48 114q17 -10 38 -10q23 0 45.5 15.5t35.5 41.5l10 20l-88 485h159l18 -205q3 -32 4.5 -73.5t1.5 -77.5h4q15 35 32 76t32 75l90 205h154l-261 -499q-56 -97 -111.5 -143t-135.5 -46zM186 558l-54 64l128 124h176l84 -128l-70 -60
l-110 88h-4z" />
    <glyph glyph-name="Ydieresis" unicode="&#x178;" horiz-adv-x="528" 
d="M137 0l45 228l-103 422h166l21 -144q6 -37 11 -71t11 -73h4q20 39 37.5 74t38.5 72l78 142h172l-276 -422l-46 -228h-159zM250 696q-27 0 -45.5 17t-18.5 47t23 57t59 27q26 0 45 -17t19 -47t-23 -57t-59 -27zM470 696q-27 0 -45.5 17t-18.5 47t23 57t59 27q26 0 45 -17
t19 -47t-23 -57t-59 -27z" />
    <glyph glyph-name="Zacute" unicode="&#x179;" horiz-adv-x="530" 
d="M-6 0l20 96l330 420h-240l26 134h432l-20 -96l-326 -420h264l-28 -134h-458zM312 680l-61 92l207 127l70 -117z" />
    <glyph glyph-name="zacute" unicode="&#x17a;" horiz-adv-x="456" 
d="M-10 0l18 90l240 286h-164l24 124h364l-18 -92l-240 -284h190l-24 -124h-390zM296 578l-69 90l191 172l95 -122z" />
    <glyph glyph-name="Zdotaccent" unicode="&#x17b;" horiz-adv-x="530" 
d="M-6 0l20 96l330 420h-240l26 134h432l-20 -96l-326 -420h264l-28 -134h-458zM366 698q-31 0 -57.5 18.5t-26.5 55.5q0 36 28 63t68 27q32 0 58 -19t26 -55q0 -39 -27.5 -64.5t-68.5 -25.5z" />
    <glyph glyph-name="zdotaccent" unicode="&#x17c;" horiz-adv-x="456" 
d="M-10 0l18 90l240 286h-164l24 124h364l-18 -92l-240 -284h190l-24 -124h-390zM320 564q-31 0 -57.5 18.5t-26.5 55.5q0 36 28 63t68 27q32 0 58 -19t26 -55q0 -39 -27.5 -64.5t-68.5 -25.5z" />
    <glyph glyph-name="Zcaron" unicode="&#x17d;" horiz-adv-x="530" 
d="M-6 0l20 96l330 420h-240l26 134h432l-20 -96l-326 -420h264l-28 -134h-458zM268 700l-64 110l78 44l84 -80h4l124 80l66 -50l-104 -104h-188z" />
    <glyph glyph-name="zcaron" unicode="&#x17e;" horiz-adv-x="456" 
d="M-10 0l18 90l240 286h-164l24 124h364l-18 -92l-240 -284h190l-24 -124h-390zM232 580l-84 128l70 60l110 -88h4l150 88l54 -64l-128 -124h-176z" />
    <glyph glyph-name="uni0180" unicode="&#x180;" horiz-adv-x="556" 
d="M264 -12q-31 0 -58.5 17t-41.5 45h-2l-22 -50h-132l109 542h-67l18 90l68 6l12 58h160l-12 -58h156l-20 -96h-156l-2 -12l-26 -92h2q32 26 67 40t69 14q66 0 103 -45t37 -129q0 -69 -21 -129t-58 -105t-84 -70.5t-99 -25.5zM314 362q-19 0 -42.5 -11.5t-41.5 -44.5
l-30 -150q8 -19 22.5 -28.5t29.5 -9.5q29 0 53.5 23t39.5 63.5t15 93.5q0 34 -12.5 49t-33.5 15z" />
    <glyph glyph-name="uni018F" unicode="&#x18f;" horiz-adv-x="680" 
d="M308 -12q-112 0 -177 70t-65 190q0 39 6 69t18 67h406v2q0 72 -24.5 111t-83.5 39q-45 0 -76 -16.5t-58 -37.5l-66 108q41 36 94.5 59t125.5 23q120 0 184 -72t64 -198q0 -92 -27.5 -168t-76 -131t-111 -85t-133.5 -30zM320 124q49 0 92.5 38.5t65.5 105.5h-262
q-7 -46 6.5 -78t39.5 -49t58 -17z" />
    <glyph glyph-name="uni0192" unicode="&#x192;" horiz-adv-x="520" 
d="M68 -96q-24 0 -51.5 5.5t-48.5 20.5l44 112q8 -4 19.5 -8t24.5 -4q19 0 33 10t27 39t30 85l41 136h-69l22 108l74 6h8l18 60q32 107 85 151.5t143 44.5q21 0 45.5 -6t46.5 -18l-48 -114q-9 5 -20.5 8.5t-23.5 3.5q-27 0 -46.5 -19.5t-29.5 -50.5l-19 -60h93l-22 -114
h-106l-60 -194q-18 -56 -43.5 -102t-65.5 -73t-101 -27z" />
    <glyph glyph-name="uni0193" unicode="&#x193;" horiz-adv-x="620" 
d="M320 -12q-121 0 -192.5 72t-71.5 204q0 87 27.5 160t76.5 126t114.5 82.5t141.5 29.5q21 0 40 -3v11v10q4 39 26.5 72.5t60.5 53t87 14.5q32 -3 51.5 -10t34.5 -15l-49 -109q-7 4 -12 6t-13 3q-22 2 -38.5 -10t-18.5 -38q-1 -22 5.5 -43t13.5 -38l-108 -84q-35 42 -88 42
q-52 0 -94.5 -33.5t-68 -90t-25.5 -126.5t29.5 -110t98.5 -40q32 0 56 16l24 108h-96l24 130h236l-62 -322q-37 -28 -92 -48t-118 -20z" />
    <glyph glyph-name="Ohorn" unicode="&#x1a0;" horiz-adv-x="670" 
d="M308 -12q-75 0 -131.5 32.5t-88.5 94t-32 149.5q0 91 28 164t75.5 125.5t108 80.5t124.5 28q70 0 124 -28q39 6 56.5 32t17.5 56q0 12 -3.5 24.5t-8.5 25.5l118 36q18 -40 18 -78q0 -56 -33.5 -97t-97.5 -53q29 -35 45 -83.5t16 -110.5q0 -91 -28 -164t-75.5 -125.5
t-107.5 -80.5t-125 -28zM316 126q37 0 75 31.5t63.5 87.5t25.5 131q0 71 -25.5 109.5t-70.5 38.5q-37 0 -75 -31.5t-63.5 -87.5t-25.5 -131q0 -70 25.5 -109t70.5 -39z" />
    <glyph glyph-name="ohorn" unicode="&#x1a1;" horiz-adv-x="546" 
d="M226 -12q-60 0 -105 26t-70 73t-25 109q0 73 24.5 131t65.5 99.5t91.5 63.5t102.5 22q27 0 51 -5.5t45 -16.5q32 8 51 40t19 70q0 9 -3 24t-7 24l118 36q8 -16 12 -37.5t4 -38.5q0 -60 -31.5 -108.5t-98.5 -63.5q40 -54 40 -132q0 -73 -24.5 -131t-65.5 -99.5
t-91.5 -63.5t-102.5 -22zM244 116q29 0 52.5 24t37.5 66t14 96q0 38 -13.5 60t-42.5 22t-52.5 -24t-37.5 -66t-14 -96q0 -37 14 -59.5t42 -22.5z" />
    <glyph glyph-name="Uhorn" unicode="&#x1af;" horiz-adv-x="680" 
d="M316 -12q-121 0 -181.5 57t-60.5 177q0 23 5 54t9 56l64 318h160l-70 -350q-3 -19 -5.5 -37.5t-2.5 -36.5q0 -49 18.5 -74.5t67.5 -25.5q44 0 70 36t42 120l74 368h93q75 11 75 72q0 12 -3.5 24.5t-8.5 25.5l118 36q18 -40 18 -78q0 -110 -147 -136l-63 -308
q-30 -153 -95.5 -225.5t-176.5 -72.5z" />
    <glyph glyph-name="uhorn" unicode="&#x1b0;" horiz-adv-x="576" 
d="M150 -12q-61 0 -89.5 33t-28.5 97q0 34 8 72l62 310h160l-58 -290q-3 -13 -5.5 -24t-2.5 -20q0 -42 42 -42q20 0 39 14t43 42l62 320h74q33 5 52.5 33t19.5 67q0 9 -3 24t-7 24l118 36q8 -16 12 -37.5t4 -38.5q0 -57 -29 -100.5t-91 -61.5l-88 -446h-130v64h-4
q-31 -30 -73 -53t-87 -23z" />
    <glyph glyph-name="uni01C2" unicode="&#x1c2;" horiz-adv-x="444" 
d="M90 0l41 204h-134l18 94l74 6h62l17 86h-134l18 94l75 6h62l41 206h160l-41 -206h127l-20 -100h-128l-17 -86h128l-20 -100h-128l-41 -204h-160z" />
    <glyph glyph-name="uni01C3" unicode="&#x1c3;" horiz-adv-x="350" 
d="M120 238l38 292l24 166h162l-38 -166l-82 -292h-104zM126 -12q-36 0 -58 23.5t-22 60.5q0 27 14 53t38.5 42.5t57.5 16.5q36 0 58 -24t22 -60q0 -28 -13.5 -53.5t-38.5 -42t-58 -16.5z" />
    <glyph glyph-name="uni01CD" unicode="&#x1cd;" horiz-adv-x="562" 
d="M266 344l-34 -76h120l-2 76q-1 47 -2.5 92t-1.5 94h-4q-19 -48 -37 -93.5t-39 -92.5zM-66 0l340 650h192l62 -650h-168l-4 148h-179l-67 -148h-176zM288 700l-64 110l78 44l84 -80h4l124 80l66 -50l-104 -104h-188z" />
    <glyph glyph-name="uni01CE" unicode="&#x1ce;" horiz-adv-x="558" 
d="M168 -12q-66 0 -103 48t-37 136q0 71 22 133t59.5 108.5t85 72.5t99.5 26q32 0 61.5 -16.5t42.5 -45.5h2l22 50h128l-100 -500h-130v62h-2q-33 -34 -73.5 -54t-76.5 -20zM240 118q20 0 44.5 13t43.5 53l32 160q-9 20 -24.5 29t-29.5 9q-29 0 -54.5 -24t-41.5 -67t-16 -99
q0 -39 12.5 -56.5t33.5 -17.5zM252 580l-84 128l70 60l110 -88h4l150 88l54 -64l-128 -124h-176z" />
    <glyph glyph-name="uni01CF" unicode="&#x1cf;" horiz-adv-x="310" 
d="M26 0l130 650h160l-130 -650h-160zM158 700l-64 110l78 44l84 -80h4l124 80l66 -50l-104 -104h-188z" />
    <glyph glyph-name="uni01D0" unicode="&#x1d0;" horiz-adv-x="276" 
d="M8 0l100 500h160l-100 -500h-160zM122 580l-84 128l70 60l110 -88h4l150 88l54 -64l-128 -124h-176z" />
    <glyph glyph-name="uni01D1" unicode="&#x1d1;" horiz-adv-x="670" 
d="M308 -12q-75 0 -131.5 32.5t-88.5 94t-32 149.5q0 91 28 164t75.5 125.5t108 80.5t124.5 28q75 0 132 -32.5t88.5 -94t31.5 -149.5q0 -91 -28 -164t-75.5 -125.5t-107.5 -80.5t-125 -28zM316 126q37 0 75 31.5t63.5 87.5t25.5 131q0 71 -25.5 109.5t-70.5 38.5
q-37 0 -75 -31.5t-63.5 -87.5t-25.5 -131q0 -70 25.5 -109t70.5 -39zM328 700l-64 110l78 44l84 -80h4l124 80l66 -50l-104 -104h-188z" />
    <glyph glyph-name="uni01D2" unicode="&#x1d2;" horiz-adv-x="540" 
d="M226 -12q-60 0 -105 26t-70 73t-25 109q0 73 24.5 131t65.5 99.5t91.5 63.5t102.5 22q60 0 105 -26t70 -73t25 -109q0 -73 -24.5 -131t-65.5 -99.5t-91.5 -63.5t-102.5 -22zM244 116q29 0 52.5 24t37.5 66t14 96q0 38 -13.5 60t-42.5 22t-52.5 -24t-37.5 -66t-14 -96
q0 -37 14 -59.5t42 -22.5zM252 580l-84 128l70 60l110 -88h4l150 88l54 -64l-128 -124h-176z" />
    <glyph glyph-name="uni01D3" unicode="&#x1d3;" horiz-adv-x="654" 
d="M316 -12q-121 0 -181.5 57t-60.5 177q0 23 5 54t9 56l64 318h160l-70 -350q-3 -19 -5.5 -37.5t-2.5 -36.5q0 -49 18.5 -74.5t67.5 -25.5q44 0 70 36t42 120l74 368h156l-74 -364q-30 -153 -95.5 -225.5t-176.5 -72.5zM338 700l-64 110l78 44l84 -80h4l124 80l66 -50
l-104 -104h-188z" />
    <glyph glyph-name="uni01D4" unicode="&#x1d4;" horiz-adv-x="552" 
d="M150 -12q-61 0 -89.5 33t-28.5 97q0 34 8 72l62 310h160l-58 -290q-3 -13 -5.5 -24t-2.5 -20q0 -42 42 -42q20 0 39 14t43 42l62 320h160l-98 -500h-130v64h-4q-31 -30 -73 -53t-87 -23zM252 580l-84 128l70 60l110 -88h4l150 88l54 -64l-128 -124h-176z" />
    <glyph glyph-name="uni01D5" unicode="&#x1d5;" horiz-adv-x="654" 
d="M316 -12q-121 0 -181.5 57t-60.5 177q0 23 5 54t9 56l64 318h160l-70 -350q-3 -19 -5.5 -37.5t-2.5 -36.5q0 -49 18.5 -74.5t67.5 -25.5q44 0 70 36t42 120l74 368h156l-74 -364q-30 -153 -95.5 -225.5t-176.5 -72.5zM322 696q-24 0 -40 15.5t-16 40.5q0 27 20.5 50.5
t51.5 23.5q24 0 40 -15t16 -41q0 -27 -20 -50.5t-52 -23.5zM536 696q-24 0 -40 15.5t-16 40.5q0 27 20.5 50.5t51.5 23.5q24 0 40 -15t16 -41q0 -27 -20 -50.5t-52 -23.5zM308 872l14 74h302l-16 -74h-300z" />
    <glyph glyph-name="uni01D6" unicode="&#x1d6;" horiz-adv-x="552" 
d="M150 -12q-61 0 -89.5 33t-28.5 97q0 34 8 72l62 310h160l-58 -290q-3 -13 -5.5 -24t-2.5 -20q0 -42 42 -42q20 0 39 14t43 42l62 320h160l-98 -500h-130v64h-4q-31 -30 -73 -53t-87 -23zM226 566q-24 0 -39 16t-15 38q0 32 21.5 54t52.5 22q26 0 41 -14.5t15 -37.5
q0 -31 -21.5 -54.5t-54.5 -23.5zM444 566q-24 0 -39 16t-15 38q0 32 21.5 54t52.5 22q24 0 39 -14.5t15 -37.5q0 -31 -21 -54.5t-53 -23.5zM224 756l16 74h294l-16 -74h-294z" />
    <glyph glyph-name="uni01D7" unicode="&#x1d7;" horiz-adv-x="654" 
d="M316 -12q-121 0 -181.5 57t-60.5 177q0 23 5 54t9 56l64 318h160l-70 -350q-3 -19 -5.5 -37.5t-2.5 -36.5q0 -49 18.5 -74.5t67.5 -25.5q44 0 70 36t42 120l74 368h156l-74 -364q-30 -153 -95.5 -225.5t-176.5 -72.5zM314 696q-24 0 -40 15.5t-16 40.5q0 27 20.5 50.5
t51.5 23.5q24 0 40 -15t16 -41q0 -27 -20 -50.5t-52 -23.5zM528 696q-24 0 -40 15.5t-16 40.5q0 27 20.5 50.5t51.5 23.5q24 0 40 -15t16 -41q0 -27 -20 -50.5t-52 -23.5zM456 829l-66 50l123 144l94 -72z" />
    <glyph glyph-name="uni01D8" unicode="&#x1d8;" horiz-adv-x="552" 
d="M150 -12q-61 0 -89.5 33t-28.5 97q0 34 8 72l62 310h160l-58 -290q-3 -13 -5.5 -24t-2.5 -20q0 -42 42 -42q20 0 39 14t43 42l62 320h160l-98 -500h-130v64h-4q-31 -30 -73 -53t-87 -23zM382 719l-56 45l100 132l79 -66zM226 566q-24 0 -39 16t-15 38q0 32 21.5 54
t52.5 22q26 0 41 -14.5t15 -37.5q0 -31 -21.5 -54.5t-54.5 -23.5zM444 566q-24 0 -39 16t-15 38q0 32 21.5 54t52.5 22q24 0 39 -14.5t15 -37.5q0 -31 -21 -54.5t-53 -23.5z" />
    <glyph glyph-name="uni01D9" unicode="&#x1d9;" horiz-adv-x="654" 
d="M316 -12q-121 0 -181.5 57t-60.5 177q0 23 5 54t9 56l64 318h160l-70 -350q-3 -19 -5.5 -37.5t-2.5 -36.5q0 -49 18.5 -74.5t67.5 -25.5q44 0 70 36t42 120l74 368h156l-74 -364q-30 -153 -95.5 -225.5t-176.5 -72.5zM322 696q-24 0 -40 15.5t-16 40.5q0 27 20.5 50.5
t51.5 23.5q24 0 40 -15t16 -41q0 -27 -20 -50.5t-52 -23.5zM536 696q-24 0 -40 15.5t-16 40.5q0 27 20.5 50.5t51.5 23.5q24 0 40 -15t16 -41q0 -27 -20 -50.5t-52 -23.5zM380 860l-70 104l74 44l80 -72h4l104 72l62 -44l-106 -104h-148z" />
    <glyph glyph-name="uni01DA" unicode="&#x1da;" horiz-adv-x="552" 
d="M150 -12q-61 0 -89.5 33t-28.5 97q0 34 8 72l62 310h160l-58 -290q-3 -13 -5.5 -24t-2.5 -20q0 -42 42 -42q20 0 39 14t43 42l62 320h160l-98 -500h-130v64h-4q-31 -30 -73 -53t-87 -23zM300 744l-74 92l62 50l92 -62h4l112 62l46 -50l-106 -92h-136zM226 566
q-24 0 -39 16t-15 38q0 32 21.5 54t52.5 22q26 0 41 -14.5t15 -37.5q0 -31 -21.5 -54.5t-54.5 -23.5zM444 566q-24 0 -39 16t-15 38q0 32 21.5 54t52.5 22q24 0 39 -14.5t15 -37.5q0 -31 -21 -54.5t-53 -23.5z" />
    <glyph glyph-name="uni01DB" unicode="&#x1db;" horiz-adv-x="654" 
d="M316 -12q-121 0 -181.5 57t-60.5 177q0 23 5 54t9 56l64 318h160l-70 -350q-3 -19 -5.5 -37.5t-2.5 -36.5q0 -49 18.5 -74.5t67.5 -25.5q44 0 70 36t42 120l74 368h156l-74 -364q-30 -153 -95.5 -225.5t-176.5 -72.5zM314 696q-24 0 -40 15.5t-16 40.5q0 27 20.5 50.5
t51.5 23.5q24 0 40 -15t16 -41q0 -27 -20 -50.5t-52 -23.5zM528 696q-24 0 -40 15.5t-16 40.5q0 27 20.5 50.5t51.5 23.5q24 0 40 -15t16 -41q0 -27 -20 -50.5t-52 -23.5zM420 825l-104 143l118 54l68 -160z" />
    <glyph glyph-name="uni01DC" unicode="&#x1dc;" horiz-adv-x="552" 
d="M150 -12q-61 0 -89.5 33t-28.5 97q0 34 8 72l62 310h160l-58 -290q-3 -13 -5.5 -24t-2.5 -20q0 -42 42 -42q20 0 39 14t43 42l62 320h160l-98 -500h-130v64h-4q-31 -30 -73 -53t-87 -23zM226 566q-24 0 -39 16t-15 38q0 32 21.5 54t52.5 22q26 0 41 -14.5t15 -37.5
q0 -31 -21.5 -54.5t-54.5 -23.5zM444 566q-24 0 -39 16t-15 38q0 32 21.5 54t52.5 22q24 0 39 -14.5t15 -37.5q0 -31 -21 -54.5t-53 -23.5zM350 715l-80 130l100 49l51 -145z" />
    <glyph glyph-name="uni01E2" unicode="&#x1e2;" horiz-adv-x="852" 
d="M350 360l-55 -96h108l54 272h-3q-27 -46 -52.5 -88.5t-51.5 -87.5zM-36 0l408 650h496l-26 -134h-230l-22 -114h194l-26 -134h-194l-28 -134h238l-26 -134h-398l28 140h-154l-80 -140h-180zM480 728l20 102h300l-20 -102h-300z" />
    <glyph glyph-name="uni01E3" unicode="&#x1e3;" horiz-adv-x="752" 
d="M154 -12q-58 0 -97 34.5t-39 91.5q0 74 40.5 117t108.5 62t149 21v12q0 33 -15.5 47.5t-44.5 14.5q-27 0 -57.5 -9.5t-66.5 -26.5l-34 110q47 23 97 36.5t101 13.5q85 0 122 -56q67 56 140 56q61 0 97.5 -26t52.5 -69t16 -95q0 -36 -10 -70.5t-16 -45.5h-262
q-1 -55 26.5 -76.5t69.5 -21.5q20 0 43 10t39 22l56 -100q-28 -21 -72.5 -36.5t-101.5 -15.5q-52 0 -94.5 22t-64.5 53q-43 -35 -86 -55t-97 -20zM220 110q39 0 78 48l-2 28t0 32q-66 -1 -94 -22t-28 -50q0 -16 12.5 -26t33.5 -10zM448 302h142q2 8 3 14.5t1 13.5
q0 26 -12 43t-44 17q-25 0 -50 -20.5t-40 -67.5zM308 590l20 100h294l-20 -100h-294z" />
    <glyph glyph-name="Gcaron" unicode="&#x1e6;" horiz-adv-x="620" 
d="M320 -12q-121 0 -192.5 72t-71.5 204q0 87 27.5 160t76.5 126t114.5 82.5t141.5 29.5q65 0 112.5 -27.5t75.5 -78.5l-108 -84q-35 52 -88 52q-52 0 -94.5 -33.5t-68 -90t-25.5 -126.5t29.5 -110t98.5 -40q32 0 56 16l24 108h-96l24 130h236l-62 -322q-37 -28 -92 -48
t-118 -20zM328 700l-64 110l78 44l84 -80h4l124 80l66 -50l-104 -104h-188z" />
    <glyph glyph-name="gcaron" unicode="&#x1e7;" horiz-adv-x="552" 
d="M180 -196q-42 0 -92.5 17t-95.5 53l68 106q29 -21 60 -35.5t64 -14.5q41 0 69.5 19.5t40.5 56.5l26 82q-65 -68 -146 -68q-63 0 -104.5 43t-41.5 131q0 67 21 124.5t57.5 101t83 68t98.5 24.5q32 0 60.5 -16.5t41.5 -45.5h2l22 50h130l-96 -480q-22 -112 -91.5 -164
t-176.5 -52zM238 150q21 0 45 11t43 45l26 138q-9 20 -23.5 29t-28.5 9q-43 0 -74.5 -46.5t-31.5 -121.5q0 -33 12.5 -48.5t31.5 -15.5zM242 580l-84 128l70 60l110 -88h4l150 88l54 -64l-128 -124h-176z" />
    <glyph glyph-name="uni01EA" unicode="&#x1ea;" horiz-adv-x="670" 
d="M266 -226q-43 0 -70.5 21.5t-27.5 58.5q0 31 14.5 57.5t34.5 47.5t37 34q-90 16 -144 86t-54 185q0 91 28 164t75.5 125.5t108 80.5t124.5 28q75 0 132 -32.5t88.5 -94t31.5 -149.5q0 -96 -32 -175t-90.5 -134t-137.5 -79q-49 -15 -70.5 -42.5t-21.5 -49.5
q0 -15 10.5 -22.5t23.5 -7.5q11 0 24 8l30 -76q-22 -15 -54.5 -24.5t-59.5 -9.5zM316 126q37 0 75 31.5t63.5 87.5t25.5 131q0 71 -25.5 109.5t-70.5 38.5q-37 0 -75 -31.5t-63.5 -87.5t-25.5 -131q0 -70 25.5 -109t70.5 -39z" />
    <glyph glyph-name="uni01EB" unicode="&#x1eb;" horiz-adv-x="540" 
d="M182 -212q-39 0 -64.5 19.5t-25.5 56.5q0 29 14 54t33 44.5t35 31.5q-67 15 -107.5 69t-40.5 133q0 73 24.5 131t65.5 99.5t91.5 63.5t102.5 22q56 0 101.5 -24.5t72 -71t26.5 -112.5q0 -74 -27 -137t-78 -108t-123 -65q-39 -10 -57.5 -35.5t-18.5 -48.5
q0 -13 10.5 -20.5t23.5 -7.5t30 10l26 -64q-22 -16 -54.5 -28t-59.5 -12zM244 116q29 0 52.5 24t37.5 66t14 96q0 38 -13.5 60t-42.5 22t-52.5 -24t-37.5 -66t-14 -96q0 -37 14 -59.5t42 -22.5z" />
    <glyph glyph-name="uni01F4" unicode="&#x1f4;" horiz-adv-x="620" 
d="M320 -12q-121 0 -192.5 72t-71.5 204q0 87 27.5 160t76.5 126t114.5 82.5t141.5 29.5q65 0 112.5 -27.5t75.5 -78.5l-108 -84q-35 52 -88 52q-52 0 -94.5 -33.5t-68 -90t-25.5 -126.5t29.5 -110t98.5 -40q32 0 56 16l24 108h-96l24 130h236l-62 -322q-37 -28 -92 -48
t-118 -20zM372 680l-61 92l207 127l70 -117z" />
    <glyph glyph-name="uni01F5" unicode="&#x1f5;" horiz-adv-x="552" 
d="M180 -196q-42 0 -92.5 17t-95.5 53l68 106q29 -21 60 -35.5t64 -14.5q41 0 69.5 19.5t40.5 56.5l26 82q-65 -68 -146 -68q-63 0 -104.5 43t-41.5 131q0 67 21 124.5t57.5 101t83 68t98.5 24.5q32 0 60.5 -16.5t41.5 -45.5h2l22 50h130l-96 -480q-22 -112 -91.5 -164
t-176.5 -52zM238 150q21 0 45 11t43 45l26 138q-9 20 -23.5 29t-28.5 9q-43 0 -74.5 -46.5t-31.5 -121.5q0 -33 12.5 -48.5t31.5 -15.5zM306 578l-69 90l191 172l95 -122z" />
    <glyph glyph-name="uni01F8" unicode="&#x1f8;" horiz-adv-x="652" 
d="M26 0l130 650h154l90 -308l32 -146h4q5 53 9.5 120.5t16.5 125.5l42 208h152l-130 -650h-154l-90 308l-30 146h-4q-4 -55 -10 -120t-18 -124l-42 -210h-152zM438 670l-175 136l109 101l156 -159z" />
    <glyph glyph-name="uni01F9" unicode="&#x1f9;" horiz-adv-x="562" 
d="M8 0l100 500h130v-64h4q35 30 75.5 53t88.5 23q62 0 90 -32.5t28 -97.5q0 -34 -8 -72l-62 -310h-160l58 290q3 14 5.5 24.5t2.5 19.5q0 42 -42 42q-21 0 -41 -13.5t-47 -42.5l-62 -320h-160zM406 569l-162 173l136 102l124 -199z" />
    <glyph glyph-name="uni01FC" unicode="&#x1fc;" horiz-adv-x="852" 
d="M350 360l-55 -96h108l54 272h-3q-27 -46 -52.5 -88.5t-51.5 -87.5zM-36 0l408 650h496l-26 -134h-230l-22 -114h194l-26 -134h-194l-28 -134h238l-26 -134h-398l28 140h-154l-80 -140h-180zM582 692l-61 92l207 127l70 -117z" />
    <glyph glyph-name="uni01FD" unicode="&#x1fd;" horiz-adv-x="752" 
d="M154 -12q-58 0 -97 34.5t-39 91.5q0 74 40.5 117t108.5 62t149 21v12q0 33 -15.5 47.5t-44.5 14.5q-27 0 -57.5 -9.5t-66.5 -26.5l-34 110q47 23 97 36.5t101 13.5q85 0 122 -56q67 56 140 56q61 0 97.5 -26t52.5 -69t16 -95q0 -36 -10 -70.5t-16 -45.5h-262
q-1 -55 26.5 -76.5t69.5 -21.5q20 0 43 10t39 22l56 -100q-28 -21 -72.5 -36.5t-101.5 -15.5q-52 0 -94.5 22t-64.5 53q-43 -35 -86 -55t-97 -20zM220 110q39 0 78 48l-2 28t0 32q-66 -1 -94 -22t-28 -50q0 -16 12.5 -26t33.5 -10zM448 302h142q2 8 3 14.5t1 13.5
q0 26 -12 43t-44 17q-25 0 -50 -20.5t-40 -67.5zM436 578l-69 90l191 172l95 -122z" />
    <glyph glyph-name="uni0218" unicode="&#x218;" horiz-adv-x="538" 
d="M240 -12q-62 0 -124.5 28.5t-113.5 96.5l114 90q26 -35 62.5 -57t73.5 -22q35 0 55.5 15t20.5 42q0 22 -20 35.5t-54 34.5l-56 35q-45 29 -70.5 67t-25.5 99q0 59 32 106.5t86.5 75.5t120.5 28q57 0 109.5 -27t92.5 -74l-100 -94q-25 25 -50.5 41t-57.5 16
q-34 0 -51.5 -16.5t-17.5 -39.5q0 -20 20.5 -33.5t59.5 -38.5l60 -37q47 -28 67.5 -63t20.5 -92q0 -59 -31 -108.5t-88 -78.5t-135 -29zM86 -252v66q58 3 81.5 13.5t23.5 26.5q0 9 -11 18.5t-43 9.5l44 60q56 -2 85 -12t39.5 -26t10.5 -36q0 -41 -30 -66.5t-82 -38.5
t-118 -15z" />
    <glyph glyph-name="uni0219" unicode="&#x219;" horiz-adv-x="432" 
d="M172 -12q-29 0 -63 11t-65.5 32.5t-53.5 54.5l92 76q27 -31 52.5 -44.5t47.5 -13.5q23 0 39.5 9.5t16.5 24.5q0 20 -22.5 32t-61.5 34q-37 21 -66.5 56t-29.5 84q0 48 27 86t73 60t102 22q54 0 96.5 -23.5t73.5 -56.5l-86 -82q-18 18 -39 31t-45 13t-38 -10.5t-14 -25.5
q0 -21 26 -33t54 -29q24 -13 47 -31.5t38 -45t15 -63.5q0 -50 -27.5 -88t-76.5 -59t-112 -21zM16 -244v66q58 3 81.5 13.5t23.5 26.5q0 9 -11 18.5t-43 9.5l44 60q56 -2 85 -12t39.5 -26t10.5 -36q0 -41 -30 -66.5t-82 -38.5t-118 -15z" />
    <glyph glyph-name="uni021A" unicode="&#x21a;" horiz-adv-x="540" 
d="M142 0l102 516h-164l26 134h488l-26 -134h-164l-102 -516h-160zM76 -244v66q58 3 81.5 13.5t23.5 26.5q0 9 -11 18.5t-43 9.5l44 60q56 -2 85 -12t39.5 -26t10.5 -36q0 -41 -30 -66.5t-82 -38.5t-118 -15z" />
    <glyph glyph-name="uni021B" unicode="&#x21b;" horiz-adv-x="384" 
d="M210 -12q-79 0 -114.5 39.5t-35.5 100.5q0 17 2.5 33.5t5.5 32.5l38 182h-64l24 118l72 6l44 128h134l-24 -128h108l-24 -124h-112l-38 -188q-1 -9 -1.5 -16.5t-0.5 -15.5q0 -44 48 -44q9 0 18 3t18 7l28 -112q-21 -7 -52.5 -14.5t-73.5 -7.5zM36 -244v66q58 3 81.5 13.5
t23.5 26.5q0 9 -11 18.5t-43 9.5l44 60q56 -2 85 -12t39.5 -26t10.5 -36q0 -41 -30 -66.5t-82 -38.5t-118 -15z" />
    <glyph glyph-name="uni0237" unicode="&#x237;" horiz-adv-x="278" 
d="M-30 -188q-27 0 -52 5.5t-52 18.5l48 114q21 -12 42 -12q24 0 35.5 16.5t20.5 55.5l98 490h160l-100 -498q-11 -52 -34 -95t-63.5 -69t-102.5 -26z" />
    <glyph glyph-name="uni0243" unicode="&#x243;" horiz-adv-x="630" 
d="M44 0l33 166h-87l18 90l88 6l78 388h208q66 0 117 -14.5t80 -45t29 -80.5q0 -49 -36 -90.5t-104 -61.5l-2 -4q110 -30 110 -128q0 -81 -40 -131t-105 -72.5t-141 -22.5h-246zM226 112h74q57 0 89.5 32t32.5 86q0 76 -84 76h-74l-9 -44h117l-18 -96h-117zM286 406h50
q56 0 82 20t26 56q0 54 -88 54h-44z" />
    <glyph glyph-name="uni0250" unicode="&#x250;" horiz-adv-x="516" 
d="M224 -12q-85 0 -131.5 43t-46.5 127q0 17 1.5 32t5.5 36l55 274h130v-64h4q32 32 70.5 54t85.5 22q53 0 79.5 -29.5t26.5 -74.5q0 -57 -29 -105.5t-94.5 -82t-176.5 -46.5v-6q0 -25 15 -40.5t43 -15.5q32 0 62 10.5t72 31.5l43 -100q-55 -31 -108.5 -48.5t-106.5 -17.5z
M222 278q72 11 99 30t27 44q0 13 -9.5 25.5t-24.5 12.5q-21 0 -40.5 -12t-37.5 -32z" />
    <glyph glyph-name="uni0251" unicode="&#x251;" horiz-adv-x="566" 
d="M168 -12q-66 0 -103 48t-37 136q0 71 22 133t59.5 108.5t85 72.5t99.5 26q32 0 61.5 -16.5t42.5 -45.5h2l22 50h128l-70 -350q-1 -6 -1.5 -9.5t-0.5 -6.5q0 -18 15 -18q2 0 5.5 0.5t9.5 1.5l-6 -118q-18 -4 -38.5 -8t-43.5 -4q-36 0 -62.5 15.5t-37.5 58.5h-2
q-33 -34 -73.5 -54t-76.5 -20zM240 118q20 0 44.5 13t43.5 53l32 160q-9 20 -24.5 29t-29.5 9q-29 0 -54.5 -24t-41.5 -67t-16 -99q0 -39 12.5 -56.5t33.5 -17.5z" />
    <glyph glyph-name="uni0252" unicode="&#x252;" horiz-adv-x="566" 
d="M270 -12q-31 0 -58.5 17t-41.5 45h-2l-22 -50h-132l70 350q2 6 2 9.5v6.5q0 18 -15 18h-5t-10 -2l6 118q18 5 39 8.5t43 3.5q36 0 63 -15t37 -59h2q33 35 73.5 54.5t76.5 19.5q66 0 103 -47.5t37 -136.5q0 -71 -22 -133t-59.5 -108.5t-85 -72.5t-99.5 -26zM258 118
q29 0 54.5 24t41.5 67t16 99q0 39 -12.5 56.5t-33.5 17.5q-19 0 -42.5 -11.5t-41.5 -44.5l-34 -170q8 -19 22.5 -28.5t29.5 -9.5z" />
    <glyph glyph-name="uni0253" unicode="&#x253;" horiz-adv-x="560" 
d="M264 -12q-31 0 -58.5 17t-41.5 45h-2l-22 -50h-132l104 514q11 54 35 98t67.5 70t113.5 26q67 0 124 -30l-50 -112q-10 6 -27 11t-31 5q-28 0 -44.5 -11t-25.5 -41l-26 -92h2q32 26 67 40t69 14q66 0 103 -45t37 -129q0 -69 -21 -129t-58 -105t-84 -70.5t-99 -25.5z
M252 118q29 0 53.5 23t39.5 63.5t15 93.5q0 34 -12.5 49t-33.5 15q-19 0 -42.5 -11.5t-41.5 -44.5l-30 -150q8 -19 22.5 -28.5t29.5 -9.5z" />
    <glyph glyph-name="uni0254" unicode="&#x254;" horiz-adv-x="459" 
d="M140 -12q-48 0 -88.5 17t-63.5 45l82 102q16 -15 35 -25.5t41 -10.5q53 0 91.5 45t38.5 127q0 50 -19 73t-49 23q-18 0 -34.5 -6.5t-39.5 -23.5l-63 96q33 26 79 44t99 18q55 0 98 -24.5t68 -71t25 -112.5q0 -73 -24.5 -131t-67 -99.5t-96 -63.5t-112.5 -22z" />
    <glyph glyph-name="uni0255" unicode="&#x255;" horiz-adv-x="484" 
d="M306 184q-35 0 -90 -50q21 -18 60 -18q26 0 41 14.5t15 29.5q0 9 -6 16.5t-20 7.5zM74 -74l-86 38q18 32 35.5 60t35.5 53q-16 24 -24.5 54t-8.5 65q0 63 22.5 120t63 101t95.5 69.5t119 25.5q48 0 83 -19.5t53 -42.5l-88 -94q-13 14 -26.5 21t-31.5 7q-48 0 -82 -44
t-42 -109q79 65 150 65q50 0 82 -30.5t32 -83.5t-30 -97t-79 -70.5t-107 -26.5q-66 0 -116 29q-13 -21 -25.5 -43.5t-24.5 -47.5z" />
    <glyph glyph-name="uni0256" unicode="&#x256;" horiz-adv-x="557" 
d="M408 -188q-60 0 -86 29t-26 77q0 12 1.5 28.5t6.5 43.5t16 72h-2q-33 -34 -73.5 -54t-76.5 -20q-66 0 -103 48t-37 136q0 71 22 133t59.5 108.5t85 72.5t99.5 26q32 0 57.5 -15t38.5 -41h2l10 94l28 146h160l-142 -712q-1 -7 -1.5 -11t-0.5 -8q0 -14 6 -19.5t16 -5.5
q13 0 28 6l24 -114q-18 -6 -48 -13t-64 -7zM240 118q20 0 43.5 13t44.5 53l32 160q-9 20 -24.5 29t-29.5 9q-29 0 -54.5 -24t-41.5 -67t-16 -99q0 -39 12.5 -56.5t33.5 -17.5z" />
    <glyph glyph-name="uni0257" unicode="&#x257;" horiz-adv-x="557" 
d="M168 -12q-66 0 -103 48t-37 136q0 71 22 133t59.5 108.5t85 72.5t99.5 26q32 0 57.5 -15t38.5 -41h2l12 84q9 44 34.5 82.5t70 62t111.5 23.5q18 0 35 -3.5t27 -8.5l-46 -118q-8 4 -20 4q-22 0 -38.5 -14.5t-23.5 -49.5l-104 -518h-130v62h-2q-33 -34 -73.5 -54
t-76.5 -20zM240 118q20 0 43.5 13t44.5 53l32 160q-9 20 -24.5 29t-29.5 9q-29 0 -54.5 -24t-41.5 -67t-16 -99q0 -39 12.5 -56.5t33.5 -17.5z" />
    <glyph glyph-name="uni0258" unicode="&#x258;" horiz-adv-x="502" 
d="M170 -12q-40 0 -87 15t-80 43l66 92q47 -30 96 -30q41 0 75 24.5t56 73.5h-272q0 59 19 113.5t54 98t83.5 69t107.5 25.5q82 0 133 -51t51 -143q0 -67 -22 -126.5t-62.5 -105.5t-95.5 -72t-122 -26zM170 302h152q2 5 3 13t1 15q0 26 -12 43t-44 17q-28 0 -56.5 -21.5
t-43.5 -66.5z" />
    <glyph glyph-name="uni0259" unicode="&#x259;" horiz-adv-x="502" 
d="M190 -12q-61 0 -97.5 26t-52.5 69t-16 95q0 32 9 65t19 51h270q-1 56 -25 77t-59 21q-18 0 -42.5 -8t-47.5 -20l-46 102q44 23 87 34.5t89 11.5q86 0 140 -54t54 -162q0 -69 -25 -125.5t-66 -97.5t-91 -63t-100 -22zM210 110q29 0 56.5 20t43.5 68h-152q-1 -7 -2.5 -13.5
t-1.5 -14.5q0 -25 12.5 -42.5t43.5 -17.5z" />
    <glyph glyph-name="uni025A" unicode="&#x25a;" horiz-adv-x="720" 
d="M196 -12q-60 0 -99 26t-58 69t-19 95q0 11 1.5 24t2.5 20l292 114q-10 29 -31 40.5t-47 11.5q-21 0 -45.5 -8t-50.5 -22l-48 106q45 23 87 35.5t93 12.5q65 0 113.5 -30t69.5 -91l193 75q-12 -42 -17 -72.5t-5 -53.5q0 -27 9 -38.5t25 -11.5q14 0 23.5 3t17.5 7l17 -80
q-19 -10 -41.5 -18t-54.5 -8q-34 0 -62 20t-28 66q0 20 6 44l-68 -27v-1q0 -69 -23.5 -125.5t-63 -97.5t-88.5 -63t-101 -22zM150 168q0 -30 17 -44t45 -14q18 0 39 12.5t39.5 40t26.5 72.5z" />
    <glyph glyph-name="uni025B" unicode="&#x25b;" horiz-adv-x="454" 
d="M214 -12q-51 0 -95.5 13.5t-72.5 42.5t-28 74q0 50 32 88.5t98 53.5v4q-33 11 -50.5 34.5t-17.5 49.5q0 45 27.5 82.5t79.5 59.5t125 22q87 0 152 -44l-76 -102q-40 24 -89 24q-29 0 -45 -15t-16 -35q0 -19 13.5 -28.5t34.5 -9.5h70l-20 -96h-84q-37 0 -53.5 -14
t-16.5 -37q0 -22 20.5 -34.5t52.5 -12.5q18 0 44.5 6t54.5 20l38 -98q-50 -28 -92 -38t-86 -10z" />
    <glyph glyph-name="uni025C" unicode="&#x25c;" horiz-adv-x="454" 
d="M158 -12q-43 0 -82 9t-78 37l58 102q26 -15 54 -21.5t52 -6.5q36 0 59 16t23 44q0 38 -62 38h-70l18 96h70q33 0 49.5 13.5t16.5 34.5q0 18 -12.5 29t-39.5 11q-25 0 -46 -6.5t-46 -17.5l-42 102q44 23 88 33.5t90 10.5q45 0 82 -12.5t59.5 -40t22.5 -71.5
q0 -40 -27 -75.5t-77 -50.5v-4q45 -10 64.5 -30.5t19.5 -55.5q0 -55 -34.5 -96.5t-90.5 -64.5t-119 -23z" />
    <glyph glyph-name="uni025E" unicode="&#x25e;" horiz-adv-x="544" 
d="M242 -12q-106 0 -161 57.5t-55 150.5q0 73 25.5 131t69 99.5t99 63.5t116.5 22q48 0 88 -12.5t64 -40t24 -71.5q0 -40 -27 -75.5t-77 -50.5v-4q45 -10 64.5 -30.5t19.5 -55.5q0 -55 -36 -96.5t-93.5 -64.5t-120.5 -23zM264 108q33 0 51.5 16t18.5 44q0 38 -62 38h-20
l18 96h20q33 0 49.5 13.5t16.5 34.5q0 18 -12.5 29t-37.5 11q-34 0 -60.5 -24.5t-42 -68t-15.5 -99.5q0 -41 17.5 -65.5t58.5 -24.5z" />
    <glyph glyph-name="uni025F" unicode="&#x25f;" horiz-adv-x="326" 
d="M-6 -188q-27 0 -52 5.5t-52 18.5l48 114q21 -12 42 -12q24 0 35.5 16.5t20.5 55.5l39 196h-87l18 90l88 6l40 198h160l-40 -198h82l-18 -96h-83l-41 -204q-11 -52 -34 -95t-63.5 -69t-102.5 -26z" />
    <glyph glyph-name="uni0260" unicode="&#x260;" horiz-adv-x="568" 
d="M180 -196q-42 0 -92.5 17t-95.5 53l68 106q29 -21 60 -35.5t64 -14.5q41 0 69.5 19.5t40.5 56.5l26 82q-65 -68 -146 -68q-63 0 -104.5 43t-41.5 131q0 67 21 124.5t57.5 101t83 68t98.5 24.5q32 0 57.5 -15t38.5 -41h2l8 38q9 44 34 82.5t68.5 62t109.5 23.5
q18 0 35 -3.5t27 -8.5l-46 -118q-8 4 -20 4q-22 0 -38 -14t-24 -50l-92 -452q-23 -112 -92 -164t-176 -52zM238 150q21 0 45 11t43 45l26 138q-9 20 -23.5 29t-28.5 9q-43 0 -74.5 -46.5t-31.5 -121.5q0 -33 12.5 -48.5t31.5 -15.5z" />
    <glyph glyph-name="uni0261" unicode="&#x261;" horiz-adv-x="552" 
d="M180 -196q-42 0 -92.5 17t-95.5 53l68 106q29 -21 60 -35.5t64 -14.5q41 0 69.5 19.5t40.5 56.5l26 82q-65 -68 -146 -68q-63 0 -104.5 43t-41.5 131q0 67 21 124.5t57.5 101t83 68t98.5 24.5q32 0 60.5 -16.5t41.5 -45.5h2l22 50h130l-96 -480q-22 -112 -91.5 -164
t-176.5 -52zM238 150q21 0 45 11t43 45l26 138q-9 20 -23.5 29t-28.5 9q-43 0 -74.5 -46.5t-31.5 -121.5q0 -33 12.5 -48.5t31.5 -15.5z" />
    <glyph glyph-name="uni0262" unicode="&#x262;" horiz-adv-x="503" 
d="M235 -12q-55 0 -103 22.5t-77 69.5t-29 120q0 67 25.5 124t69 99t98 65.5t113.5 23.5t95 -16t63 -42l-84 -96q-21 17 -38 24.5t-44 7.5q-37 0 -67.5 -24t-48.5 -65.5t-18 -95.5q0 -46 19.5 -71.5t53.5 -25.5q11 0 20.5 1.5t18.5 6.5l18 90h-70l20 96h204l-50 -252
q-34 -27 -85 -44.5t-104 -17.5z" />
    <glyph glyph-name="uni0263" unicode="&#x263;" horiz-adv-x="518" 
d="M160 -206q-64 0 -100 33.5t-36 90.5q0 48 24.5 93t74.5 101l-63 388h160l12 -188q3 -40 5.5 -71.5t4.5 -75.5h4q20 44 34.5 76t33.5 71l84 188h156l-221 -404q14 -38 17.5 -62.5t3.5 -47.5q0 -52 -24.5 -95.5t-68 -70t-101.5 -26.5zM181 -100q19 0 32 15t13 48
q0 30 -10 71h-4q-28 -30 -44 -57t-16 -46q0 -15 8 -23t21 -8z" />
    <glyph glyph-name="uni0264" unicode="&#x264;" horiz-adv-x="568" 
d="M236 -12q-47 0 -85.5 16.5t-61.5 49.5t-23 84q0 59 36 109t108 105q-19 20 -38 26t-42 6q-9 0 -20.5 -3.5t-19.5 -8.5l-38 118q41 22 100 22q93 0 168 -80q53 44 95 62t81 18q27 0 52 -7t38 -19l-62 -114q-21 12 -46 12q-18 0 -35.5 -8t-40.5 -28q29 -36 48.5 -75.5
t19.5 -78.5q0 -52 -27 -99t-79.5 -77t-127.5 -30zM256 108q28 0 44 25t16 57q0 45 -30 80q-33 -26 -49.5 -58t-16.5 -58q0 -46 36 -46z" />
    <glyph glyph-name="uni0265" unicode="&#x265;" horiz-adv-x="558" 
d="M252 -176l30 142l24 88h-4q-30 -27 -68.5 -46.5t-83.5 -19.5q-61 0 -89.5 33t-28.5 97q0 17 2 35.5t6 36.5l62 310h160l-58 -290q-3 -13 -5.5 -24t-2.5 -20q0 -42 42 -42q21 0 41 14t47 42l62 320h160l-136 -676h-160z" />
    <glyph glyph-name="uni0266" unicode="&#x266;" horiz-adv-x="556" 
d="M8 0l104 514q11 54 35 98t67.5 70t113.5 26q67 0 124 -30l-50 -112q-10 6 -27 11t-31 5q-28 0 -44.5 -11t-25.5 -41l-28 -104h4q30 27 68.5 46.5t83.5 19.5q62 0 90 -32.5t28 -97.5q0 -34 -8 -72l-58 -290h-160l54 270q3 14 5.5 24.5t2.5 19.5q0 42 -42 42
q-21 0 -41 -13.5t-47 -42.5l-58 -300h-160z" />
    <glyph glyph-name="uni0267" unicode="&#x267;" horiz-adv-x="556" 
d="M254 -188q-27 0 -52 5.5t-52 18.5l48 114q21 -12 42 -12q24 0 36.5 16.5t19.5 55.5l52 260q3 14 5.5 24.5t2.5 19.5q0 42 -42 42q-21 0 -41 -13.5t-47 -42.5l-58 -300h-160l104 514q11 54 35 98t67.5 70t113.5 26q67 0 124 -30l-50 -112q-10 6 -27 11t-31 5
q-28 0 -44.5 -11t-25.5 -41l-28 -104h4q30 27 68.5 46.5t83.5 19.5q62 0 90 -32.5t28 -97.5q0 -34 -8 -72l-58 -288q-11 -54 -34 -97t-63.5 -68t-102.5 -25z" />
    <glyph glyph-name="uni0268" unicode="&#x268;" horiz-adv-x="340" 
d="M34 0l41 206h-87l18 90l88 6l40 198h160l-40 -198h82l-18 -96h-83l-41 -206h-160zM230 564q-31 0 -57.5 18.5t-26.5 55.5q0 36 28 63t68 27q32 0 58 -19t26 -55q0 -39 -27.5 -64.5t-68.5 -25.5z" />
    <glyph glyph-name="uni0269" unicode="&#x269;" horiz-adv-x="286" 
d="M148 -12q-61 0 -87.5 29.5t-26.5 80.5q0 15 2 31t6 37l68 334h160l-70 -340q-1 -7 -1.5 -11t-0.5 -8q0 -14 6.5 -19.5t13.5 -5.5q5 0 8.5 0.5t9.5 1.5l-6 -118q-13 -4 -34 -8t-48 -4z" />
    <glyph glyph-name="uni026A" unicode="&#x26a;" horiz-adv-x="399" 
d="M12 0l26 124h66l50 252h-66l24 124h292l-24 -124h-66l-50 -252h66l-24 -124h-294z" />
    <glyph glyph-name="uni026B" unicode="&#x26b;" horiz-adv-x="476" 
d="M252 -12q-61 0 -87.5 29.5t-26.5 80.5q0 15 2 31t6 37l106 530h160l-108 -536q-1 -7 -1.5 -11t-0.5 -8q0 -14 6.5 -19.5t13.5 -5.5q5 0 8.5 0.5t9.5 1.5l-6 -118q-13 -4 -34 -8t-48 -4zM368 274q-52 0 -90 14t-68 28t-59 14q-12 0 -21 -9t-17 -33l-102 22q17 74 54.5 106
t88.5 32q54 0 91.5 -14t67 -28t58.5 -14q12 0 21.5 9t16.5 33l102 -22q-17 -73 -54.5 -105.5t-88.5 -32.5z" />
    <glyph glyph-name="uni026C" unicode="&#x26c;" horiz-adv-x="426" 
d="M141 374h22l3 14q0 14 -7 29t-28 15q-16 0 -24.5 -8t-8.5 -20t10.5 -21t32.5 -9zM88 0l56 278h-3q-61 0 -95 35t-34 89q0 24 13 49t37.5 42t57.5 17q22 0 38 -6t28 -16l42 208h160l-65 -322h109l-16 -96h-112l-56 -278h-160z" />
    <glyph glyph-name="uni026D" unicode="&#x26d;" horiz-adv-x="286" 
d="M124 -188q-67 0 -96.5 29t-29.5 77q0 18 2 34.5t6 37.5l142 706h160l-144 -712q-1 -7 -1.5 -11t-0.5 -8q0 -14 6 -19.5t16 -5.5q13 0 28 6l24 -114q-18 -6 -48 -13t-64 -7z" />
    <glyph glyph-name="uni026E" unicode="&#x26e;" horiz-adv-x="646" 
d="M8 0l140 696h160l-39 -196h373l-18 -92l-166 -182q54 -12 88 -55.5t34 -108.5t-34.5 -121.5t-94.5 -91.5t-137 -35q-66 0 -112.5 25t-73.5 59l82 92q21 -22 47 -36t63 -14q40 0 69 29.5t29 80.5q0 38 -20.5 55t-47.5 17q-14 0 -25 -3.5t-27 -8.5l-40 80l174 186h-188
l-76 -376h-160z" />
    <glyph glyph-name="uni026F" unicode="&#x26f;" horiz-adv-x="834" 
d="M150 -12q-61 0 -89.5 33t-28.5 97q0 34 8 72l62 310h160l-58 -290q-3 -13 -5.5 -24t-2.5 -20q0 -42 42 -42q29 0 82 56l64 320h160l-58 -290q-3 -13 -5.5 -24t-2.5 -20q0 -21 11 -31.5t29 -10.5q31 0 84 56l62 320h160l-100 -500h-130v64h-4q-34 -30 -74 -53t-84 -23
q-54 0 -79 22.5t-37 61.5q-39 -36 -80.5 -60t-85.5 -24z" />
    <glyph glyph-name="uni0270" unicode="&#x270;" horiz-adv-x="834" 
d="M528 -176l30 142l30 98h-4q-25 -30 -68 -53t-84 -23q-54 0 -79 22.5t-37 61.5q-39 -36 -80.5 -60t-85.5 -24q-61 0 -89.5 33t-28.5 97q0 34 8 72l62 310h160l-58 -290q-3 -13 -5.5 -24t-2.5 -20q0 -42 42 -42q29 0 82 56l64 320h160l-58 -290q-3 -13 -5.5 -24t-2.5 -20
q0 -21 11 -31.5t29 -10.5q31 0 84 56l62 320h160l-136 -676h-160z" />
    <glyph glyph-name="uni0271" unicode="&#x271;" horiz-adv-x="838" 
d="M530 -188q-27 0 -52 5.5t-52 18.5l48 114q21 -12 42 -12q24 0 35.5 16.5t20.5 55.5l56 280q3 14 5.5 24.5t2.5 19.5q0 42 -42 42q-29 0 -82 -56l-64 -320h-160l58 290q3 14 5.5 24.5t2.5 19.5q0 21 -11 31.5t-29 10.5q-31 0 -84 -56l-62 -320h-160l98 500h130v-64h4
q35 30 76 53t84 23q54 0 79 -22.5t37 -61.5q39 36 81 60t85 24q62 0 90 -32.5t28 -97.5q0 -34 -8 -72l-62 -308q-11 -52 -34 -95t-63.5 -69t-102.5 -26z" />
    <glyph glyph-name="uni0272" unicode="&#x272;" horiz-adv-x="562" 
d="M-32 -188q-22 0 -42.5 4t-43.5 14l48 114q12 -6 24 -6q24 0 36.5 16.5t19.5 55.5l98 490h130v-64h4q35 30 75.5 53t88.5 23q62 0 90 -32.5t28 -97.5q0 -34 -8 -72l-62 -310h-160l58 290q3 14 5.5 24.5t2.5 19.5q0 42 -42 42q-21 0 -41 -13.5t-47 -42.5l-62 -318
q-10 -52 -33.5 -95t-64 -69t-102.5 -26z" />
    <glyph glyph-name="uni0273" unicode="&#x273;" horiz-adv-x="562" 
d="M410 -188q-67 0 -96.5 29t-29.5 77q0 18 2 34.5t6 37.5l60 300q3 14 5.5 24.5t2.5 19.5q0 42 -42 42q-21 0 -41 -13.5t-47 -42.5l-62 -320h-160l100 500h130v-64h4q35 30 75.5 53t88.5 23q62 0 90 -32.5t28 -97.5q0 -34 -8 -72l-66 -326q-1 -7 -1.5 -11t-0.5 -8
q0 -14 6 -19.5t16 -5.5q13 0 28 6l24 -114q-18 -6 -48 -13t-64 -7z" />
    <glyph glyph-name="uni0274" unicode="&#x274;" horiz-adv-x="542" 
d="M8 0l100 500h144l58 -184q7 -21 13.5 -51.5t11.5 -52.5h3q5 45 10 91t12 83l22 114h150l-100 -500h-144l-58 184q-7 21 -14 51.5t-12 52.5h-4q-4 -46 -8 -91.5t-12 -82.5l-23 -114h-149z" />
    <glyph glyph-name="uni0275" unicode="&#x275;" horiz-adv-x="540" 
d="M226 -12q-60 0 -105 26t-70 73t-25 109q0 73 24.5 131t65.5 99.5t91.5 63.5t102.5 22q60 0 105 -26t70 -73t25 -109q0 -73 -24.5 -131t-65.5 -99.5t-91.5 -63.5t-102.5 -22zM294 390q-34 0 -59.5 -23t-40.5 -61h166q-1 38 -16 61t-50 23zM242 110q35 0 61.5 25t41.5 67
h-169v-4q0 -39 15 -63.5t51 -24.5z" />
    <glyph glyph-name="uni0276" unicode="&#x276;" horiz-adv-x="702" 
d="M228 -12q-52 0 -98.5 22t-75 67t-28.5 115q0 72 26.5 131t70.5 101.5t99 65t112 22.5q29 0 52.5 -2t57.5 -10h268l-22 -112h-186l-18 -86h160l-20 -96h-158l-20 -94h196l-22 -112h-276q-36 -7 -62 -9.5t-56 -2.5zM262 116q7 0 15 1t17 3l52 260q-15 4 -30 4
q-36 0 -65 -24t-46 -63.5t-17 -86.5q0 -56 23 -75t51 -19z" />
    <glyph glyph-name="uni0277" unicode="&#x277;" horiz-adv-x="740" 
d="M202 -12q-46 0 -87 18t-66 57t-25 102q0 68 26.5 130t75.5 110.5t119 76.5t157 28q60 0 114.5 -14.5t97.5 -45t67.5 -78t24.5 -114.5q0 -49 -14 -97t-42 -87t-69.5 -62.5t-95.5 -23.5q-52 0 -92.5 22t-52.5 76h-4q-22 -51 -59 -74.5t-75 -23.5zM227 116q23 0 36.5 26.5
t24.5 73.5l22 94h148l-22 -109q-2 -13 -4 -23.5t-2 -19.5q0 -21 10.5 -29.5t27.5 -8.5q29 0 52.5 36.5t23.5 97.5q0 66 -45 97t-115 31q-63 0 -107.5 -29.5t-67.5 -76t-23 -98.5q0 -35 11.5 -48.5t29.5 -13.5z" />
    <glyph glyph-name="uni0278" unicode="&#x278;" horiz-adv-x="724" 
d="M203 -176l35 171q-59 8 -107 35t-76.5 75t-28.5 119q0 65 26 115.5t70.5 86.5t101 56t117.5 23l38 191h144l-39 -194q59 -8 106.5 -35t75.5 -74.5t28 -118.5q0 -64 -26 -115t-70 -86.5t-100 -55.5t-117 -24l-34 -169h-144zM532 272q0 48 -19 76t-53 36l-55 -273
q34 6 63 28.5t46.5 57.5t17.5 75zM188 226q0 -48 19.5 -76.5t53.5 -36.5l56 274q-34 -5 -63.5 -28t-47.5 -57.5t-18 -75.5z" />
    <glyph glyph-name="uni0279" unicode="&#x279;" horiz-adv-x="400" 
d="M10 -12q-21 0 -33.5 3t-20.5 7l52 138q11 -6 25.5 -7t26.5 -1q32 0 60 21.5t56 70.5l54 280h160l-100 -500h-130l4 98h-4q-28 -48 -68 -79t-82 -31z" />
    <glyph glyph-name="uni027A" unicode="&#x27a;" horiz-adv-x="400" 
d="M10 -12q-21 0 -33.5 3t-20.5 7l52 138q11 -6 25.5 -7t26.5 -1q32 0 60 21.5t56 70.5l96 476h160l-142 -696h-130l4 98h-4q-28 -48 -68 -79t-82 -31z" />
    <glyph glyph-name="uni027B" unicode="&#x27b;" horiz-adv-x="400" 
d="M246 -188q-60 0 -86 29t-26 77q0 12 1.5 29t8 51.5t20.5 99.5h-4q-28 -48 -68 -79t-82 -31q-21 0 -33.5 3t-20.5 7l52 138q11 -6 25.5 -7t26.5 -1q32 0 60 21.5t56 70.5l54 280h160l-104 -516q-1 -7 -1.5 -11t-0.5 -8q0 -14 6 -19.5t16 -5.5q13 0 28 6l24 -114
q-18 -6 -48 -13t-64 -7z" />
    <glyph glyph-name="uni027D" unicode="&#x27d;" horiz-adv-x="400" 
d="M124 -188q-67 0 -96.5 29t-29.5 77q0 18 2 34.5t6 37.5l102 510h130l-4 -98h4q29 48 68.5 79t81.5 31q21 0 34 -2.5t20 -7.5l-52 -138q-10 6 -25 7t-27 1q-31 0 -59 -21t-57 -71l-58 -296q-1 -7 -1.5 -11t-0.5 -8q0 -14 6 -19.5t16 -5.5q13 0 28 6l24 -114
q-18 -6 -48 -13t-64 -7z" />
    <glyph glyph-name="uni027E" unicode="&#x27e;" horiz-adv-x="382" 
d="M8 0l60 300q20 98 84.5 155t164.5 57q37 0 67 -7t48 -15l-52 -128q-19 6 -31.5 8t-32.5 2q-33 0 -59.5 -24t-38.5 -86l-50 -262h-160z" />
    <glyph glyph-name="uni0280" unicode="&#x280;" horiz-adv-x="524" 
d="M8 0l100 500h206q49 0 88.5 -13t62.5 -43t23 -82q0 -58 -28 -101t-76 -69l78 -192h-174l-49 160h-39l-32 -160h-160zM218 256h28q35 0 56.5 21t21.5 49q0 48 -54 48h-28z" />
    <glyph glyph-name="uni0281" unicode="&#x281;" horiz-adv-x="524" 
d="M8 0l100 500h160l-32 -160h39l113 160h176l-155 -192q22 -16 34.5 -42t12.5 -64q0 -63 -32 -108t-87.5 -69.5t-126.5 -24.5h-202zM192 126h28q35 0 56.5 21t21.5 49q0 48 -54 48h-28z" />
    <glyph glyph-name="uni0282" unicode="&#x282;" horiz-adv-x="432" 
d="M112 -188q-65 0 -102.5 41t-37.5 99q0 48 9.5 92t30.5 110l4 2q54 -24 85 -35t49 -14t32 -3q23 0 39.5 9.5t16.5 24.5q0 20 -22.5 32t-61.5 34q-37 21 -66.5 56t-29.5 84q0 48 27 86t73 60t102 22q54 0 96.5 -23.5t73.5 -56.5l-86 -82q-18 18 -39 31t-45 13t-38 -10.5
t-14 -25.5q0 -21 26 -33t54 -29q24 -13 47 -31.5t38 -45t15 -63.5q0 -50 -27.5 -88t-76.5 -59t-112 -21q-11 0 -29 2.5t-38 9.5q-1 -4 -1 -8v-6q0 -48 40 -48q8 0 12.5 0.5t13.5 3.5l14 -116q-16 -6 -33.5 -10t-38.5 -4z" />
    <glyph glyph-name="uni0283" unicode="&#x283;" horiz-adv-x="278" 
d="M-30 -188q-27 0 -52 5.5t-52 18.5l48 114q21 -12 42 -12q24 0 36.5 16.5t19.5 55.5l96 484q12 61 38.5 109.5t74 76.5t123.5 28q21 0 44.5 -6t35.5 -12l-54 -114q-12 6 -30 6q-30 0 -46.5 -18.5t-25.5 -63.5l-98 -498q-10 -54 -34.5 -97t-65 -68t-100.5 -25z" />
    <glyph glyph-name="uni0284" unicode="&#x284;" horiz-adv-x="326" 
d="M-6 -188q-27 0 -52 5.5t-52 18.5l48 114q21 -12 42 -12q24 0 36.5 16.5t19.5 55.5l39 196h-87l18 90l88 6l38 192q12 61 38.5 109.5t74 76.5t123.5 28q21 0 44.5 -6t35.5 -12l-54 -114q-12 6 -30 6q-30 0 -46.5 -18.5t-25.5 -63.5l-39 -198h83l-18 -96h-84l-40 -204
q-10 -54 -34.5 -97t-65 -68t-100.5 -25z" />
    <glyph glyph-name="uni0288" unicode="&#x288;" horiz-adv-x="384" 
d="M172 -188q-79 0 -114.5 39.5t-35.5 100.5q0 17 2.5 33.5t5.5 32.5l76 358h-64l24 118l72 6l44 128h134l-24 -128h108l-24 -124h-112l-76 -364q-1 -9 -1.5 -16.5t-0.5 -15.5q0 -44 48 -44q9 0 18 3t18 7l28 -112q-21 -7 -52.5 -14.5t-73.5 -7.5z" />
    <glyph glyph-name="uni0289" unicode="&#x289;" horiz-adv-x="552" 
d="M184 -12q-61 0 -89.5 33t-28.5 97q0 34 8 72l14 70h-66l18 90l67 5l29 145h160l-29 -144h121l28 144h160l-28 -144h68l-20 -96h-67l-51 -260h-130v64h-4q-31 -30 -73 -53t-87 -23zM230 166q0 -42 42 -42q20 0 39 14t43 42l16 80h-122l-10 -50q-3 -13 -5.5 -24t-2.5 -20z
" />
    <glyph glyph-name="uni028A" unicode="&#x28a;" horiz-adv-x="541" 
d="M222 -12q-66 0 -110 24.5t-66 64t-22 85.5q0 43 15 83.5t38 73.5t47 54v3h-72l24 124h216l-19 -101q-40 -45 -63.5 -100t-23.5 -103q0 -37 16 -58.5t48 -21.5q48 0 74 55t26 139q0 24 -4 46t-14 43l20 101h216l-24 -124h-74v-3q16 -21 25 -53.5t9 -73.5q0 -43 -18.5 -88
t-54.5 -83.5t-88.5 -62.5t-120.5 -24z" />
    <glyph glyph-name="uni028B" unicode="&#x28b;" horiz-adv-x="546" 
d="M214 -12q-84 0 -130 42.5t-46 123.5q0 16 2 32.5t6 35.5l56 278h160l-54 -276q-3 -13 -6.5 -30t-3.5 -28q0 -21 12 -31.5t32 -10.5q25 0 52 31t45.5 82t18.5 111q0 36 -37 36q-4 0 -7.5 -0.5t-7.5 -1.5l7 122q25 8 71 8q60 0 99 -34.5t39 -109.5q0 -69 -21.5 -136.5
t-61.5 -122.5t-97 -88t-128 -33z" />
    <glyph glyph-name="uni028C" unicode="&#x28c;" horiz-adv-x="518" 
d="M402 500l60 -500h-160l-10 228q-1 38 -1.5 76t-0.5 78h-4q-16 -39 -31.5 -77t-32.5 -77l-98 -228h-156l250 500h184z" />
    <glyph glyph-name="uni028D" unicode="&#x28d;" horiz-adv-x="764" 
d="M682 500l19 -500h-158l5 222q2 37 5 74.5t5 75.5h-4q-13 -38 -26.5 -76t-29.5 -74l-91 -222h-136l-5 222q-1 37 0.5 74.5t1.5 75.5h-4q-13 -38 -24.5 -75.5t-25.5 -74.5l-80 -222h-148l208 500h186v-186q-1 -34 -1.5 -69.5t-2.5 -76.5h4q14 41 25.5 76.5t24.5 69.5
l72 186h180z" />
    <glyph glyph-name="uni028E" unicode="&#x28e;" horiz-adv-x="518" 
d="M-32 0l272 520q36 69 72.5 110.5t79 59.5t95.5 18q15 0 38 -6.5t38 -15.5l-48 -114q-17 10 -38 10q-22 0 -42.5 -12.5t-38.5 -45.5l-21 -39l88 -485h-159l-18 205q-3 32 -4.5 73.5t-1.5 77.5h-4q-15 -34 -32 -75.5t-32 -75.5l-90 -205h-154z" />
    <glyph glyph-name="uni028F" unicode="&#x28f;" horiz-adv-x="467" 
d="M104 0l30 150l-88 350h162l14 -96q5 -30 9 -63.5t6 -66.5h4q16 32 35 67t34 63l50 96h160l-226 -350l-30 -150h-160z" />
    <glyph glyph-name="uni0290" unicode="&#x290;" horiz-adv-x="455" 
d="M346 -188q-63 0 -90.5 29.5t-27.5 80.5q0 15 2 32.5t8 45.5h-248l18 90l240 286h-164l24 124h364l-18 -92l-240 -284h190q-11 -52 -17.5 -82.5t-9 -45.5t-3 -21t-0.5 -10q0 -14 9.5 -19.5t20.5 -5.5q10 0 26 4l6 -116q-16 -5 -38 -10.5t-52 -5.5z" />
    <glyph glyph-name="uni0291" unicode="&#x291;" horiz-adv-x="498" 
d="M388 174q-14 0 -31.5 -14t-37.5 -45q8 -1 16.5 -1h16.5q27 0 43.5 12t16.5 26q0 22 -24 22zM226 -82l-66 16q7 17 14.5 33.5t14.5 32.5h-199l18 90l240 286h-164l24 124h352l-18 -92l-240 -284q13 -1 25 -2.5t24 -2.5q38 62 77.5 99.5t79.5 37.5q41 0 63.5 -20.5
t22.5 -59.5q0 -28 -11.5 -59t-36.5 -57.5t-65.5 -43t-98.5 -16.5h-23q-7 -18 -15.5 -38.5t-17.5 -43.5z" />
    <glyph glyph-name="uni0292" unicode="&#x292;" horiz-adv-x="456" 
d="M124 -188q-66 0 -112.5 25t-73.5 59l82 92q21 -22 47 -36t63 -14q40 0 69 30t29 82q0 38 -20.5 55t-47.5 17q-14 0 -25 -3.5t-27 -8.5l-40 80l174 186h-190l24 124h376l-18 -92l-166 -182q54 -12 88 -55.5t34 -108.5q0 -66 -34.5 -123t-94.5 -92t-137 -35z" />
    <glyph glyph-name="uni0294" unicode="&#x294;" horiz-adv-x="442" 
d="M68 0l62 314q69 43 109 75t57.5 61.5t17.5 62.5q0 34 -18 50.5t-48 16.5q-31 0 -63 -17t-60 -43l-59 98q44 39 101 64.5t128 25.5q51 0 92.5 -17.5t66 -53.5t24.5 -90q0 -89 -50.5 -159.5t-149.5 -135.5l-50 -252h-160z" />
    <glyph glyph-name="uni0295" unicode="&#x295;" horiz-adv-x="442" 
d="M112 0l50 252q-45 47 -73.5 91.5t-28.5 104.5q0 78 37.5 136.5t100.5 91t140 32.5q68 0 112.5 -25.5t71.5 -64.5l-92 -98q-18 26 -43 43t-57 17q-50 0 -78 -31t-28 -81q0 -36 25 -71t85 -83l-62 -314h-160z" />
    <glyph glyph-name="uni0298" unicode="&#x298;" horiz-adv-x="516" 
d="M198 -12q-81 0 -126.5 57t-45.5 169q0 98 23 187t65 158t100.5 109t129.5 40q81 0 126.5 -56.5t45.5 -169.5q0 -98 -23 -187t-65 -158t-100.5 -109t-129.5 -40zM226 126q27 0 52 30t45 80.5t31.5 112t11.5 124.5q0 56 -15 76.5t-35 20.5q-27 0 -52 -30t-45 -80.5
t-31.5 -112t-11.5 -124.5q0 -55 15.5 -76t34.5 -21zM258 282q-23 0 -38.5 16t-15.5 39q0 35 24.5 59t57.5 24q23 0 38.5 -16t15.5 -39q0 -35 -25 -59t-57 -24z" />
    <glyph glyph-name="uni0299" unicode="&#x299;" horiz-adv-x="518" 
d="M8 0l100 500h208q47 0 85.5 -9.5t61.5 -33t23 -65.5q0 -43 -26 -78t-78 -52l-2 -4q44 -10 65 -29t21 -57q0 -78 -63 -125t-171 -47h-224zM228 302h36q32 0 49 14t17 38q0 34 -50 34h-34zM190 112h50q33 0 50.5 17t17.5 39q0 21 -13.5 29.5t-46.5 8.5h-38z" />
    <glyph glyph-name="uni029C" unicode="&#x29c;" horiz-adv-x="568" 
d="M8 0l100 500h160l-36 -178h130l36 178h160l-100 -500h-160l37 184h-131l-36 -184h-160z" />
    <glyph glyph-name="uni029D" unicode="&#x29d;" horiz-adv-x="378" 
d="M16 -32q0 -13 10.5 -21.5t23.5 -8.5q20 0 33 12.5t21 45.5q-25 14 -46 14q-19 0 -30.5 -12t-11.5 -30zM228 -220q-4 28 -11.5 52.5t-16.5 45.5q-28 -30 -65.5 -48t-84.5 -18q-72 0 -113 40t-41 104q0 42 19 78.5t57 59t94 22.5q29 0 60 -12l80 396h160l-95 -474
q-3 -19 -9 -35q23 -33 40.5 -76.5t27.5 -96.5zM310 564q-31 0 -57.5 18.5t-26.5 55.5q0 36 28 63t68 27q32 0 58 -19t26 -55q0 -39 -27.5 -64.5t-68.5 -25.5z" />
    <glyph glyph-name="uni029F" unicode="&#x29f;" horiz-adv-x="410" 
d="M8 0l100 500h160l-76 -376h168l-24 -124h-328z" />
    <glyph glyph-name="uni02A1" unicode="&#x2a1;" horiz-adv-x="442" 
d="M68 0l23 116h-109l18 90l108 6h2l20 102q69 43 109 75t57.5 61.5t17.5 62.5q0 34 -18 50.5t-48 16.5q-31 0 -63 -17t-60 -43l-59 98q44 39 101 64.5t128 25.5q51 0 92.5 -17.5t66 -53.5t24.5 -90q0 -89 -50.5 -159.5t-149.5 -135.5l-8 -40h100l-18 -96h-101l-23 -116
h-160z" />
    <glyph glyph-name="uni02A2" unicode="&#x2a2;" horiz-adv-x="442" 
d="M112 0l23 116h-109l18 90l108 6h2l8 40q-45 47 -73.5 91.5t-28.5 104.5q0 78 37.5 136.5t100.5 91t140 32.5q68 0 112.5 -25.5t71.5 -64.5l-92 -98q-18 26 -43 43t-57 17q-50 0 -78 -31t-28 -81q0 -36 25 -71t85 -83l-20 -102h100l-18 -96h-101l-23 -116h-160z" />
    <glyph glyph-name="uni02A4" unicode="&#x2a4;" horiz-adv-x="888" 
d="M158 -12q-61 0 -95.5 45t-34.5 129q0 74 21 137.5t57 111t82 74.5t96 27q29 0 51 -15.5t35 -40.5h2l10 94l28 146h160l-39 -196h353l-18 -92l-148 -183q56 -12 80 -56.5t24 -96.5q0 -51 -20 -97.5t-55 -82.5t-81.5 -57t-99.5 -21q-62 0 -101 25t-65 59l82 92
q20 -22 38 -36t52 -14q32 0 60 32.5t28 87.5q0 32 -14.5 47t-33.5 15q-14 0 -25 -3.5t-27 -8.5l-40 80l154 186h-168l-76 -376h-130v62h-2q-32 -34 -69 -54t-71 -20zM230 118q17 0 37.5 13t40.5 53l32 160q-18 38 -44 38t-49.5 -25.5t-38 -70.5t-14.5 -104q0 -34 10 -49
t26 -15z" />
    <glyph glyph-name="uni02A7" unicode="&#x2a7;" horiz-adv-x="580" 
d="M272 -188q-27 0 -52 5.5t-52 18.5l48 114q21 -12 42 -12q24 0 36.5 16.5t19.5 55.5l8 42h-4q-26 -25 -63 -42.5t-77 -17.5q-61 0 -89.5 33t-28.5 97q0 34 8 72l38 182h-64l24 118l72 6l44 128h134l-24 -128h119q13 60 39.5 107t74 74t121.5 27q21 0 44.5 -6t35.5 -12
l-54 -114q-12 6 -30 6q-30 0 -46.5 -18.5t-25.5 -63.5l-98 -498q-10 -54 -34.5 -97t-65 -68t-100.5 -25zM266 128q20 0 39 14t43 42l38 192h-122l-32 -162q-3 -13 -5.5 -24t-2.5 -20q0 -42 42 -42z" />
    <glyph glyph-name="h.sups" unicode="&#x2b0;" horiz-adv-x="376" 
d="M64 368l92 460h112l-19 -96l-19 -68h3q20 17 45.5 30.5t55.5 13.5q41 0 61 -23t20 -66q0 -11 -2 -23t-4 -23l-41 -205h-112l38 191q2 10 3.5 16.5t1.5 11.5q0 27 -26 27q-13 0 -26 -9t-30 -27l-41 -210h-112z" />
    <glyph glyph-name="j.sups" unicode="&#x2b2;" horiz-adv-x="188" 
d="M40 236q-18 0 -35 3t-36 12l33 77q15 -6 28 -6q16 0 22.5 10t11.5 36l66 332h112l-68 -342q-10 -52 -41 -87t-93 -35zM202 740q-22 0 -40 12.5t-18 37.5q0 24 19.5 42t46.5 18q23 0 40.5 -12t17.5 -38q0 -24 -19.5 -42t-46.5 -18z" />
    <glyph glyph-name="r.sups" unicode="&#x2b3;" horiz-adv-x="264" 
d="M64 368l65 332h90l-1 -53h3q19 26 43.5 43t52.5 17q14 0 23 -2t14 -5l-36 -94q-7 4 -13.5 4.5t-14.5 0.5q-23 0 -41 -10.5t-36 -35.5l-38 -197h-111z" />
    <glyph glyph-name="w.sups" unicode="&#x2b7;" horiz-adv-x="514" 
d="M120 368l-13 332h109l-3 -145l-7 -100h3l34 100l62 145h90l9 -145l-4 -100h3l31 100l53 145h102l-137 -332h-129l-1 119l3 91h-3l-30 -91l-47 -119h-125z" />
    <glyph glyph-name="y.sups" unicode="&#x2b8;" horiz-adv-x="350" 
d="M100 236q-17 0 -32 2.5t-32 11.5l32 78q15 -6 29 -6q38 0 53 26l6 13l-55 339h108l11 -151l1 -101h2l41 101l64 151h106l-176 -347q-31 -55 -67.5 -86t-90.5 -31z" />
    <glyph glyph-name="uni02B9" unicode="&#x2b9;" horiz-adv-x="310" 
d="M88 324l94 360h158l-54 -154l-94 -206h-104z" />
    <glyph glyph-name="quoteleft" unicode="&#x2018;" horiz-adv-x="310" 
d="M174 324q-37 0 -59.5 28.5t-22.5 79.5q0 65 26 114t69 80.5t93 45.5l24 -68q-39 -13 -66.5 -36t-41.5 -45.5t-14 -36.5h3.5h2.5q35 0 57.5 -18.5t22.5 -51.5q0 -36 -25 -64t-69 -28z" />
    <glyph glyph-name="quoteleft" unicode="&#x2bb;" horiz-adv-x="310" 
d="M174 324q-37 0 -59.5 28.5t-22.5 79.5q0 65 26 114t69 80.5t93 45.5l24 -68q-39 -13 -66.5 -36t-41.5 -45.5t-14 -36.5h3.5h2.5q35 0 57.5 -18.5t22.5 -51.5q0 -36 -25 -64t-69 -28z" />
    <glyph glyph-name="quoteright" unicode="&#x2019;" horiz-adv-x="310" 
d="M130 348l-24 68q40 14 67 36.5t41 45t14 36.5h-2.5h-3.5q-34 0 -57 18.5t-23 51.5q0 36 25.5 64t68.5 28q38 0 60 -28.5t22 -79.5q0 -65 -26 -114t-69 -80.5t-93 -45.5z" />
    <glyph glyph-name="quoteright" unicode="&#x2bc;" horiz-adv-x="310" 
d="M130 348l-24 68q40 14 67 36.5t41 45t14 36.5h-2.5h-3.5q-34 0 -57 18.5t-23 51.5q0 36 25.5 64t68.5 28q38 0 60 -28.5t22 -79.5q0 -65 -26 -114t-69 -80.5t-93 -45.5z" />
    <glyph glyph-name="uni02BE" unicode="&#x2be;" horiz-adv-x="180" 
d="M82 536l12 60q33 2 48.5 18t15.5 38q0 38 -46 38l12 58q65 5 99.5 -22.5t34.5 -69.5q0 -51 -44.5 -85.5t-131.5 -34.5z" />
    <glyph glyph-name="uni02BF" unicode="&#x2bf;" horiz-adv-x="180" 
d="M226 540q-64 -4 -99 23t-35 69q0 51 44.5 85.5t131.5 34.5l-12 -60q-33 -1 -48.5 -17t-15.5 -39q0 -38 46 -38z" />
    <glyph glyph-name="uni02C1" unicode="&#x2c1;" horiz-adv-x="344" 
d="M155 368l33 165q-29 30 -48 59.5t-19 67.5q0 48 23.5 88t66 63.5t99.5 23.5q46 0 76 -17t47 -43l-70 -74q-10 17 -25 28t-34 11q-31 0 -49.5 -19.5t-18.5 -46.5q0 -22 17.5 -44.5t57.5 -54.5l-41 -207h-115z" />
    <glyph glyph-name="circumflex" unicode="&#x2c6;" horiz-adv-x="540" 
d="M196 558l-54 64l128 124h176l84 -128l-70 -60l-110 88h-4z" />
    <glyph glyph-name="caron" unicode="&#x2c7;" horiz-adv-x="540" 
d="M252 580l-84 128l70 60l110 -88h4l150 88l54 -64l-128 -124h-176z" />
    <glyph glyph-name="uni02C8" unicode="&#x2c8;" horiz-adv-x="150" 
d="M76 522l30 208h128l-50 -208h-108z" />
    <glyph glyph-name="uni02C9" unicode="&#x2c9;" horiz-adv-x="304" 
d="M68 590l20 100h294l-20 -100h-294z" />
    <glyph glyph-name="uni02CA" unicode="&#x2ca;" horiz-adv-x="228" 
d="M156 578l-69 90l191 172l95 -122z" />
    <glyph glyph-name="uni02CB" unicode="&#x2cb;" horiz-adv-x="228" 
d="M206 569l-162 173l136 102l124 -199z" />
    <glyph glyph-name="uni02CC" unicode="&#x2cc;" horiz-adv-x="150" 
d="M-86 -260l50 208h108l-30 -208h-128z" />
    <glyph glyph-name="uni02D0" unicode="&#x2d0;" horiz-adv-x="270" 
d="M-22 0l144 200h15l64 -200h-223zM136 300l-64 200h223l-144 -200h-15z" />
    <glyph glyph-name="uni02D1" unicode="&#x2d1;" horiz-adv-x="270" 
d="M136 300l-64 200h223l-144 -200h-15z" />
    <glyph glyph-name="breve" unicode="&#x2d8;" horiz-adv-x="540" 
d="M339 572q-88 0 -122 45t-24 115l100 16q-1 -30 14.5 -50t51.5 -20t58 20t32 50l92 -16q-13 -70 -63 -115t-139 -45z" />
    <glyph glyph-name="dotaccent" unicode="&#x2d9;" horiz-adv-x="540" 
d="M340 564q-31 0 -57.5 18.5t-26.5 55.5q0 36 28 63t68 27q32 0 58 -19t26 -55q0 -39 -27.5 -64.5t-68.5 -25.5z" />
    <glyph glyph-name="ring" unicode="&#x2da;" horiz-adv-x="540" 
d="M336 570q-53 0 -87.5 24.5t-34.5 67.5q0 50 43.5 83t110.5 33q54 0 88 -24t34 -68q0 -49 -43.5 -82.5t-110.5 -33.5zM346 630q18 0 31 15.5t13 36.5q0 14 -7.5 25t-24.5 11q-18 0 -31 -15.5t-13 -36.5q0 -15 8 -25.5t24 -10.5z" />
    <glyph glyph-name="ogonek" unicode="&#x2db;" horiz-adv-x="540" 
d="M186 -212q-39 0 -64.5 19.5t-25.5 56.5q0 33 17.5 60.5t39.5 47.5t37 30h86q-36 -27 -51 -49t-15 -43q0 -13 10.5 -20.5t23.5 -7.5t30 10l26 -64q-22 -16 -54.5 -28t-59.5 -12z" />
    <glyph glyph-name="tilde" unicode="&#x2dc;" horiz-adv-x="540" 
d="M406 572q-32 0 -52.5 14t-36.5 28t-35 14q-12 0 -22.5 -9.5t-15.5 -36.5l-104 6q14 85 54 121.5t96 36.5q33 0 53 -14t36 -28t35 -14q12 0 23 9.5t15 36.5l104 -6q-13 -85 -53.5 -121.5t-96.5 -36.5z" />
    <glyph glyph-name="hungarumlaut" unicode="&#x2dd;" horiz-adv-x="540" 
d="M288 566l-82 48l120 174l104 -60zM478 566l-82 48l120 174l104 -60z" />
    <glyph glyph-name="uni02DE" unicode="&#x2de;" horiz-adv-x="220" 
d="M124 194q-34 0 -62 20t-28 66q0 20 6 44l-120 -48l20 108l210 82q-12 -42 -17 -72.5t-5 -53.5q0 -27 9 -38.5t25 -11.5q14 0 23.5 3t17.5 7l17 -80q-19 -10 -41.5 -18t-54.5 -8z" />
    <glyph glyph-name="uni02E0" unicode="&#x2e0;" horiz-adv-x="350" 
d="M190 305q11 0 19.5 11t8.5 29q0 14 -11 44h-3q-16 -25 -24 -40.5t-8 -25.5q0 -18 18 -18zM176 234q-43 0 -68.5 21.5t-25.5 58.5q0 32 14 57.5t45 65.5l-44 263h115l9 -122q1 -21 3.5 -37.5t3.5 -39.5h3q10 23 19 39.5t19 37.5l57 122h109l-145 -261q9 -24 14.5 -42
t5.5 -36q0 -31 -16 -60.5t-45.5 -48t-72.5 -18.5z" />
    <glyph glyph-name="l.sups" unicode="&#x2e1;" horiz-adv-x="186" 
d="M161 360q-43 0 -61 20.5t-18 54.5q0 11 1 21.5t4 24.5l69 347h112l-71 -353q-2 -6 -2 -12q0 -10 4.5 -13t9.5 -3t10 2l-2 -81q-9 -3 -23.5 -5.5t-32.5 -2.5z" />
    <glyph glyph-name="s.sups" unicode="&#x2e2;" horiz-adv-x="290" 
d="M175 360q-34 0 -69.5 15.5t-58.5 41.5l61 59q20 -18 38 -28t36 -10q19 0 26.5 6.5t7.5 17.5t-14.5 17t-40.5 23q-24 16 -43.5 38t-19.5 55q0 48 38 80.5t95 32.5q38 0 68.5 -15t53.5 -34l-50 -65q-16 14 -34 25t-38 11q-15 0 -22 -7.5t-7 -17.5q0 -13 16.5 -21.5
t35.5 -19.5q23 -13 44 -34t21 -59q0 -49 -38.5 -80t-105.5 -31z" />
    <glyph glyph-name="x.sups" unicode="&#x2e3;" horiz-adv-x="378" 
d="M27 368l144 177l-56 155h113l16 -50l14 -52h3l27 48l29 54h122l-135 -179l60 -153h-113l-17 49l-17 52h-3l-30 -49l-35 -52h-122z" />
    <glyph glyph-name="uni0300" unicode="&#x300;" 
d="M146 569l-162 173l136 102l124 -199z" />
    <glyph glyph-name="uni0301" unicode="&#x301;" 
d="M96 578l-69 90l191 172l95 -122z" />
    <glyph glyph-name="uni0302" unicode="&#x302;" 
d="M-24 558l-54 64l128 124h176l84 -128l-70 -60l-110 88h-4z" />
    <glyph glyph-name="uni0303" unicode="&#x303;" 
d="M186 572q-32 0 -52.5 14t-36.5 28t-35 14q-12 0 -22.5 -9.5t-15.5 -36.5l-104 6q14 85 54 121.5t96 36.5q33 0 53 -14t36 -28t35 -14q12 0 23 9.5t15 36.5l104 -6q-13 -85 -53.5 -121.5t-96.5 -36.5z" />
    <glyph glyph-name="uni0304" unicode="&#x304;" 
d="M-32 590l20 100h294l-20 -100h-294z" />
    <glyph glyph-name="uni0305" unicode="&#x305;" 
d="M-32 590l20 100h294l-20 -100h-294z" />
    <glyph glyph-name="uni0306" unicode="&#x306;" 
d="M119 572q-88 0 -122 45t-24 115l100 16q-1 -30 14.5 -50t51.5 -20t58 20t32 50l92 -16q-13 -70 -63 -115t-139 -45z" />
    <glyph glyph-name="uni0307" unicode="&#x307;" 
d="M120 564q-31 0 -57.5 18.5t-26.5 55.5q0 36 28 63t68 27q32 0 58 -19t26 -55q0 -39 -27.5 -64.5t-68.5 -25.5z" />
    <glyph glyph-name="uni0308" unicode="&#x308;" 
d="M6 566q-28 0 -47 17t-19 49t24 57t60 25q28 0 47 -17.5t19 -48.5q0 -34 -24 -58t-60 -24zM226 566q-28 0 -47 17t-19 49t24 57t60 25q28 0 47 -17.5t19 -48.5q0 -34 -24 -58t-60 -24z" />
    <glyph glyph-name="uni0309" unicode="&#x309;" 
d="M59 566l1 66q17 2 29.5 8.5t15.5 21.5q4 17 -11.5 27t-58.5 13l30 104q73 -2 111.5 -19.5t50.5 -46.5t5 -66q-7 -36 -32.5 -59t-62.5 -35t-78 -14z" />
    <glyph glyph-name="uni030A" unicode="&#x30a;" 
d="M116 570q-53 0 -87.5 24.5t-34.5 67.5q0 50 43.5 83t110.5 33q54 0 88 -24t34 -68q0 -49 -43.5 -82.5t-110.5 -33.5zM126 630q18 0 31 15.5t13 36.5q0 14 -7.5 25t-24.5 11q-18 0 -31 -15.5t-13 -36.5q0 -15 8 -25.5t24 -10.5z" />
    <glyph glyph-name="uni030B" unicode="&#x30b;" 
d="M68 566l-82 48l120 174l104 -60zM258 566l-82 48l120 174l104 -60z" />
    <glyph glyph-name="uni030C" unicode="&#x30c;" 
d="M32 580l-84 128l70 60l110 -88h4l150 88l54 -64l-128 -124h-176z" />
    <glyph glyph-name="uni030F" unicode="&#x30f;" 
d="M-40 564l-81 182l123 40l55 -190zM150 564l-81 182l123 40l55 -190z" />
    <glyph glyph-name="uni0311" unicode="&#x311;" 
d="M34 564l-92 16q14 71 64 115.5t138 44.5t122.5 -44.5t23.5 -115.5l-100 -16q2 30 -14 50t-52 20t-57.5 -20t-32.5 -50z" />
    <glyph glyph-name="uni0312" unicode="&#x312;" 
d="M110 544q-27 0 -42.5 17t-15.5 45q0 51 31.5 92t98.5 60l12 -50q-28 -9 -45.5 -20t-25.5 -30h3q18 0 33 -13.5t15 -34.5q0 -30 -19 -48t-45 -18z" />
    <glyph glyph-name="uni0313" unicode="&#x313;" 
d="M76 544l-12 50q28 9 46 20t25 30h-3q-18 0 -33 13.5t-15 34.5q0 30 19.5 48t44.5 18q27 0 42.5 -16.5t15.5 -45.5q0 -51 -31 -91.5t-99 -60.5z" />
    <glyph glyph-name="uni0318" unicode="&#x318;" 
d="M-24 -250l14 66h-106l16 76h106l12 66h84l-42 -208h-84z" />
    <glyph glyph-name="uni0319" unicode="&#x319;" 
d="M-130 -250l42 208h84l-14 -66h106l-16 -76h-106l-12 -66h-84z" />
    <glyph glyph-name="uni031A" unicode="&#x31a;" 
d="M140 574l15 74h-104l16 80h188l-30 -154h-85z" />
    <glyph glyph-name="uni031B" unicode="&#x31b;" 
d="M80 424v66q36 5 55 25.5t19 44.5q0 19 -8 38l118 36q8 -16 11 -32.5t3 -33.5q0 -55 -45.5 -95t-152.5 -49z" />
    <glyph glyph-name="uni031C" unicode="&#x31c;" 
d="M-4 -260q-64 -4 -99 23t-35 69q0 51 44.5 85.5t131.5 34.5l-12 -60q-33 -1 -48.5 -17t-15.5 -39q0 -38 46 -38z" />
    <glyph glyph-name="uni031D" unicode="&#x31d;" 
d="M-152 -226l16 76h66l20 108h84l-20 -108h66l-16 -76h-216z" />
    <glyph glyph-name="uni031E" unicode="&#x31e;" 
d="M-92 -250l22 108h-66l16 76h216l-16 -76h-66l-22 -108h-84z" />
    <glyph glyph-name="uni031F" unicode="&#x31f;" 
d="M-94 -260l14 66h-66l16 76h66l12 66h84l-12 -66h66l-16 -76h-66l-14 -66h-84z" />
    <glyph glyph-name="uni0320" unicode="&#x320;" 
d="M-146 -194l16 76h216l-16 -76h-216z" />
    <glyph glyph-name="uni0323" unicode="&#x323;" 
d="M-40 -246q-31 0 -57.5 18.5t-26.5 55.5q0 36 28 63t68 27q32 0 58 -19t26 -55q0 -39 -27.5 -64.5t-68.5 -25.5z" />
    <glyph glyph-name="uni0324" unicode="&#x324;" 
d="M-150 -230q-28 0 -47 17t-19 49t24 57t60 25q28 0 47 -17.5t19 -48.5q0 -34 -24 -58t-60 -24zM70 -230q-28 0 -47 17t-19 49t24 57t60 25q28 0 47 -17.5t19 -48.5q0 -34 -24 -58t-60 -24z" />
    <glyph glyph-name="uni0325" unicode="&#x325;" 
d="M-46 -260q-53 0 -87.5 24.5t-34.5 67.5q0 50 43.5 83t110.5 33q54 0 88 -24t34 -68q0 -49 -43.5 -82.5t-110.5 -33.5zM-36 -200q18 0 31 15.5t13 36.5q0 14 -7.5 25t-24.5 11q-18 0 -31 -15.5t-13 -36.5q0 -15 8 -25.5t24 -10.5z" />
    <glyph glyph-name="uni0326" unicode="&#x326;" 
d="M-148 -244v66q58 3 81.5 13.5t23.5 26.5q0 9 -11 18.5t-43 9.5l44 60q56 -2 85 -12t39.5 -26t10.5 -36q0 -41 -30 -66.5t-82 -38.5t-118 -15z" />
    <glyph glyph-name="uni0327" unicode="&#x327;" 
d="M-150 -244v66q57 3 80.5 12t27.5 30q2 14 -11.5 24t-58.5 16l68 100h98l-40 -64q38 -9 54.5 -26.5t11.5 -49.5q-10 -54 -69.5 -79.5t-160.5 -28.5z" />
    <glyph glyph-name="uni0328" unicode="&#x328;" 
d="M-34 -212q-39 0 -64.5 19.5t-25.5 56.5q0 33 17.5 60.5t39.5 47.5t37 30h86q-36 -27 -51 -49t-15 -43q0 -13 10.5 -20.5t23.5 -7.5t30 10l26 -64q-22 -16 -54.5 -28t-59.5 -12z" />
    <glyph glyph-name="uni0329" unicode="&#x329;" 
d="M-116 -260l50 208h108l-30 -208h-128z" />
    <glyph glyph-name="uni032A" unicode="&#x32a;" 
d="M-166 -218l28 142h250l-28 -142h-78l10 62h-92l-12 -62h-78z" />
    <glyph glyph-name="uni032C" unicode="&#x32c;" 
d="M-128 -240l-84 128l70 60l110 -88h4l150 88l54 -64l-128 -124h-176z" />
    <glyph glyph-name="uni032E" unicode="&#x32e;" 
d="M-41 -248q-88 0 -122 45t-24 115l100 16q-1 -30 14.5 -50t51.5 -20t58 20t32 50l92 -16q-13 -70 -63 -115t-139 -45z" />
    <glyph glyph-name="uni032F" unicode="&#x32f;" 
d="M-126 -226l-92 16q14 71 64 115.5t138 44.5t122.5 -44.5t23.5 -115.5l-100 -16q2 30 -14 50t-52 20t-57.5 -20t-32.5 -50z" />
    <glyph glyph-name="uni0330" unicode="&#x330;" 
d="M26 -238q-32 0 -52.5 14t-36.5 28t-35 14q-12 0 -22.5 -9.5t-15.5 -36.5l-104 6q14 85 54 121.5t96 36.5q33 0 53 -14t36 -28t35 -14q12 0 23 9.5t15 36.5l104 -6q-13 -85 -53.5 -121.5t-96.5 -36.5z" />
    <glyph glyph-name="uni0331" unicode="&#x331;" 
d="M-182 -170l20 100h294l-20 -100h-294z" />
    <glyph glyph-name="uni0334" unicode="&#x334;" 
d="M156 164q-52 0 -90 14t-68 28t-59 14q-12 0 -21 -9t-17 -33l-102 22q17 74 54.5 106t88.5 32q54 0 91.5 -14t67 -28t58.5 -14q12 0 21.5 9t16.5 33l102 -22q-17 -73 -54.5 -105.5t-88.5 -32.5z" />
    <glyph glyph-name="uni0339" unicode="&#x339;" 
d="M-98 -264l12 60q33 2 48.5 18t15.5 38q0 38 -46 38l12 58q65 5 99.5 -22.5t34.5 -69.5q0 -51 -44.5 -85.5t-131.5 -34.5z" />
    <glyph glyph-name="uni033A" unicode="&#x33a;" 
d="M-165 -210l29 142h78l-12 -62h92l12 62h79l-28 -142h-250z" />
    <glyph glyph-name="uni033B" unicode="&#x33b;" 
d="M-175 -250l38 188h249l-37 -188h-250zM-84 -190h92l14 70h-92z" />
    <glyph glyph-name="uni033C" unicode="&#x33c;" 
d="M-154 -240l-78 12q17 82 51.5 123t90.5 41q57 0 65 -52h4q14 26 37 39t48 13q86 0 86 -95q0 -14 -2.5 -33t-5.5 -36l-84 -12q6 24 6 42t-7 25t-20 7q-22 0 -31.5 -18t-15.5 -54h-76q5 20 6.5 28.5t1.5 15.5q0 12 -5.5 20t-22.5 8q-16 0 -27.5 -16t-20.5 -58z" />
    <glyph glyph-name="uni033D" unicode="&#x33d;" 
d="M55 535l-43 56l60 51l-39 51l65 56l38 -51l60 51l42 -56l-59 -51l39 -51l-65 -56l-39 51z" />
    <glyph glyph-name="uni0342" unicode="&#x342;" 
d="M186 572q-32 0 -52.5 14t-36.5 28t-35 14q-12 0 -22.5 -9.5t-15.5 -36.5l-104 6q14 85 54 121.5t96 36.5q33 0 53 -14t36 -28t35 -14q12 0 23 9.5t15 36.5l104 -6q-13 -85 -53.5 -121.5t-96.5 -36.5z" />
    <glyph glyph-name="uni0343" unicode="&#x343;" 
d="M76 544l-12 50q28 9 46 20t25 30h-3q-18 0 -33 13.5t-15 34.5q0 30 19.5 48t44.5 18q27 0 42.5 -16.5t15.5 -45.5q0 -51 -31 -91.5t-99 -60.5z" />
    <glyph glyph-name="uni0344" unicode="&#x344;" 
d="M-22 580q-22 0 -36 15t-14 37q0 29 19.5 50.5t48.5 21.5q24 0 38 -14.5t14 -37.5q0 -29 -19.5 -50.5t-50.5 -21.5zM250 580q-24 0 -38 15t-14 37q0 29 19.5 50.5t50.5 21.5q23 0 36.5 -14.5t13.5 -37.5q0 -29 -19.5 -50.5t-48.5 -21.5zM124 564l-67 20l79 228l102 -36z
" />
    <glyph glyph-name="uni0345" unicode="&#x345;" 
d="M14 -222q-52 0 -74 24.5t-22 65.5q0 12 2.5 30t9.5 50h116q-6 -16 -8 -28t-2 -18q0 -14 7.5 -19t16.5 -5q2 0 6 0.5t10 1.5l8 -90q-12 -5 -29.5 -8.5t-40.5 -3.5z" />
    <glyph glyph-name="uni034F" unicode="&#x34f;" 
 />
    <glyph glyph-name="uni0361" unicode="&#x361;" 
d="M-284 532l-36 73q112 62 231.5 92t232.5 30t220.5 -30t194.5 -92l-55 -73q-55 37 -121.5 57.5t-133.5 29t-125 8.5q-56 0 -125 -8.5t-142 -29t-141 -57.5z" />
    <glyph glyph-name="Delta" unicode="&#x2206;" horiz-adv-x="632" 
d="M-4 0l18 96l290 554h194l68 -554l-18 -96h-552zM296 344l-106 -210h206l-16 210q-1 47 -2.5 92t-1.5 94h-4q-19 -48 -37 -93.5t-39 -92.5z" />
    <glyph glyph-name="Delta" unicode="&#x394;" horiz-adv-x="632" 
d="M-4 0l18 96l290 554h194l68 -554l-18 -96h-552zM296 344l-106 -210h206l-16 210q-1 47 -2.5 92t-1.5 94h-4q-19 -48 -37 -93.5t-39 -92.5z" />
    <glyph glyph-name="Omega" unicode="&#x2126;" horiz-adv-x="712" 
d="M-8 0l24 128h104v4q-16 24 -32 71t-16 105q0 79 27.5 144t76.5 112t115 72.5t143 25.5q116 0 184 -62.5t68 -173.5q0 -72 -24.5 -129t-58 -98.5t-61.5 -66.5v-4h104l-24 -128h-278l20 104q80 63 117 138t37 154q0 59 -29.5 93.5t-80.5 34.5t-91.5 -30t-63.5 -84.5
t-23 -127.5q0 -52 15 -98.5t43 -79.5l-20 -104h-276z" />
    <glyph glyph-name="Omega" unicode="&#x3a9;" horiz-adv-x="712" 
d="M-8 0l24 128h104v4q-16 24 -32 71t-16 105q0 79 27.5 144t76.5 112t115 72.5t143 25.5q116 0 184 -62.5t68 -173.5q0 -72 -24.5 -129t-58 -98.5t-61.5 -66.5v-4h104l-24 -128h-278l20 104q80 63 117 138t37 154q0 59 -29.5 93.5t-80.5 34.5t-91.5 -30t-63.5 -84.5
t-23 -127.5q0 -52 15 -98.5t43 -79.5l-20 -104h-276z" />
    <glyph glyph-name="pi" unicode="&#x3c0;" horiz-adv-x="620" 
d="M461 -12q-67 0 -95.5 34.5t-28.5 91.5q0 29 9 74t21.5 94.5t22.5 93.5h-98q-17 -87 -40.5 -188.5t-49.5 -199.5l-156 12q33 101 58.5 199t41.5 177h-94l24 118l74 6h490l-24 -124h-76q-9 -34 -18 -71.5t-16 -71t-11.5 -57t-4.5 -29.5q0 -18 9.5 -25t25.5 -7q5 0 10 1.5
t12 2.5l-4 -116q-14 -5 -35 -10t-47 -5z" />
    <glyph glyph-name="uni1D25" unicode="&#x1d25;" horiz-adv-x="568" 
d="M62 -12q-27 0 -51.5 7t-38.5 19l62 114q21 -12 46 -12q18 0 36 8.5t40 27.5q-29 36 -48.5 75.5t-19.5 78.5q0 52 27.5 99t79.5 77t127 30q47 0 85.5 -16t61.5 -49.5t23 -84.5q0 -58 -36 -108t-108 -106q20 -19 39 -25.5t41 -6.5q9 0 21 3.5t19 8.5l38 -118
q-41 -22 -100 -22q-93 0 -168 80q-52 -43 -94.5 -61.5t-81.5 -18.5z" />
    <glyph glyph-name="a.sups" unicode="&#x1d43;" horiz-adv-x="370" 
d="M168 360q-43 0 -68.5 32t-25.5 90q0 63 25.5 114.5t66 81.5t86.5 30q21 0 38 -12t26 -30h4l16 34h90l-66 -332h-90v40h-4q-21 -22 -47.5 -35t-50.5 -13zM216 450q14 0 29.5 8.5t28.5 33.5l18 102q-4 12 -13.5 18t-18.5 6q-27 0 -49.5 -34t-22.5 -88q0 -24 8 -35t20 -11z
" />
    <glyph glyph-name="b.sups" unicode="&#x1d47;" horiz-adv-x="374" 
d="M238 360q-21 0 -38 11.5t-26 30.5h-4l-16 -34h-90l92 460h112l-19 -96l-21 -64h4q18 17 42 28.5t48 11.5q44 0 69 -31.5t25 -90.5q0 -63 -25.5 -114t-66 -81.5t-86.5 -30.5zM230 450q27 0 49.5 34t22.5 88q0 24 -8 35t-20 11q-13 0 -28.5 -8t-29.5 -34l-18 -102
q5 -12 14 -18t18 -6z" />
    <glyph glyph-name="d.sups" unicode="&#x1d48;" horiz-adv-x="386" 
d="M172 360q-43 0 -68.5 32t-25.5 90q0 63 25.5 114.5t66 81.5t86.5 30q21 0 38 -11.5t24 -26.5h4l4 66l18 92h112l-92 -460h-90v40h-4q-21 -22 -48 -35t-50 -13zM220 450q14 0 29.5 8.5t28.5 33.5l18 102q-5 12 -14.5 18t-17.5 6q-27 0 -49.5 -34t-22.5 -88q0 -24 8 -35
t20 -11z" />
    <glyph glyph-name="e.sups" unicode="&#x1d49;" horiz-adv-x="336" 
d="M219 360q-64 0 -103.5 38.5t-39.5 105.5q0 61 29 106.5t72.5 71.5t88.5 26q62 0 86.5 -37.5t24.5 -90.5q0 -25 -7 -48.5t-12 -31.5h-179q2 -31 22 -44.5t50 -13.5q21 0 52 19l32 -70q-28 -16 -58.5 -23.5t-57.5 -7.5zM187 566h98q1 5 1.5 9.5t0.5 10.5q0 16 -7.5 27
t-27.5 11q-18 0 -36 -14t-29 -44z" />
    <glyph glyph-name="g.sups" unicode="&#x1d4d;" horiz-adv-x="370" 
d="M183 221q-29 0 -65 10.5t-69 34.5l44 74q22 -13 45.5 -23t47.5 -10q52 0 72 56l16 45h-4q-22 -16 -46 -25.5t-50 -9.5q-44 0 -69 30.5t-25 85.5q0 61 24.5 110.5t65 79t86.5 29.5q21 0 38 -12t26 -30h4l16 34h90l-66 -330q-16 -77 -63 -113t-118 -36zM222 462
q14 0 28.5 5.5t26.5 23.5l19 103q-5 12 -14.5 18t-17.5 6q-28 0 -48.5 -32t-20.5 -83q0 -41 27 -41z" />
    <glyph glyph-name="k.sups" unicode="&#x1d4f;" horiz-adv-x="368" 
d="M64 368l92 460h112l-50 -246h4l104 118h122l-139 -149l81 -183h-111l-45 120l-42 -40l-16 -80h-112z" />
    <glyph glyph-name="m.sups" unicode="&#x1d50;" horiz-adv-x="560" 
d="M65 368l65 332h90v-44h4q23 21 49.5 36.5t60.5 15.5q32 0 49 -15.5t25 -41.5q23 21 51 39t61 18q41 0 59 -23t18 -67q0 -22 -5 -47l-41 -203h-110l37 190q3 15 3 31q0 11 -4 18t-18 7q-9 0 -23.5 -8.5t-31.5 -27.5l-41 -210h-109l37 190q2 8 3.5 14.5t1.5 13.5
q0 28 -26 28q-8 0 -22.5 -9t-30.5 -27l-41 -210h-111z" />
    <glyph glyph-name="o.sups" unicode="&#x1d52;" horiz-adv-x="362" 
d="M212 360q-57 0 -96.5 36.5t-39.5 102.5q0 64 27.5 110.5t71 72.5t91.5 26q57 0 96.5 -36.5t39.5 -102.5q0 -64 -27.5 -110.5t-71 -72.5t-91.5 -26zM222 448q32 0 50 34.5t18 85.5q0 24 -8 38t-26 14q-31 0 -49.5 -34.5t-18.5 -85.5q0 -24 8 -38t26 -14z" />
    <glyph glyph-name="p.sups" unicode="&#x1d56;" horiz-adv-x="374" 
d="M38 236l92 464h90l4 -36h4q23 21 46.5 32.5t47.5 11.5q44 0 69 -31.5t25 -90.5q0 -63 -25.5 -114t-66 -81.5t-86.5 -30.5q-20 0 -37.5 11.5t-26.5 30.5h-4l-1 -69l-19 -97h-112zM274 618q-13 0 -28.5 -8t-29.5 -34l-18 -102q9 -25 29 -25q27 0 51 34.5t24 88.5
q0 24 -8 35t-20 11z" />
    <glyph glyph-name="t.sups" unicode="&#x1d57;" horiz-adv-x="260" 
d="M202 360q-55 0 -79 26.5t-24 67.5q0 11 1.5 22t3.5 22l25 116h-43l16 82l50 4l28 83h92l-17 -83h74l-16 -86h-75l-24 -120q-1 -5 -1 -9.5v-9.5q0 -29 27 -29q8 0 13 1.5t12 3.5l17 -79q-15 -4 -36 -8t-44 -4z" />
    <glyph glyph-name="u.sups" unicode="&#x1d58;" horiz-adv-x="370" 
d="M158 360q-41 0 -61 23t-20 66q0 11 2.5 23.5t3.5 22.5l41 205h112l-38 -191q-4 -16 -4 -28q0 -27 25 -27q14 0 26 9t28 27l41 210h112l-66 -332h-90v44h-4q-22 -21 -49 -36.5t-59 -15.5z" />
    <glyph glyph-name="v.sups" unicode="&#x1d5b;" horiz-adv-x="350" 
d="M140 368l-41 332h111l6 -150l1 -102h3l42 102l63 150h108l-166 -332h-127z" />
    <glyph glyph-name="c.sups" unicode="&#x1d9c;" horiz-adv-x="298" 
d="M211 360q-55 0 -95 35t-40 97q0 59 26 108t71.5 78.5t102.5 29.5q31 0 55 -12.5t39 -27.5l-63 -67q-8 10 -16 14.5t-19 4.5q-35 0 -59 -34.5t-24 -80.5q0 -30 14 -44t33 -14q16 0 25.5 5.5t19.5 11.5l35 -69q-15 -13 -43 -24t-62 -11z" />
    <glyph glyph-name="f.sups" unicode="&#x1da0;" horiz-adv-x="234" 
d="M82 368l50 246h-42l14 80l45 5l3 14q7 35 23.5 64.5t45 47.5t71.5 18q41 0 77 -19l-34 -76q-5 3 -13.5 6t-16.5 3q-17 0 -27 -10.5t-15 -37.5l-2 -9h55l-18 -86h-55l-50 -246h-111z" />
    <glyph glyph-name="z.sups" unicode="&#x1dbb;" horiz-adv-x="308" 
d="M53 368l12 61l156 185h-106l16 86h246l-13 -63l-155 -183h123l-16 -86h-263z" />
    <glyph glyph-name="uni1E02" unicode="&#x1e02;" horiz-adv-x="612" 
d="M26 0l130 650h208q66 0 117 -15.5t80 -48.5t29 -86q0 -52 -36 -96.5t-104 -65.5l-2 -4q110 -27 110 -118q0 -78 -40 -125.5t-105 -69t-141 -21.5h-246zM264 390h54q59 0 83.5 22.5t24.5 59.5q0 56 -88 56h-46zM210 122h74q60 0 90 24t30 64q0 72 -88 72h-74zM396 698
q-31 0 -57.5 18.5t-26.5 55.5q0 36 28 63t68 27q32 0 58 -19t26 -55q0 -39 -27.5 -64.5t-68.5 -25.5z" />
    <glyph glyph-name="uni1E03" unicode="&#x1e03;" horiz-adv-x="560" 
d="M264 -12q-31 0 -58.5 17t-41.5 45h-2l-22 -50h-132l140 696h160l-30 -146l-26 -92h2q32 26 67 40t69 14q66 0 103 -47.5t37 -136.5q0 -71 -22 -133t-59.5 -108.5t-85 -72.5t-99.5 -26zM252 118q29 0 54.5 24t41.5 67t16 99q0 39 -12.5 56.5t-33.5 17.5q-19 0 -42.5 -11.5
t-41.5 -44.5l-34 -170q8 -19 22.5 -28.5t29.5 -9.5zM430 564q-31 0 -57.5 18.5t-26.5 55.5q0 36 28 63t68 27q32 0 58 -19t26 -55q0 -39 -27.5 -64.5t-68.5 -25.5z" />
    <glyph glyph-name="uni1E06" unicode="&#x1e06;" horiz-adv-x="612" 
d="M26 0l130 650h208q66 0 117 -15.5t80 -48.5t29 -86q0 -52 -36 -96.5t-104 -65.5l-2 -4q110 -27 110 -118q0 -78 -40 -125.5t-105 -69t-141 -21.5h-246zM264 390h54q59 0 83.5 22.5t24.5 59.5q0 56 -88 56h-46zM210 122h74q60 0 90 24t30 64q0 72 -88 72h-74zM88 -170
l20 100h294l-20 -100h-294z" />
    <glyph glyph-name="uni1E07" unicode="&#x1e07;" horiz-adv-x="560" 
d="M264 -12q-31 0 -58.5 17t-41.5 45h-2l-22 -50h-132l140 696h160l-30 -146l-26 -92h2q32 26 67 40t69 14q66 0 103 -47.5t37 -136.5q0 -71 -22 -133t-59.5 -108.5t-85 -72.5t-99.5 -26zM252 118q29 0 54.5 24t41.5 67t16 99q0 39 -12.5 56.5t-33.5 17.5q-19 0 -42.5 -11.5
t-41.5 -44.5l-34 -170q8 -19 22.5 -28.5t29.5 -9.5zM48 -170l20 100h294l-20 -100h-294z" />
    <glyph glyph-name="uni1E0A" unicode="&#x1e0a;" horiz-adv-x="626" 
d="M26 0l130 650h152q137 0 214.5 -62t77.5 -194t-47.5 -219.5t-129 -131t-183.5 -43.5h-214zM212 128h24q54 0 99.5 25t73 81t27.5 150q0 77 -37.5 107.5t-94.5 30.5h-14zM406 698q-31 0 -57.5 18.5t-26.5 55.5q0 36 28 63t68 27q32 0 58 -19t26 -55q0 -39 -27.5 -64.5
t-68.5 -25.5z" />
    <glyph glyph-name="uni1E0B" unicode="&#x1e0b;" horiz-adv-x="550" 
d="M168 -12q-66 0 -103 48t-37 136q0 71 22 133t59.5 108.5t85 72.5t99.5 26q32 0 57.5 -15t38.5 -41h2l10 94l28 146h160l-140 -696h-130v62h-2q-33 -34 -73.5 -54t-76.5 -20zM240 118q20 0 43.5 13t44.5 53l32 160q-9 20 -24.5 29t-29.5 9q-29 0 -54.5 -24t-41.5 -67
t-16 -99q0 -39 12.5 -56.5t33.5 -17.5zM280 564q-31 0 -57.5 18.5t-26.5 55.5q0 36 28 63t68 27q32 0 58 -19t26 -55q0 -39 -27.5 -64.5t-68.5 -25.5z" />
    <glyph glyph-name="uni1E0C" unicode="&#x1e0c;" horiz-adv-x="626" 
d="M26 0l130 650h152q137 0 214.5 -62t77.5 -194t-47.5 -219.5t-129 -131t-183.5 -43.5h-214zM212 128h24q54 0 99.5 25t73 81t27.5 150q0 77 -37.5 107.5t-94.5 30.5h-14zM230 -246q-31 0 -57.5 18.5t-26.5 55.5q0 36 28 63t68 27q32 0 58 -19t26 -55q0 -39 -27.5 -64.5
t-68.5 -25.5z" />
    <glyph glyph-name="uni1E0D" unicode="&#x1e0d;" horiz-adv-x="550" 
d="M168 -12q-66 0 -103 48t-37 136q0 71 22 133t59.5 108.5t85 72.5t99.5 26q32 0 57.5 -15t38.5 -41h2l10 94l28 146h160l-140 -696h-130v62h-2q-33 -34 -73.5 -54t-76.5 -20zM240 118q20 0 43.5 13t44.5 53l32 160q-9 20 -24.5 29t-29.5 9q-29 0 -54.5 -24t-41.5 -67
t-16 -99q0 -39 12.5 -56.5t33.5 -17.5zM190 -246q-31 0 -57.5 18.5t-26.5 55.5q0 36 28 63t68 27q32 0 58 -19t26 -55q0 -39 -27.5 -64.5t-68.5 -25.5z" />
    <glyph glyph-name="uni1E0E" unicode="&#x1e0e;" horiz-adv-x="626" 
d="M26 0l130 650h152q137 0 214.5 -62t77.5 -194t-47.5 -219.5t-129 -131t-183.5 -43.5h-214zM212 128h24q54 0 99.5 25t73 81t27.5 150q0 77 -37.5 107.5t-94.5 30.5h-14zM88 -170l20 100h294l-20 -100h-294z" />
    <glyph glyph-name="uni1E0F" unicode="&#x1e0f;" horiz-adv-x="550" 
d="M168 -12q-66 0 -103 48t-37 136q0 71 22 133t59.5 108.5t85 72.5t99.5 26q32 0 57.5 -15t38.5 -41h2l10 94l28 146h160l-140 -696h-130v62h-2q-33 -34 -73.5 -54t-76.5 -20zM240 118q20 0 43.5 13t44.5 53l32 160q-9 20 -24.5 29t-29.5 9q-29 0 -54.5 -24t-41.5 -67
t-16 -99q0 -39 12.5 -56.5t33.5 -17.5zM48 -170l20 100h294l-20 -100h-294z" />
    <glyph glyph-name="uni1E16" unicode="&#x1e16;" horiz-adv-x="536" 
d="M26 0l130 650h396l-26 -134h-238l-22 -114h202l-26 -134h-202l-28 -134h246l-26 -134h-406zM218 716l20 102h300l-20 -102h-300zM410 829l-66 50l123 144l94 -72z" />
    <glyph glyph-name="uni1E17" unicode="&#x1e17;" horiz-adv-x="502" 
d="M234 -12q-61 0 -108 26t-73.5 74.5t-26.5 115.5q0 69 25 125.5t66 97.5t91 63t100 22q61 0 97.5 -26t52.5 -69t16 -95q0 -36 -10 -70.5t-16 -45.5h-272q0 -52 30.5 -75t73.5 -23q21 0 44.5 10t39.5 22l56 -100q-30 -21 -77 -36.5t-109 -15.5zM188 302h152q2 5 3 13t1 15
q0 26 -12 43t-44 17q-28 0 -55.5 -20.5t-44.5 -67.5zM188 590l20 100h294l-20 -100h-294zM374 719l-56 45l100 132l79 -66z" />
    <glyph glyph-name="uni1E1E" unicode="&#x1e1e;" horiz-adv-x="516" 
d="M26 0l130 650h396l-26 -134h-238l-26 -134h202l-26 -134h-202l-50 -248h-160zM376 698q-31 0 -57.5 18.5t-26.5 55.5q0 36 28 63t68 27q32 0 58 -19t26 -55q0 -39 -27.5 -64.5t-68.5 -25.5z" />
    <glyph glyph-name="uni1E1F" unicode="&#x1e1f;" horiz-adv-x="344" 
d="M34 0l76 376h-64l24 118l66 6l2 14q10 52 34.5 96t66.5 71t105 27q61 0 114 -28l-50 -112q-7 5 -20.5 9.5t-25.5 4.5q-25 0 -40.5 -10.5t-23.5 -51.5l-4 -20h82l-24 -124h-84l-74 -376h-160zM346 736q-31 0 -57.5 18.5t-26.5 55.5q0 36 28 63t68 27q32 0 58 -19t26 -55
q0 -39 -27.5 -64.5t-68.5 -25.5z" />
    <glyph glyph-name="uni1E20" unicode="&#x1e20;" horiz-adv-x="620" 
d="M320 -12q-121 0 -192.5 72t-71.5 204q0 87 27.5 160t76.5 126t114.5 82.5t141.5 29.5q65 0 112.5 -27.5t75.5 -78.5l-108 -84q-35 52 -88 52q-52 0 -94.5 -33.5t-68 -90t-25.5 -126.5t29.5 -110t98.5 -40q32 0 56 16l24 108h-96l24 130h236l-62 -322q-37 -28 -92 -48
t-118 -20zM270 716l20 102h300l-20 -102h-300z" />
    <glyph glyph-name="uni1E21" unicode="&#x1e21;" horiz-adv-x="552" 
d="M180 -196q-42 0 -92.5 17t-95.5 53l68 106q29 -21 60 -35.5t64 -14.5q41 0 69.5 19.5t40.5 56.5l26 82q-65 -68 -146 -68q-63 0 -104.5 43t-41.5 131q0 67 21 124.5t57.5 101t83 68t98.5 24.5q32 0 60.5 -16.5t41.5 -45.5h2l22 50h130l-96 -480q-22 -112 -91.5 -164
t-176.5 -52zM238 150q21 0 45 11t43 45l26 138q-9 20 -23.5 29t-28.5 9q-43 0 -74.5 -46.5t-31.5 -121.5q0 -33 12.5 -48.5t31.5 -15.5zM178 590l20 100h294l-20 -100h-294z" />
    <glyph glyph-name="uni1E24" unicode="&#x1e24;" horiz-adv-x="664" 
d="M26 0l130 650h160l-50 -244h194l48 244h160l-130 -650h-160l54 266h-194l-52 -266h-160zM250 -246q-31 0 -57.5 18.5t-26.5 55.5q0 36 28 63t68 27q32 0 58 -19t26 -55q0 -39 -27.5 -64.5t-68.5 -25.5z" />
    <glyph glyph-name="uni1E25" unicode="&#x1e25;" horiz-adv-x="556" 
d="M8 0l140 696h160l-34 -162l-24 -88h4q30 27 68.5 46.5t83.5 19.5q62 0 90 -32.5t28 -97.5q0 -16 -1.5 -35t-6.5 -37l-62 -310h-160l58 290q3 14 5.5 24.5t2.5 19.5q0 42 -42 42q-21 0 -41 -13.5t-47 -42.5l-62 -320h-160zM190 -246q-31 0 -57.5 18.5t-26.5 55.5
q0 36 28 63t68 27q32 0 58 -19t26 -55q0 -39 -27.5 -64.5t-68.5 -25.5z" />
    <glyph glyph-name="uni1E2A" unicode="&#x1e2a;" horiz-adv-x="664" 
d="M26 0l130 650h160l-50 -244h194l48 244h160l-130 -650h-160l54 266h-194l-52 -266h-160zM249 -248q-88 0 -122 45t-24 115l100 16q-1 -30 14.5 -50t51.5 -20t58 20t32 50l92 -16q-13 -70 -63 -115t-139 -45z" />
    <glyph glyph-name="uni1E2B" unicode="&#x1e2b;" horiz-adv-x="556" 
d="M8 0l140 696h160l-34 -162l-24 -88h4q30 27 68.5 46.5t83.5 19.5q62 0 90 -32.5t28 -97.5q0 -16 -1.5 -35t-6.5 -37l-62 -310h-160l58 290q3 14 5.5 24.5t2.5 19.5q0 42 -42 42q-21 0 -41 -13.5t-47 -42.5l-62 -320h-160zM189 -248q-88 0 -122 45t-24 115l100 16
q-1 -30 14.5 -50t51.5 -20t58 20t32 50l92 -16q-13 -70 -63 -115t-139 -45z" />
    <glyph glyph-name="uni1E32" unicode="&#x1e32;" horiz-adv-x="622" 
d="M26 0l130 650h160l-49 -246h4l213 246h174l-234 -274l144 -376h-166l-96 276l-84 -96l-36 -180h-160zM260 -246q-31 0 -57.5 18.5t-26.5 55.5q0 36 28 63t68 27q32 0 58 -19t26 -55q0 -39 -27.5 -64.5t-68.5 -25.5z" />
    <glyph glyph-name="uni1E33" unicode="&#x1e33;" horiz-adv-x="544" 
d="M8 0l140 696h160l-76 -376h4l164 180h176l-206 -222l118 -278h-160l-68 186l-68 -68l-24 -118h-160zM200 -246q-31 0 -57.5 18.5t-26.5 55.5q0 36 28 63t68 27q32 0 58 -19t26 -55q0 -39 -27.5 -64.5t-68.5 -25.5z" />
    <glyph glyph-name="uni1E34" unicode="&#x1e34;" horiz-adv-x="622" 
d="M26 0l130 650h160l-49 -246h4l213 246h174l-234 -274l144 -376h-166l-96 276l-84 -96l-36 -180h-160zM118 -170l20 100h294l-20 -100h-294z" />
    <glyph glyph-name="uni1E35" unicode="&#x1e35;" horiz-adv-x="544" 
d="M8 0l140 696h160l-76 -376h4l164 180h176l-206 -222l118 -278h-160l-68 186l-68 -68l-24 -118h-160zM58 -170l20 100h294l-20 -100h-294z" />
    <glyph glyph-name="uni1E36" unicode="&#x1e36;" horiz-adv-x="514" 
d="M26 0l130 650h160l-104 -516h236l-26 -134h-396zM180 -246q-31 0 -57.5 18.5t-26.5 55.5q0 36 28 63t68 27q32 0 58 -19t26 -55q0 -39 -27.5 -64.5t-68.5 -25.5z" />
    <glyph glyph-name="uni1E37" unicode="&#x1e37;" horiz-adv-x="286" 
d="M148 -12q-61 0 -87.5 29.5t-26.5 80.5q0 15 2 31t6 37l106 530h160l-108 -536q-1 -7 -1.5 -11t-0.5 -8q0 -14 6.5 -19.5t13.5 -5.5q5 0 8.5 0.5t9.5 1.5l-6 -118q-13 -4 -34 -8t-48 -4zM84 -246q-31 0 -57.5 18.5t-26.5 55.5q0 36 28 63t68 27q32 0 58 -19t26 -55
q0 -39 -27.5 -64.5t-68.5 -25.5z" />
    <glyph glyph-name="uni1E38" unicode="&#x1e38;" horiz-adv-x="514" 
d="M26 0l130 650h160l-104 -516h236l-26 -134h-396zM120 716l20 102h300l-20 -102h-300zM180 -246q-31 0 -57.5 18.5t-26.5 55.5q0 36 28 63t68 27q32 0 58 -19t26 -55q0 -39 -27.5 -64.5t-68.5 -25.5z" />
    <glyph glyph-name="uni1E39" unicode="&#x1e39;" horiz-adv-x="286" 
d="M148 -12q-61 0 -87.5 29.5t-26.5 80.5q0 15 2 31t6 37l106 530h160l-108 -536q-1 -7 -1.5 -11t-0.5 -8q0 -14 6.5 -19.5t13.5 -5.5q5 0 8.5 0.5t9.5 1.5l-6 -118q-13 -4 -34 -8t-48 -4zM80 754l20 102h300l-20 -102h-300zM84 -246q-31 0 -57.5 18.5t-26.5 55.5
q0 36 28 63t68 27q32 0 58 -19t26 -55q0 -39 -27.5 -64.5t-68.5 -25.5z" />
    <glyph glyph-name="uni1E3A" unicode="&#x1e3a;" horiz-adv-x="514" 
d="M26 0l130 650h160l-104 -516h236l-26 -134h-396zM38 -170l20 100h294l-20 -100h-294z" />
    <glyph glyph-name="uni1E3B" unicode="&#x1e3b;" horiz-adv-x="286" 
d="M148 -12q-61 0 -87.5 29.5t-26.5 80.5q0 15 2 31t6 37l106 530h160l-108 -536q-1 -7 -1.5 -11t-0.5 -8q0 -14 6.5 -19.5t13.5 -5.5q5 0 8.5 0.5t9.5 1.5l-6 -118q-13 -4 -34 -8t-48 -4zM-58 -170l20 100h294l-20 -100h-294z" />
    <glyph glyph-name="uni1E3E" unicode="&#x1e3e;" horiz-adv-x="754" 
d="M26 0l130 650h166l42 -280l15 -110h4l57 110l152 280h166l-130 -650h-150l46 216q7 34 18 74.5t23 80.5t23 73h-3l-81 -152l-138 -236h-60l-42 236l-20 152h-3q-2 -33 -5.5 -73.5t-8 -81t-11.5 -73.5l-44 -216h-146zM412 680l-61 92l207 127l70 -117z" />
    <glyph glyph-name="uni1E3F" unicode="&#x1e3f;" horiz-adv-x="838" 
d="M8 0l100 500h130v-64h4q35 30 75 53t83 23q54 0 79 -22.5t37 -61.5q39 36 81 60t85 24q62 0 90 -32.5t28 -97.5q0 -34 -8 -72l-62 -310h-160l58 290q3 14 5.5 24.5t2.5 19.5q0 42 -42 42q-29 0 -82 -56l-64 -320h-160l58 290q3 14 5.5 24.5t2.5 19.5q0 21 -11 31.5
t-29 10.5q-31 0 -84 -56l-62 -320h-160zM486 578l-69 90l191 172l95 -122z" />
    <glyph glyph-name="uni1E40" unicode="&#x1e40;" horiz-adv-x="754" 
d="M26 0l130 650h166l42 -280l15 -110h4l57 110l152 280h166l-130 -650h-150l46 216q7 34 18 74.5t23 80.5t23 73h-3l-81 -152l-138 -236h-60l-42 236l-20 152h-3q-2 -33 -5.5 -73.5t-8 -81t-11.5 -73.5l-44 -216h-146zM466 698q-31 0 -57.5 18.5t-26.5 55.5q0 36 28 63
t68 27q32 0 58 -19t26 -55q0 -39 -27.5 -64.5t-68.5 -25.5z" />
    <glyph glyph-name="uni1E41" unicode="&#x1e41;" horiz-adv-x="838" 
d="M8 0l100 500h130v-64h4q35 30 75 53t83 23q54 0 79 -22.5t37 -61.5q39 36 81 60t85 24q62 0 90 -32.5t28 -97.5q0 -34 -8 -72l-62 -310h-160l58 290q3 14 5.5 24.5t2.5 19.5q0 42 -42 42q-29 0 -82 -56l-64 -320h-160l58 290q3 14 5.5 24.5t2.5 19.5q0 21 -11 31.5
t-29 10.5q-31 0 -84 -56l-62 -320h-160zM510 564q-31 0 -57.5 18.5t-26.5 55.5q0 36 28 63t68 27q32 0 58 -19t26 -55q0 -39 -27.5 -64.5t-68.5 -25.5z" />
    <glyph glyph-name="uni1E42" unicode="&#x1e42;" horiz-adv-x="754" 
d="M26 0l130 650h166l42 -280l15 -110h4l57 110l152 280h166l-130 -650h-150l46 216q7 34 18 74.5t23 80.5t23 73h-3l-81 -152l-138 -236h-60l-42 236l-20 152h-3q-2 -33 -5.5 -73.5t-8 -81t-11.5 -73.5l-44 -216h-146zM280 -254q-31 0 -57.5 18.5t-26.5 55.5q0 36 28 63
t68 27q32 0 58 -19t26 -55q0 -39 -27.5 -64.5t-68.5 -25.5z" />
    <glyph glyph-name="uni1E43" unicode="&#x1e43;" horiz-adv-x="838" 
d="M8 0l100 500h130v-64h4q35 30 75 53t83 23q54 0 79 -22.5t37 -61.5q39 36 81 60t85 24q62 0 90 -32.5t28 -97.5q0 -34 -8 -72l-62 -310h-160l58 290q3 14 5.5 24.5t2.5 19.5q0 42 -42 42q-29 0 -82 -56l-64 -320h-160l58 290q3 14 5.5 24.5t2.5 19.5q0 21 -11 31.5
t-29 10.5q-31 0 -84 -56l-62 -320h-160zM334 -246q-31 0 -57.5 18.5t-26.5 55.5q0 36 28 63t68 27q32 0 58 -19t26 -55q0 -39 -27.5 -64.5t-68.5 -25.5z" />
    <glyph glyph-name="uni1E44" unicode="&#x1e44;" horiz-adv-x="652" 
d="M26 0l130 650h154l90 -308l32 -146h4q5 53 9.5 120.5t16.5 125.5l42 208h152l-130 -650h-154l-90 308l-30 146h-4q-4 -55 -10 -120t-18 -124l-42 -210h-152zM426 698q-31 0 -57.5 18.5t-26.5 55.5q0 36 28 63t68 27q32 0 58 -19t26 -55q0 -39 -27.5 -64.5t-68.5 -25.5z
" />
    <glyph glyph-name="uni1E45" unicode="&#x1e45;" horiz-adv-x="562" 
d="M8 0l100 500h130v-64h4q35 30 75.5 53t88.5 23q62 0 90 -32.5t28 -97.5q0 -34 -8 -72l-62 -310h-160l58 290q3 14 5.5 24.5t2.5 19.5q0 42 -42 42q-21 0 -41 -13.5t-47 -42.5l-62 -320h-160zM380 564q-31 0 -57.5 18.5t-26.5 55.5q0 36 28 63t68 27q32 0 58 -19t26 -55
q0 -39 -27.5 -64.5t-68.5 -25.5z" />
    <glyph glyph-name="uni1E46" unicode="&#x1e46;" horiz-adv-x="652" 
d="M26 0l130 650h154l90 -308l32 -146h4q5 53 9.5 120.5t16.5 125.5l42 208h152l-130 -650h-154l-90 308l-30 146h-4q-4 -55 -10 -120t-18 -124l-42 -210h-152zM240 -254q-31 0 -57.5 18.5t-26.5 55.5q0 36 28 63t68 27q32 0 58 -19t26 -55q0 -39 -27.5 -64.5t-68.5 -25.5z
" />
    <glyph glyph-name="uni1E47" unicode="&#x1e47;" horiz-adv-x="562" 
d="M8 0l100 500h130v-64h4q35 30 75.5 53t88.5 23q62 0 90 -32.5t28 -97.5q0 -34 -8 -72l-62 -310h-160l58 290q3 14 5.5 24.5t2.5 19.5q0 42 -42 42q-21 0 -41 -13.5t-47 -42.5l-62 -320h-160zM194 -246q-31 0 -57.5 18.5t-26.5 55.5q0 36 28 63t68 27q32 0 58 -19t26 -55
q0 -39 -27.5 -64.5t-68.5 -25.5z" />
    <glyph glyph-name="uni1E48" unicode="&#x1e48;" horiz-adv-x="652" 
d="M26 0l130 650h154l90 -308l32 -146h4q5 53 9.5 120.5t16.5 125.5l42 208h152l-130 -650h-154l-90 308l-30 146h-4q-4 -55 -10 -120t-18 -124l-42 -210h-152zM98 -178l20 100h294l-20 -100h-294z" />
    <glyph glyph-name="uni1E49" unicode="&#x1e49;" horiz-adv-x="562" 
d="M8 0l100 500h130v-64h4q35 30 75.5 53t88.5 23q62 0 90 -32.5t28 -97.5q0 -34 -8 -72l-62 -310h-160l58 290q3 14 5.5 24.5t2.5 19.5q0 42 -42 42q-21 0 -41 -13.5t-47 -42.5l-62 -320h-160zM52 -170l20 100h294l-20 -100h-294z" />
    <glyph glyph-name="uni1E52" unicode="&#x1e52;" horiz-adv-x="670" 
d="M308 -12q-75 0 -131.5 32.5t-88.5 94t-32 149.5q0 91 28 164t75.5 125.5t108 80.5t124.5 28q75 0 132 -32.5t88.5 -94t31.5 -149.5q0 -91 -28 -164t-75.5 -125.5t-107.5 -80.5t-125 -28zM316 126q37 0 75 31.5t63.5 87.5t25.5 131q0 71 -25.5 109.5t-70.5 38.5
q-37 0 -75 -31.5t-63.5 -87.5t-25.5 -131q0 -70 25.5 -109t70.5 -39zM268 716l20 102h300l-20 -102h-300zM460 829l-66 50l123 144l94 -72z" />
    <glyph glyph-name="uni1E53" unicode="&#x1e53;" horiz-adv-x="540" 
d="M226 -12q-60 0 -105 26t-70 73t-25 109q0 73 24.5 131t65.5 99.5t91.5 63.5t102.5 22q60 0 105 -26t70 -73t25 -109q0 -73 -24.5 -131t-65.5 -99.5t-91.5 -63.5t-102.5 -22zM244 116q29 0 52.5 24t37.5 66t14 96q0 38 -13.5 60t-42.5 22t-52.5 -24t-37.5 -66t-14 -96
q0 -37 14 -59.5t42 -22.5zM188 590l20 100h294l-20 -100h-294zM374 719l-56 45l100 132l79 -66z" />
    <glyph glyph-name="uni1E56" unicode="&#x1e56;" horiz-adv-x="596" 
d="M26 0l130 650h214q65 0 117 -17.5t82.5 -56.5t30.5 -104q0 -71 -24.5 -121t-67.5 -80.5t-98 -44.5t-116 -14h-66l-42 -212h-160zM254 338h59q62 0 95.5 28t33.5 82q0 39 -25 57.5t-69 18.5h-58zM406 698q-31 0 -57.5 18.5t-26.5 55.5q0 36 28 63t68 27q32 0 58 -19
t26 -55q0 -39 -27.5 -64.5t-68.5 -25.5z" />
    <glyph glyph-name="uni1E57" unicode="&#x1e57;" horiz-adv-x="560" 
d="M-28 -176l136 676h130l4 -54h2q33 30 71.5 48t74.5 18q66 0 103 -47.5t37 -136.5q0 -71 -22 -133t-59.5 -108.5t-85 -72.5t-99.5 -26q-28 0 -53.5 14.5t-40.5 39.5h-2l-12 -94l-24 -124h-160zM252 118q29 0 54.5 24t41.5 67t16 99q0 39 -12.5 56.5t-33.5 17.5
q-19 0 -42.5 -11.5t-41.5 -44.5l-34 -170q8 -19 22.5 -28.5t29.5 -9.5zM360 564q-31 0 -57.5 18.5t-26.5 55.5q0 36 28 63t68 27q32 0 58 -19t26 -55q0 -39 -27.5 -64.5t-68.5 -25.5z" />
    <glyph glyph-name="uni1E58" unicode="&#x1e58;" horiz-adv-x="612" 
d="M26 0l130 650h214q65 0 117 -16.5t82.5 -54.5t30.5 -101q0 -91 -44.5 -147t-112.5 -82l97 -249h-168l-75 224h-67l-44 -224h-160zM256 350h58q65 0 96.5 29t31.5 75q0 36 -24.5 53t-69.5 17h-58zM406 698q-31 0 -57.5 18.5t-26.5 55.5q0 36 28 63t68 27q32 0 58 -19
t26 -55q0 -39 -27.5 -64.5t-68.5 -25.5z" />
    <glyph glyph-name="uni1E59" unicode="&#x1e59;" horiz-adv-x="400" 
d="M8 0l100 500h130l-4 -98h4q29 48 68.5 79t81.5 31q21 0 34 -2.5t20 -7.5l-52 -138q-10 6 -25 7t-27 1q-31 0 -59 -21t-57 -71l-54 -280h-160zM310 564q-31 0 -57.5 18.5t-26.5 55.5q0 36 28 63t68 27q32 0 58 -19t26 -55q0 -39 -27.5 -64.5t-68.5 -25.5z" />
    <glyph glyph-name="uni1E5A" unicode="&#x1e5a;" horiz-adv-x="612" 
d="M26 0l130 650h214q65 0 117 -16.5t82.5 -54.5t30.5 -101q0 -91 -44.5 -147t-112.5 -82l97 -249h-168l-75 224h-67l-44 -224h-160zM256 350h58q65 0 96.5 29t31.5 75q0 36 -24.5 53t-69.5 17h-58zM250 -254q-31 0 -57.5 18.5t-26.5 55.5q0 36 28 63t68 27q32 0 58 -19
t26 -55q0 -39 -27.5 -64.5t-68.5 -25.5z" />
    <glyph glyph-name="uni1E5B" unicode="&#x1e5b;" horiz-adv-x="400" 
d="M8 0l100 500h130l-4 -98h4q29 48 68.5 79t81.5 31q21 0 34 -2.5t20 -7.5l-52 -138q-10 6 -25 7t-27 1q-31 0 -59 -21t-57 -71l-54 -280h-160zM44 -246q-31 0 -57.5 18.5t-26.5 55.5q0 36 28 63t68 27q32 0 58 -19t26 -55q0 -39 -27.5 -64.5t-68.5 -25.5z" />
    <glyph glyph-name="uni1E5C" unicode="&#x1e5c;" horiz-adv-x="612" 
d="M26 0l130 650h214q65 0 117 -16.5t82.5 -54.5t30.5 -101q0 -91 -44.5 -147t-112.5 -82l97 -249h-168l-75 224h-67l-44 -224h-160zM256 350h58q65 0 96.5 29t31.5 75q0 36 -24.5 53t-69.5 17h-58zM250 716l20 102h300l-20 -102h-300zM250 -254q-31 0 -57.5 18.5
t-26.5 55.5q0 36 28 63t68 27q32 0 58 -19t26 -55q0 -39 -27.5 -64.5t-68.5 -25.5z" />
    <glyph glyph-name="uni1E5D" unicode="&#x1e5d;" horiz-adv-x="400" 
d="M8 0l100 500h130l-4 -98h4q29 48 68.5 79t81.5 31q21 0 34 -2.5t20 -7.5l-52 -138q-10 6 -25 7t-27 1q-31 0 -59 -21t-57 -71l-54 -280h-160zM158 590l20 100h294l-20 -100h-294zM44 -246q-31 0 -57.5 18.5t-26.5 55.5q0 36 28 63t68 27q32 0 58 -19t26 -55
q0 -39 -27.5 -64.5t-68.5 -25.5z" />
    <glyph glyph-name="uni1E5E" unicode="&#x1e5e;" horiz-adv-x="612" 
d="M26 0l130 650h214q65 0 117 -16.5t82.5 -54.5t30.5 -101q0 -91 -44.5 -147t-112.5 -82l97 -249h-168l-75 224h-67l-44 -224h-160zM256 350h58q65 0 96.5 29t31.5 75q0 36 -24.5 53t-69.5 17h-58zM108 -178l20 100h294l-20 -100h-294z" />
    <glyph glyph-name="uni1E5F" unicode="&#x1e5f;" horiz-adv-x="400" 
d="M8 0l100 500h130l-4 -98h4q29 48 68.5 79t81.5 31q21 0 34 -2.5t20 -7.5l-52 -138q-10 6 -25 7t-27 1q-31 0 -59 -21t-57 -71l-54 -280h-160zM-98 -170l20 100h294l-20 -100h-294z" />
    <glyph glyph-name="uni1E60" unicode="&#x1e60;" horiz-adv-x="538" 
d="M240 -12q-62 0 -124.5 28.5t-113.5 96.5l114 90q26 -35 62.5 -57t73.5 -22q35 0 55.5 15t20.5 42q0 22 -20 35.5t-54 34.5l-56 35q-45 29 -70.5 67t-25.5 99q0 59 32 106.5t86.5 75.5t120.5 28q57 0 109.5 -27t92.5 -74l-100 -94q-25 25 -50.5 41t-57.5 16
q-34 0 -51.5 -16.5t-17.5 -39.5q0 -20 20.5 -33.5t59.5 -38.5l60 -37q47 -28 67.5 -63t20.5 -92q0 -59 -31 -108.5t-88 -78.5t-135 -29zM376 706q-31 0 -57.5 18.5t-26.5 55.5q0 36 28 63t68 27q32 0 58 -19t26 -55q0 -39 -27.5 -64.5t-68.5 -25.5z" />
    <glyph glyph-name="uni1E61" unicode="&#x1e61;" horiz-adv-x="432" 
d="M172 -12q-29 0 -63 11t-65.5 32.5t-53.5 54.5l92 76q27 -31 52.5 -44.5t47.5 -13.5q23 0 39.5 9.5t16.5 24.5q0 20 -22.5 32t-61.5 34q-37 21 -66.5 56t-29.5 84q0 48 27 86t73 60t102 22q54 0 96.5 -23.5t73.5 -56.5l-86 -82q-18 18 -39 31t-45 13t-38 -10.5t-14 -25.5
q0 -21 26 -33t54 -29q24 -13 47 -31.5t38 -45t15 -63.5q0 -50 -27.5 -88t-76.5 -59t-112 -21zM290 564q-31 0 -57.5 18.5t-26.5 55.5q0 36 28 63t68 27q32 0 58 -19t26 -55q0 -39 -27.5 -64.5t-68.5 -25.5z" />
    <glyph glyph-name="uni1E62" unicode="&#x1e62;" horiz-adv-x="538" 
d="M240 -12q-62 0 -124.5 28.5t-113.5 96.5l114 90q26 -35 62.5 -57t73.5 -22q35 0 55.5 15t20.5 42q0 22 -20 35.5t-54 34.5l-56 35q-45 29 -70.5 67t-25.5 99q0 59 32 106.5t86.5 75.5t120.5 28q57 0 109.5 -27t92.5 -74l-100 -94q-25 25 -50.5 41t-57.5 16
q-34 0 -51.5 -16.5t-17.5 -39.5q0 -20 20.5 -33.5t59.5 -38.5l60 -37q47 -28 67.5 -63t20.5 -92q0 -59 -31 -108.5t-88 -78.5t-135 -29zM190 -254q-31 0 -57.5 18.5t-26.5 55.5q0 36 28 63t68 27q32 0 58 -19t26 -55q0 -39 -27.5 -64.5t-68.5 -25.5z" />
    <glyph glyph-name="uni1E63" unicode="&#x1e63;" horiz-adv-x="432" 
d="M172 -12q-29 0 -63 11t-65.5 32.5t-53.5 54.5l92 76q27 -31 52.5 -44.5t47.5 -13.5q23 0 39.5 9.5t16.5 24.5q0 20 -22.5 32t-61.5 34q-37 21 -66.5 56t-29.5 84q0 48 27 86t73 60t102 22q54 0 96.5 -23.5t73.5 -56.5l-86 -82q-18 18 -39 31t-45 13t-38 -10.5t-14 -25.5
q0 -21 26 -33t54 -29q24 -13 47 -31.5t38 -45t15 -63.5q0 -50 -27.5 -88t-76.5 -59t-112 -21zM124 -246q-31 0 -57.5 18.5t-26.5 55.5q0 36 28 63t68 27q32 0 58 -19t26 -55q0 -39 -27.5 -64.5t-68.5 -25.5z" />
    <glyph glyph-name="uni1E6A" unicode="&#x1e6a;" horiz-adv-x="540" 
d="M142 0l102 516h-164l26 134h488l-26 -134h-164l-102 -516h-160zM366 698q-31 0 -57.5 18.5t-26.5 55.5q0 36 28 63t68 27q32 0 58 -19t26 -55q0 -39 -27.5 -64.5t-68.5 -25.5z" />
    <glyph glyph-name="uni1E6B" unicode="&#x1e6b;" horiz-adv-x="384" 
d="M210 -12q-79 0 -114.5 39.5t-35.5 100.5q0 17 2.5 33.5t5.5 32.5l38 182h-64l24 118l72 6l44 128h134l-24 -128h108l-24 -124h-112l-38 -188q-1 -9 -1.5 -16.5t-0.5 -15.5q0 -44 48 -44q9 0 18 3t18 7l28 -112q-21 -7 -52.5 -14.5t-73.5 -7.5zM280 706q-31 0 -57.5 18.5
t-26.5 55.5q0 36 28 63t68 27q32 0 58 -19t26 -55q0 -39 -27.5 -64.5t-68.5 -25.5z" />
    <glyph glyph-name="uni1E6C" unicode="&#x1e6c;" horiz-adv-x="540" 
d="M142 0l102 516h-164l26 134h488l-26 -134h-164l-102 -516h-160zM180 -246q-31 0 -57.5 18.5t-26.5 55.5q0 36 28 63t68 27q32 0 58 -19t26 -55q0 -39 -27.5 -64.5t-68.5 -25.5z" />
    <glyph glyph-name="uni1E6D" unicode="&#x1e6d;" horiz-adv-x="384" 
d="M210 -12q-79 0 -114.5 39.5t-35.5 100.5q0 17 2.5 33.5t5.5 32.5l38 182h-64l24 118l72 6l44 128h134l-24 -128h108l-24 -124h-112l-38 -188q-1 -9 -1.5 -16.5t-0.5 -15.5q0 -44 48 -44q9 0 18 3t18 7l28 -112q-21 -7 -52.5 -14.5t-73.5 -7.5zM144 -246q-31 0 -57.5 18.5
t-26.5 55.5q0 36 28 63t68 27q32 0 58 -19t26 -55q0 -39 -27.5 -64.5t-68.5 -25.5z" />
    <glyph glyph-name="uni1E6E" unicode="&#x1e6e;" horiz-adv-x="540" 
d="M142 0l102 516h-164l26 134h488l-26 -134h-164l-102 -516h-160zM38 -170l20 100h294l-20 -100h-294z" />
    <glyph glyph-name="uni1E6F" unicode="&#x1e6f;" horiz-adv-x="384" 
d="M210 -12q-79 0 -114.5 39.5t-35.5 100.5q0 17 2.5 33.5t5.5 32.5l38 182h-64l24 118l72 6l44 128h134l-24 -128h108l-24 -124h-112l-38 -188q-1 -9 -1.5 -16.5t-0.5 -15.5q0 -44 48 -44q9 0 18 3t18 7l28 -112q-21 -7 -52.5 -14.5t-73.5 -7.5zM2 -170l20 100h294
l-20 -100h-294z" />
    <glyph glyph-name="Wgrave" unicode="&#x1e80;" horiz-adv-x="808" 
d="M70 0l28 650h164l-26 -294q-5 -51 -10.5 -103.5t-13.5 -104.5h4q20 52 41.5 105t40.5 103l123 294h133v-294q-1 -49 -4 -102l-6 -106h4q17 53 35 105.5t33 102.5l98 294h152l-246 -650h-202l8 278q0 29 3.5 71.5t7.5 79.5h-4q-13 -36 -28 -74.5t-29 -76.5l-108 -278h-198
zM518 670l-175 136l109 101l156 -159z" />
    <glyph glyph-name="wgrave" unicode="&#x1e81;" horiz-adv-x="764" 
d="M92 0l-19 500h158l-5 -222q-1 -37 -4.5 -74.5t-5.5 -75.5h4q14 38 27 76t29 74l91 222h136l5 -222q1 -37 -0.5 -74.5t-1.5 -75.5h4q14 38 25.5 75.5t24.5 74.5l80 222h148l-208 -500h-186v186q2 35 2 70.5t2 75.5h-4q-14 -40 -25.5 -75.5t-24.5 -70.5l-72 -186h-180z
M486 569l-162 173l136 102l124 -199z" />
    <glyph glyph-name="Wacute" unicode="&#x1e82;" horiz-adv-x="808" 
d="M70 0l28 650h164l-26 -294q-5 -51 -10.5 -103.5t-13.5 -104.5h4q20 52 41.5 105t40.5 103l123 294h133v-294q-1 -49 -4 -102l-6 -106h4q17 53 35 105.5t33 102.5l98 294h152l-246 -650h-202l8 278q0 29 3.5 71.5t7.5 79.5h-4q-13 -36 -28 -74.5t-29 -76.5l-108 -278h-198
zM452 680l-61 92l207 127l70 -117z" />
    <glyph glyph-name="wacute" unicode="&#x1e83;" horiz-adv-x="764" 
d="M92 0l-19 500h158l-5 -222q-1 -37 -4.5 -74.5t-5.5 -75.5h4q14 38 27 76t29 74l91 222h136l5 -222q1 -37 -0.5 -74.5t-1.5 -75.5h4q14 38 25.5 75.5t24.5 74.5l80 222h148l-208 -500h-186v186q2 35 2 70.5t2 75.5h-4q-14 -40 -25.5 -75.5t-24.5 -70.5l-72 -186h-180z
M436 578l-69 90l191 172l95 -122z" />
    <glyph glyph-name="Wdieresis" unicode="&#x1e84;" horiz-adv-x="808" 
d="M70 0l28 650h164l-26 -294q-5 -51 -10.5 -103.5t-13.5 -104.5h4q20 52 41.5 105t40.5 103l123 294h133v-294q-1 -49 -4 -102l-6 -106h4q17 53 35 105.5t33 102.5l98 294h152l-246 -650h-202l8 278q0 29 3.5 71.5t7.5 79.5h-4q-13 -36 -28 -74.5t-29 -76.5l-108 -278h-198
zM390 696q-27 0 -45.5 17t-18.5 47t23 57t59 27q26 0 45 -17t19 -47t-23 -57t-59 -27zM610 696q-27 0 -45.5 17t-18.5 47t23 57t59 27q26 0 45 -17t19 -47t-23 -57t-59 -27z" />
    <glyph glyph-name="wdieresis" unicode="&#x1e85;" horiz-adv-x="764" 
d="M92 0l-19 500h158l-5 -222q-1 -37 -4.5 -74.5t-5.5 -75.5h4q14 38 27 76t29 74l91 222h136l5 -222q1 -37 -0.5 -74.5t-1.5 -75.5h4q14 38 25.5 75.5t24.5 74.5l80 222h148l-208 -500h-186v186q2 35 2 70.5t2 75.5h-4q-14 -40 -25.5 -75.5t-24.5 -70.5l-72 -186h-180z
M346 566q-28 0 -47 17t-19 49t24 57t60 25q28 0 47 -17.5t19 -48.5q0 -34 -24 -58t-60 -24zM566 566q-28 0 -47 17t-19 49t24 57t60 25q28 0 47 -17.5t19 -48.5q0 -34 -24 -58t-60 -24z" />
    <glyph glyph-name="uni1E8E" unicode="&#x1e8e;" horiz-adv-x="528" 
d="M137 0l45 228l-103 422h166l21 -144q6 -37 11 -71t11 -73h4q20 39 37.5 74t38.5 72l78 142h172l-276 -422l-46 -228h-159zM366 698q-31 0 -57.5 18.5t-26.5 55.5q0 36 28 63t68 27q32 0 58 -19t26 -55q0 -39 -27.5 -64.5t-68.5 -25.5z" />
    <glyph glyph-name="uni1E8F" unicode="&#x1e8f;" horiz-adv-x="518" 
d="M52 -188q-15 0 -38 6.5t-38 15.5l48 114q17 -10 38 -10q23 0 45.5 15.5t35.5 41.5l10 20l-88 485h159l18 -205q3 -32 4.5 -73.5t1.5 -77.5h4q15 35 32 76t32 75l90 205h154l-261 -499q-56 -97 -111.5 -143t-135.5 -46zM330 564q-31 0 -57.5 18.5t-26.5 55.5q0 36 28 63
t68 27q32 0 58 -19t26 -55q0 -39 -27.5 -64.5t-68.5 -25.5z" />
    <glyph glyph-name="uni1E92" unicode="&#x1e92;" horiz-adv-x="530" 
d="M-6 0l20 96l330 420h-240l26 134h432l-20 -96l-326 -420h264l-28 -134h-458zM190 -254q-31 0 -57.5 18.5t-26.5 55.5q0 36 28 63t68 27q32 0 58 -19t26 -55q0 -39 -27.5 -64.5t-68.5 -25.5z" />
    <glyph glyph-name="uni1E93" unicode="&#x1e93;" horiz-adv-x="456" 
d="M-10 0l18 90l240 286h-164l24 124h364l-18 -92l-240 -284h190l-24 -124h-390zM154 -246q-31 0 -57.5 18.5t-26.5 55.5q0 36 28 63t68 27q32 0 58 -19t26 -55q0 -39 -27.5 -64.5t-68.5 -25.5z" />
    <glyph glyph-name="uni1E94" unicode="&#x1e94;" horiz-adv-x="530" 
d="M-6 0l20 96l330 420h-240l26 134h432l-20 -96l-326 -420h264l-28 -134h-458zM48 -178l20 100h294l-20 -100h-294z" />
    <glyph glyph-name="uni1E95" unicode="&#x1e95;" horiz-adv-x="456" 
d="M-10 0l18 90l240 286h-164l24 124h364l-18 -92l-240 -284h190l-24 -124h-390zM12 -170l20 100h294l-20 -100h-294z" />
    <glyph glyph-name="uni1E96" unicode="&#x1e96;" horiz-adv-x="556" 
d="M8 0l140 696h160l-34 -162l-24 -88h4q30 27 68.5 46.5t83.5 19.5q62 0 90 -32.5t28 -97.5q0 -16 -1.5 -35t-6.5 -37l-62 -310h-160l58 290q3 14 5.5 24.5t2.5 19.5q0 42 -42 42q-21 0 -41 -13.5t-47 -42.5l-62 -320h-160zM48 -170l20 100h294l-20 -100h-294z" />
    <glyph glyph-name="uni1E97" unicode="&#x1e97;" horiz-adv-x="384" 
d="M210 -12q-79 0 -114.5 39.5t-35.5 100.5q0 17 2.5 33.5t5.5 32.5l38 182h-64l24 118l72 6l44 128h134l-24 -128h108l-24 -124h-112l-38 -188q-1 -9 -1.5 -16.5t-0.5 -15.5q0 -44 48 -44q9 0 18 3t18 7l28 -112q-21 -7 -52.5 -14.5t-73.5 -7.5zM166 708q-28 0 -47 17
t-19 49t24 57t60 25q28 0 47 -17.5t19 -48.5q0 -34 -24 -58t-60 -24zM386 708q-28 0 -47 17t-19 49t24 57t60 25q28 0 47 -17.5t19 -48.5q0 -34 -24 -58t-60 -24z" />
    <glyph glyph-name="uni1E9E" unicode="&#x1e9e;" horiz-adv-x="686" 
d="M431 -12q-49 0 -96.5 17.5t-85.5 54.5l89 100q13 -15 33.5 -29.5t46.5 -14.5q24 0 43 17.5t19 47.5q0 25 -29 50.5t-89 42.5l8 92l120 114q-10 32 -36.5 48t-61.5 16q-48 0 -81 -39t-47 -107l-78 -398h-160l86 428q13 67 47.5 122t94 88.5t148.5 33.5q63 0 117.5 -22.5
t89 -68.5t37.5 -119l-122 -110q50 -25 85 -64.5t35 -98.5q0 -57 -27 -102.5t-75 -72t-111 -26.5z" />
    <glyph glyph-name="uni1EA0" unicode="&#x1ea0;" horiz-adv-x="562" 
d="M266 344l-34 -76h120l-2 76q-1 47 -2.5 92t-1.5 94h-4q-19 -48 -37 -93.5t-39 -92.5zM-66 0l340 650h192l62 -650h-168l-4 148h-179l-67 -148h-176zM190 -246q-31 0 -57.5 18.5t-26.5 55.5q0 36 28 63t68 27q32 0 58 -19t26 -55q0 -39 -27.5 -64.5t-68.5 -25.5z" />
    <glyph glyph-name="uni1EA1" unicode="&#x1ea1;" horiz-adv-x="558" 
d="M168 -12q-66 0 -103 48t-37 136q0 71 22 133t59.5 108.5t85 72.5t99.5 26q32 0 61.5 -16.5t42.5 -45.5h2l22 50h128l-100 -500h-130v62h-2q-33 -34 -73.5 -54t-76.5 -20zM240 118q20 0 44.5 13t43.5 53l32 160q-9 20 -24.5 29t-29.5 9q-29 0 -54.5 -24t-41.5 -67t-16 -99
q0 -39 12.5 -56.5t33.5 -17.5zM200 -246q-31 0 -57.5 18.5t-26.5 55.5q0 36 28 63t68 27q32 0 58 -19t26 -55q0 -39 -27.5 -64.5t-68.5 -25.5z" />
    <glyph glyph-name="uni1EA2" unicode="&#x1ea2;" horiz-adv-x="562" 
d="M266 344l-34 -76h120l-2 76q-1 47 -2.5 92t-1.5 94h-4q-19 -48 -37 -93.5t-39 -92.5zM-66 0l340 650h192l62 -650h-168l-4 148h-179l-67 -148h-176zM326 688l1 66q17 2 30 7t15 17t-13.5 19.5t-59.5 10.5l37 84q69 -2 105.5 -14.5t49 -33.5t6.5 -48q-10 -54 -59.5 -79.5
t-111.5 -28.5z" />
    <glyph glyph-name="uni1EA3" unicode="&#x1ea3;" horiz-adv-x="558" 
d="M168 -12q-66 0 -103 48t-37 136q0 71 22 133t59.5 108.5t85 72.5t99.5 26q32 0 61.5 -16.5t42.5 -45.5h2l22 50h128l-100 -500h-130v62h-2q-33 -34 -73.5 -54t-76.5 -20zM240 118q20 0 44.5 13t43.5 53l32 160q-9 20 -24.5 29t-29.5 9q-29 0 -54.5 -24t-41.5 -67t-16 -99
q0 -39 12.5 -56.5t33.5 -17.5zM279 566l1 66q17 2 29.5 8.5t15.5 21.5q4 17 -11.5 27t-58.5 13l30 104q73 -2 111.5 -19.5t50.5 -46.5t5 -66q-7 -36 -32.5 -59t-62.5 -35t-78 -14z" />
    <glyph glyph-name="uni1EA4" unicode="&#x1ea4;" horiz-adv-x="562" 
d="M266 344l-34 -76h120l-2 76q-1 47 -2.5 92t-1.5 94h-4q-19 -48 -37 -93.5t-39 -92.5zM-66 0l340 650h192l62 -650h-168l-4 148h-179l-67 -148h-176zM268 680l-62 44l106 104h148l70 -104l-74 -44l-80 72h-4zM526 761l-40 60l116 74l42 -72z" />
    <glyph glyph-name="uni1EA5" unicode="&#x1ea5;" horiz-adv-x="558" 
d="M168 -12q-66 0 -103 48t-37 136q0 71 22 133t59.5 108.5t85 72.5t99.5 26q32 0 61.5 -16.5t42.5 -45.5h2l22 50h128l-100 -500h-130v62h-2q-33 -34 -73.5 -54t-76.5 -20zM240 118q20 0 44.5 13t43.5 53l32 160q-9 20 -24.5 29t-29.5 9q-29 0 -54.5 -24t-41.5 -67t-16 -99
q0 -39 12.5 -56.5t33.5 -17.5zM226 564l-46 64l106 88h136l74 -96l-62 -56l-88 66h-4zM516 641l-54 55l98 122l79 -66z" />
    <glyph glyph-name="uni1EA6" unicode="&#x1ea6;" horiz-adv-x="562" 
d="M266 344l-34 -76h120l-2 76q-1 47 -2.5 92t-1.5 94h-4q-19 -48 -37 -93.5t-39 -92.5zM-66 0l340 650h192l62 -650h-168l-4 148h-179l-67 -148h-176zM268 680l-62 44l106 104h148l70 -104l-74 -44l-80 72h-4zM198 756l-94 81l66 62l87 -92z" />
    </font>
</defs>
</svg>
